<?xml version="1.0" encoding="UTF-8" standalone="no"?>
<!DOCTYPE svg  PUBLIC '-//W3C//DTD SVG 1.1//EN'  'http://www.w3.org/Graphics/SVG/1.1/DTD/svg11.dtd'>
<svg xmlns="http://www.w3.org/2000/svg">
<defs>
<font id="AvenirNextCyr-UltraLight" horiz-adv-x="666">
<font-face underline-position="125" font-weight="275" descent="-200" panose-1="2 11 2 3 2 2 2 2 2 4" units-per-em="1000" unicode-range="U+0020-25CA" bbox="-194 -250 965 945" x-height="460" underline-thickness="50" font-family="AvenirNextCyr" ascent="800" cap-height="708"/>
<missing-glyph horiz-adv-x="1000"/>
<glyph glyph-name=".notdef" horiz-adv-x="1000"/>
<glyph glyph-name=".null" horiz-adv-x="1000"/>
<glyph glyph-name=".null" horiz-adv-x="1000"/>
<glyph glyph-name="nonmarkingreturn" horiz-adv-x="333"/>
<glyph glyph-name="space" horiz-adv-x="250" unicode=" "/>
<glyph glyph-name="exclam" horiz-adv-x="276" unicode="!" d="M149 708v-513h-22v513h22zM138 45q9 0 16 -7.5t7 -18.5q0 -10 -7 -17.5t-16 -7.5t-16 7.5t-7 17.5q0 12 7 19t16 7z"/>
<glyph glyph-name="quotedbl" horiz-adv-x="404" unicode='&quot;' d="M285 480h-22v228h22v-228zM141 480h-22v228h22v-228z"/>
<glyph glyph-name="numbersign" horiz-adv-x="550" unicode="#" d="M359 453h-171l-26 -196h171zM492 453h-114l-26 -196h112v-17h-114l-30 -240h-19l30 240h-172l-30 -240h-19l30 240h-111v17h113l27 196h-111v17h113l30 238h19l-31 -238h172l31 238h19l-31 -238h112v-17z"/>
<glyph glyph-name="dollar" horiz-adv-x="560" unicode="$" d="M255 371v329q-69 -7 -117 -49.5t-48 -111.5q0 -70 44 -106.5t121 -61.5zM277 6q78 3 130 47.5t52 120.5q0 37 -14.5 65t-43.5 47.5t-56 31.5t-68 25v-337zM277 -13v-71h-22v71q-125 5 -200 89l17 15q35 -39 84 -61t99 -24v343q-94 30 -140.5 71t-46.5 120q0 77 51.5 124 t135.5 56v72h22v-71q127 0 191 -78l-17 -15q-60 74 -174 74v-338q50 -16 81 -29.5t62.5 -35.5t46 -53t14.5 -73q0 -84 -57.5 -133t-146.5 -53z"/>
<glyph glyph-name="percent" horiz-adv-x="820" unicode="%" d="M635 725l-440 -752l-16 11l440 752zM745 150q0 58 -39.5 99t-95.5 41t-95 -41t-39 -99q0 -59 39 -99t95 -40t95.5 40t39.5 99zM767 150q0 -67 -46 -112.5t-111 -45.5t-110.5 45.5t-45.5 112.5t45.5 113t110.5 46t111 -46.5t46 -112.5zM344 556q0 58 -39.5 99t-95.5 41 t-95 -41t-39 -99q0 -59 39 -99t95 -40t95.5 40t39.5 99zM366 556q0 -67 -46 -112.5t-111 -45.5t-110.5 45.5t-45.5 112.5t45.5 113t110.5 46t111 -46.5t46 -112.5z"/>
<glyph glyph-name="ampersand" horiz-adv-x="704" unicode="&amp;" d="M486 140l-224 238q-76 -37 -120.5 -84.5t-44.5 -114.5q0 -80 53 -129t130 -49q62 0 116 37t90 102zM435 582q0 56 -37 91t-91 35q-55 0 -93 -37.5t-38 -95.5q0 -44 21.5 -81.5t70.5 -92.5q85 45 126 84t41 97zM646 0h-29l-116 124q-90 -142 -226 -142q-86 0 -143 54 t-57 143q0 72 43 119.5t130 94.5q-54 60 -74 99t-20 82q0 67 44 109.5t111 42.5q63 0 105.5 -40.5t42.5 -99.5q0 -65 -42.5 -106.5t-133.5 -91.5l215 -231l115 212h25l-124 -225z"/>
<glyph glyph-name="quotesingle" horiz-adv-x="260" unicode="&apos;" d="M141 480h-22v228h22v-228z"/>
<glyph glyph-name="parenleft" horiz-adv-x="300" unicode="(" d="M74 288q0 119 34 237t95 207l20 -10q-58 -81 -92.5 -202t-34.5 -232t34.5 -232t92.5 -202l-20 -10q-61 89 -95 207t-34 237z"/>
<glyph glyph-name="parenright" horiz-adv-x="300" unicode=")" d="M224 288q0 -119 -34 -237t-95 -207l-20 10q58 81 92.5 202t34.5 232t-34.5 232t-92.5 202l20 10q61 -89 95 -207t34 -237z"/>
<glyph glyph-name="asterisk" horiz-adv-x="444" unicode="*" d="M231 537l163 52l6 -17l-165 -50l102 -142l-14 -10l-101 143l-101 -143l-14 10l102 142l-165 50l6 17l163 -52v171h18v-171z"/>
<glyph glyph-name="plus" d="M345 295v-230h-21v230h-224v19h224v230h21v-230h221v-19h-221z" unicode="+"/>
<glyph glyph-name="comma" horiz-adv-x="240" unicode="," d="M152 90l-64 -228h-17l57 228h24z"/>
<glyph glyph-name="hyphen" horiz-adv-x="300" unicode="-" d="M240 244h-180v20h180v-20z"/>
<glyph glyph-name="period" horiz-adv-x="240" unicode="." d="M120 -6q-9 0 -16 7t-7 19q0 10 7 17.5t16 7.5t16 -7.5t7 -17.5q0 -11 -7 -18.5t-16 -7.5z"/>
<glyph glyph-name="slash" horiz-adv-x="370" unicode="/" d="M349 722l-307 -737l-19 7l307 737z"/>
<glyph glyph-name="zero" horiz-adv-x="560" unicode="0" d="M280 700q-43 0 -77 -17.5t-55 -49t-35 -66t-20 -77t-8.5 -73.5t-2.5 -63t2.5 -63t8.5 -73.5t20 -77t35 -66t55 -49t77 -17.5t77 17.5t55 49t35 66t20 77t8.5 73.5t2.5 63t-2.5 63t-8.5 73.5t-20 77t-35 66t-55 49t-77 17.5zM280 -12q-65 0 -110.5 33t-68 90t-32 116 t-9.5 127t9.5 127t32 116t68 90t110.5 33t110.5 -33t68 -90t32 -116t9.5 -127t-9.5 -127t-32 -116t-68 -90t-110.5 -33z"/>
<glyph glyph-name="one" horiz-adv-x="560" unicode="1" d="M312 0h-22v682l-134 -114l-13 17l147 123h22v-708z"/>
<glyph glyph-name="two" horiz-adv-x="560" unicode="2" d="M460 0h-397v26l247 290q62 73 92 124t30 101q0 73 -45 116.5t-115 43.5q-59 0 -102.5 -31.5t-61.5 -89.5l-21 7q18 63 68 98t117 35q80 0 131 -49t51 -123q0 -61 -30 -112.5t-106 -141.5l-232 -273h374v-21z"/>
<glyph glyph-name="three" horiz-adv-x="560" unicode="3" d="M465 186q0 -84 -51.5 -141t-151.5 -57q-67 0 -120 30.5t-79 82.5l21 9q22 -45 70 -72.5t108 -29.5h6q82 0 128.5 51.5t46.5 127.5q0 44 -19.5 79t-50 55t-65 30.5t-68.5 10.5h-22v20h22q71 0 124.5 42t53.5 123q0 69 -44 111.5t-112 42.5q-44 0 -84 -19.5t-63 -53.5 l-18 12q57 80 165 80q77 0 127 -47.5t50 -125.5q0 -65 -37.5 -113t-111.5 -60v-2q86 -14 130.5 -65.5t44.5 -120.5z"/>
<glyph glyph-name="four" horiz-adv-x="560" unicode="4" d="M374 204v480h-3l-308 -480h311zM514 184h-118v-184h-22v184h-331v27l319 497h34v-504h118v-20z"/>
<glyph glyph-name="five" horiz-adv-x="560" unicode="5" d="M476 215q0 -106 -64 -166.5t-151 -60.5q-124 0 -192 94l18 14q60 -88 174 -88q76 0 134.5 55t58.5 152q0 89 -55 146.5t-150 57.5q-64 0 -131 -36l5 325h323v-20h-301l-6 -275q49 25 119 25q100 0 159 -62.5t59 -160.5z"/>
<glyph glyph-name="six" horiz-adv-x="560" unicode="6" d="M92 201q0 -84 53 -139t135 -55t135 55t53 139t-52 140.5t-131 56.5t-136 -57t-57 -140zM70 201q0 81 60 185l187 322h26l-213 -360l2 -1q26 32 68 51t88 19q86 0 144 -61.5t58 -154.5q0 -92 -59.5 -152.5t-151.5 -60.5t-150.5 59.5t-58.5 153.5z"/>
<glyph glyph-name="seven" horiz-adv-x="560" unicode="7" d="M459 708v-27l-295 -681h-24l300 688h-364v20h383z"/>
<glyph glyph-name="eight" horiz-adv-x="560" unicode="8" d="M467 188q0 79 -54.5 131t-132.5 52t-132.5 -52t-54.5 -131q0 -78 52 -129.5t135 -51.5t135 51.5t52 129.5zM441 547q0 68 -46 111t-115 43t-115 -43t-46 -111q0 -65 46 -112t115 -47t115 47t46 112zM489 188q0 -90 -59 -145t-150 -55t-150 55t-59 145q0 65 38 118t111 73 v2q-60 23 -91 68.5t-31 97.5q0 77 51.5 125t130.5 48t130.5 -48t51.5 -125q0 -52 -31.5 -98.5t-90.5 -67.5v-2q75 -23 112 -74.5t37 -116.5z"/>
<glyph glyph-name="nine" horiz-adv-x="560" unicode="9" d="M468 509q0 84 -53 138t-135 54t-135 -54t-53 -138t51.5 -138.5t131.5 -54.5q79 0 136 55t57 138zM490 509q0 -75 -60 -181l-188 -328h-26l214 366l-2 1q-26 -32 -68 -51t-88 -19q-86 0 -144 60t-58 152t59.5 151.5t151.5 59.5t150.5 -58.5t58.5 -152.5z"/>
<glyph glyph-name="colon" horiz-adv-x="280" unicode=":" d="M140 -6q-9 0 -16 7t-7 19q0 10 7 17.5t16 7.5t16 -7.5t7 -17.5q0 -11 -7 -18.5t-16 -7.5zM140 409q-9 0 -16 7t-7 19q0 10 7 17.5t16 7.5t16 -7.5t7 -17.5q0 -11 -7 -18.5t-16 -7.5z"/>
<glyph glyph-name="semicolon" horiz-adv-x="280" unicode=";" d="M162 90l-64 -228h-17l57 228h24zM140 409q-9 0 -16 7t-7 19q0 10 7 17.5t16 7.5t16 -7.5t7 -17.5q0 -11 -7 -18.5t-16 -7.5z"/>
<glyph glyph-name="less" d="M566 67l-466 224v24l466 224v-20l-454 -216l454 -216v-20z" unicode="&lt;"/>
<glyph glyph-name="equal" d="M566 209h-466v19h466v-19zM566 380h-466v19h466v-19z" unicode="="/>
<glyph glyph-name="greater" d="M100 67v20l454 216l-454 216v20l466 -224v-24z" unicode="&gt;"/>
<glyph glyph-name="question" horiz-adv-x="472" unicode="?" d="M250 244v-44h-22v53q0 82 69 137l34 30q24 23 36.5 37.5t23 40.5t10.5 58q0 70 -45.5 109.5t-115.5 39.5q-67 0 -111 -39.5t-55 -104.5l-21 4q13 77 64 119t125 42q78 0 129.5 -44.5t51.5 -124.5q0 -39 -14.5 -71.5t-30 -48.5t-45.5 -42q-51 -42 -67 -71.5t-16 -79.5z M241 45q9 0 16 -7.5t7 -18.5q0 -10 -7 -17.5t-16 -7.5t-16 7.5t-7 17.5q0 12 7 19t16 7z"/>
<glyph glyph-name="at" horiz-adv-x="800" unicode="@" d="M523 432q0 44 -23 72.5t-68 28.5q-53 0 -95 -40.5t-62 -96.5t-20 -110q0 -47 25 -76.5t72 -29.5q52 0 93.5 49.5t59.5 105.5t18 97zM760 415q0 -112 -52 -183.5t-143 -71.5q-37 0 -59.5 18t-22.5 55q0 11 1 16h-2q-20 -36 -54.5 -62.5t-80.5 -26.5q-56 0 -85 37t-29 90 q0 96 57 181t142 85q45 0 72 -24.5t32 -66.5h4l20 73h21l-68 -237q-10 -38 -10 -60q0 -58 62 -58q86 0 130 68.5t44 166.5q0 126 -92.5 209.5t-230.5 83.5q-148 0 -247.5 -105.5t-99.5 -247.5q0 -149 99 -252t253 -103q83 0 157 36.5t125 96.5l15 -13q-119 -140 -297 -140 q-166 0 -270 108t-104 267q0 156 107 264.5t262 108.5q149 0 246.5 -89t97.5 -224z"/>
<glyph glyph-name="A" d="M533 222l-195 472l-201 -472h396zM648 0h-24l-84 203h-411l-87 -203h-24l307 708h28z" unicode="A"/>
<glyph glyph-name="B" horiz-adv-x="612" unicode="B" d="M529 186q0 61 -33.5 102.5t-78 58t-93.5 16.5h-196v-343h185q98 0 157 41t59 125zM496 538q0 80 -56.5 115t-146.5 35h-165v-305h170q81 0 139.5 39.5t58.5 115.5zM551 189q0 -54 -21 -93t-56 -58.5t-72.5 -28.5t-78.5 -9h-217v708h193q43 0 80 -8t69.5 -26.5t51 -52 t18.5 -80.5q0 -70 -41 -110.5t-103 -54.5v-2q66 -6 121.5 -53t55.5 -132z"/>
<glyph glyph-name="C" horiz-adv-x="724" unicode="C" d="M686 87q-43 -52 -111 -79.5t-142 -27.5q-159 0 -260 105.5t-101 268.5t101.5 268.5t259.5 105.5q148 0 235 -91l-14 -16q-40 43 -100.5 65t-120.5 22q-149 0 -244 -102t-95 -252t94 -252t245 -102q68 0 132.5 26.5t104.5 75.5z"/>
<glyph glyph-name="D" horiz-adv-x="770" unicode="D" d="M302 688h-173v-668h173q167 0 270 83.5t103 250.5q0 168 -103 251t-270 83zM698 354q0 -89 -30 -158t-83.5 -111t-123.5 -63.5t-154 -21.5h-201v708h201q175 0 283 -89t108 -265z"/>
<glyph glyph-name="E" horiz-adv-x="590" unicode="E" d="M534 0h-428v708h412v-20h-391v-311h368v-20h-368v-337h407v-20z"/>
<glyph glyph-name="F" horiz-adv-x="560" unicode="F" d="M510 688h-382v-311h355v-20h-355v-357h-22v708h404v-20z"/>
<glyph glyph-name="G" horiz-adv-x="795" unicode="G" d="M699 41q-108 -61 -254 -61q-166 0 -269.5 107t-103.5 269t103.5 267t265.5 105q140 0 238 -82l-16 -16q-39 37 -100.5 57.5t-122.5 20.5q-154 0 -250 -101.5t-96 -250.5q0 -152 95.5 -254t257.5 -102q125 0 231 53v278h-184v19h205v-309z"/>
<glyph glyph-name="H" horiz-adv-x="732" unicode="H" d="M626 0h-22v356h-476v-356h-22v708h22v-332h476v332h22v-708z"/>
<glyph glyph-name="I" horiz-adv-x="234" unicode="I" d="M128 0h-22v708h22v-708z"/>
<glyph glyph-name="J" horiz-adv-x="480" unicode="J" d="M378 193q0 -99 -46.5 -155t-134.5 -56q-60 0 -105 31.5t-63 79.5l19 9q20 -46 59.5 -73t89.5 -27q82 0 120.5 52.5t38.5 141.5v512h22v-515z"/>
<glyph glyph-name="K" horiz-adv-x="565" unicode="K" d="M128 383h1l356 325h32l-360 -325l378 -383h-31l-375 381h-1v-381h-22v708h22v-325z"/>
<glyph glyph-name="L" horiz-adv-x="498" unicode="L" d="M480 0h-374v708h22v-688h352v-20z"/>
<glyph glyph-name="M" horiz-adv-x="906" unicode="M" d="M800 0h-22v683h-4l-313 -683h-18l-312 683h-3v-683h-22v708h39l308 -676l308 676h39v-708z"/>
<glyph glyph-name="N" horiz-adv-x="777" unicode="N" d="M671 0h-32l-508 680h-3v-680h-22v708h31l509 -679h3v679h22v-708z"/>
<glyph glyph-name="O" horiz-adv-x="872" unicode="O" d="M778 354q0 150 -96.5 252t-245.5 102t-245.5 -102t-96.5 -252t96 -252t246 -102q151 0 246.5 102t95.5 252zM800 354q0 -163 -103.5 -268.5t-260.5 -105.5t-260.5 105.5t-103.5 268.5t103 268.5t261 105.5t261 -105.5t103 -268.5z"/>
<glyph glyph-name="P" horiz-adv-x="572" unicode="P" d="M495 532q0 56 -30 93t-70 50.5t-88 13.5h-179v-322h184q75 0 129 41.5t54 123.5zM517 532q0 -87 -59 -135.5t-147 -48.5h-183v-348h-22v708h192q41 0 77.5 -9t69.5 -28t52.5 -54.5t19.5 -84.5z"/>
<glyph glyph-name="Q" horiz-adv-x="883" unicode="Q" d="M778 361q0 145 -97 246t-245 101q-149 0 -245.5 -100t-96.5 -247q0 -144 97 -242.5t246 -98.5q150 0 245.5 102t95.5 239zM800 361q0 -119 -72.5 -218t-177.5 -121v-2h288v-20h-404q-152 0 -257 100.5t-105 260.5t103 263.5t261 103.5q157 0 260.5 -104.5t103.5 -262.5z "/>
<glyph glyph-name="R" horiz-adv-x="594" unicode="R" d="M502 533q0 156 -212 156h-162v-313h173q97 0 149 41t52 116zM533 0h-25l-214 357h-166v-357h-22v708h196q43 0 79.5 -7.5t70.5 -26t53 -54.5t19 -87q0 -47 -18.5 -82.5t-50 -54.5t-66 -28.5t-71.5 -9.5z"/>
<glyph glyph-name="S" horiz-adv-x="570" unicode="S" d="M498 170q0 -88 -62 -139t-153 -51q-132 0 -211 87l17 15q77 -82 193 -82q82 0 138 46t56 124q0 39 -15.5 68.5t-47 49.5t-58.5 31.5t-71 25.5q-101 32 -150 73.5t-49 124.5q0 85 63 135t155 50q118 0 182 -79l-17 -15q-58 74 -166 74q-78 0 -136.5 -43.5t-58.5 -121.5 q0 -39 14 -69t42.5 -50t54 -31.5t65.5 -24.5q43 -14 69.5 -24t57.5 -27.5t48 -36t28.5 -47t11.5 -63.5z"/>
<glyph glyph-name="T" horiz-adv-x="540" unicode="T" d="M522 688h-241v-688h-22v688h-241v20h504v-20z"/>
<glyph glyph-name="U" horiz-adv-x="732" unicode="U" d="M636 268q0 -131 -64.5 -209.5t-205.5 -78.5t-205.5 78.5t-64.5 209.5v440h22v-436q0 -38 5 -71.5t21 -72t42 -65.5t72 -45t108 -18q60 0 106 17.5t72.5 44.5t42.5 64.5t21.5 72t5.5 73.5v436h22v-440z"/>
<glyph glyph-name="V" horiz-adv-x="606" unicode="V" d="M588 708l-270 -708h-34l-266 708h24l258 -688h2l262 688h24z"/>
<glyph glyph-name="W" horiz-adv-x="956" unicode="W" d="M928 708l-212 -708h-34l-205 687h-2l-201 -687h-34l-212 708h23l204 -688h3l201 688h34l205 -688h3l204 688h23z"/>
<glyph glyph-name="X" horiz-adv-x="590" unicode="X" d="M558 0h-27l-236 354l-237 -354h-26l250 371l-226 337h26l213 -320l213 320h25l-225 -337z"/>
<glyph glyph-name="Y" horiz-adv-x="538" unicode="Y" d="M523 708l-243 -398v-310h-22v310l-243 398h26l229 -376l228 376h25z"/>
<glyph glyph-name="Z" horiz-adv-x="594" unicode="Z" d="M552 0h-498v27l466 661h-453v20h473v-29l-465 -659h477v-20z"/>
<glyph glyph-name="bracketleft" horiz-adv-x="300" unicode="[" d="M220 -156h-140v888h140v-19h-118v-850h118v-19z"/>
<glyph glyph-name="backslash" horiz-adv-x="370" unicode="\" d="M23 722l19 7l307 -737l-19 -7z"/>
<glyph glyph-name="bracketright" horiz-adv-x="300" unicode="]" d="M80 -156v19h118v850h-118v19h140v-888h-140z"/>
<glyph glyph-name="asciicircum" d="M97 242l224 466h24l224 -466h-20l-216 454l-216 -454h-20z" unicode="^"/>
<glyph glyph-name="underscore" horiz-adv-x="500" unicode="_" d="M500 -114h-500v20h500v-20z"/>
<glyph glyph-name="grave" horiz-adv-x="240" unicode="`" d="M20 708h27l103 -144h-19z"/>
<glyph glyph-name="a" horiz-adv-x="512" unicode="a" d="M396 207v44h-71q-237 0 -237 -133q0 -57 40.5 -85t91.5 -28q49 0 85 18.5t55 49.5t27.5 64t8.5 70zM418 104q0 -54 8 -104h-21q-8 52 -8 110h-3q-19 -60 -67 -92t-107 -32q-62 0 -108 34t-46 98q0 47 24.5 79t65.5 47t79 20.5t81 5.5h80v37q0 74 -39.5 111t-108.5 37 q-78 0 -140 -55l-12 17q65 57 152 57q81 0 125.5 -42t44.5 -126v-202z"/>
<glyph glyph-name="b" horiz-adv-x="626" unicode="b" d="M542 229q0 94 -57.5 160t-150.5 66q-90 0 -150.5 -66t-60.5 -159t60.5 -159t150.5 -66q93 0 150.5 65t57.5 159zM127 335q29 67 84.5 103t122.5 36q102 0 166 -69t64 -176q0 -105 -65 -174t-165 -69q-68 0 -125 36.5t-82 101.5h-3v-124h-22v756h22v-421h3z"/>
<glyph glyph-name="c" horiz-adv-x="480" unicode="c" d="M447 413l-17 -15q-55 57 -134 57q-95 0 -153.5 -66t-58.5 -160t58.5 -159t153.5 -65q83 0 138 52l15 -14q-57 -57 -153 -57q-102 0 -168 68.5t-66 174.5t66.5 175.5t167.5 69.5q92 0 151 -61z"/>
<glyph glyph-name="d" horiz-adv-x="626" unicode="d" d="M84 229q0 -94 57.5 -159t150.5 -65q90 0 150.5 66t60.5 159t-60.5 159t-150.5 66q-93 0 -150.5 -66t-57.5 -160zM502 335v421h22v-756h-22v124h-3q-29 -66 -84.5 -102t-122.5 -36q-100 0 -165 69t-65 174t65 175t165 70q67 0 122.5 -36t84.5 -103h3z"/>
<glyph glyph-name="e" horiz-adv-x="556" unicode="e" d="M473 254q-2 90 -55 145.5t-138 55.5q-49 0 -88.5 -21.5t-61.5 -53.5t-33.5 -65t-11.5 -61h388zM494 235h-410q0 -92 54 -160.5t153 -68.5q105 0 169 84l16 -14q-70 -90 -185 -90q-102 0 -165.5 70t-63.5 179q0 104 63 171.5t156 67.5q102 0 157.5 -65.5t55.5 -154.5v-19z "/>
<glyph glyph-name="f" horiz-adv-x="282" unicode="f" d="M286 762l-4 -17q-22 5 -41 5q-51 0 -74.5 -36t-23.5 -88v-166h125v-19h-125v-441h-22v441h-97v19h96v165q0 77 35.5 110t84.5 33q26 0 46 -6z"/>
<glyph glyph-name="g" horiz-adv-x="626" unicode="g" d="M84 229q0 -94 57.5 -159.5t150.5 -65.5q90 0 150.5 66.5t60.5 159.5t-60.5 159t-150.5 66q-93 0 -150.5 -66t-57.5 -160zM502 28v96h-3q-25 -65 -82 -101.5t-125 -36.5q-100 0 -165 69t-65 174t65 175t165 70q67 0 122.5 -36t84.5 -103h3v125h22v-434q0 -57 -12 -105 t-37.5 -87.5t-70.5 -61.5t-107 -22q-127 0 -203 86l15 15q72 -82 188 -82q58 0 99.5 21t63.5 59t32 82t10 97z"/>
<glyph glyph-name="h" horiz-adv-x="569" unicode="h" d="M124 339h2q20 63 70 99t111 36q88 0 127 -56.5t39 -139.5v-278h-22v276q0 32 -6.5 60.5t-21.5 56.5t-45 45t-71 17q-78 0 -130.5 -61t-52.5 -164v-230h-22v756h22v-417z"/>
<glyph glyph-name="i" horiz-adv-x="226" unicode="i" d="M124 0h-22v460h22v-460zM113 633q-9 0 -16 7t-7 19q0 10 7 17.5t16 7.5t16 -7.5t7 -17.5q0 -11 -7 -18.5t-16 -7.5z"/>
<glyph glyph-name="j" horiz-adv-x="226" unicode="j" d="M113 633q-9 0 -16 7t-7 19q0 10 7 17.5t16 7.5t16 -7.5t7 -17.5q0 -11 -7 -18.5t-16 -7.5zM124 -97q0 -75 -23.5 -109.5t-88.5 -34.5q-17 0 -29 3l4 19q14 -3 25 -3q30 0 49.5 10t27.5 30t10.5 38t2.5 45v559h22v-557z"/>
<glyph glyph-name="k" horiz-adv-x="445" unicode="k" d="M124 248h1l238 212h31l-243 -213l271 -247h-33l-264 243h-1v-243h-22v756h22v-508z"/>
<glyph glyph-name="l" horiz-adv-x="226" unicode="l" d="M124 0h-22v756h22v-756z"/>
<glyph glyph-name="m" horiz-adv-x="889" unicode="m" d="M452 333h2q19 66 67 103.5t110 37.5q59 0 96.5 -30t51.5 -72t14 -94v-278h-22v276q0 70 -33 124.5t-107 54.5t-124 -61t-50 -164v-230h-22v276q0 32 -6 60.5t-20 57t-42 45t-67 16.5q-74 0 -123.5 -61t-49.5 -164v-230h-22v344q0 73 -5 116h22q4 -52 4 -121h2 q20 63 67.5 99t104.5 36q127 0 152 -141z"/>
<glyph glyph-name="n" horiz-adv-x="572" unicode="n" d="M128 339q21 63 71 99t111 36q88 0 127 -56.5t39 -139.5v-278h-22v276q0 32 -6.5 60.5t-21.5 56.5t-45 45t-71 17q-78 0 -130.5 -61t-52.5 -164v-230h-22v344q0 73 -5 116h22q4 -52 4 -121h2z"/>
<glyph glyph-name="o" horiz-adv-x="605" unicode="o" d="M521 231q0 96 -60 160t-159 64t-158.5 -64t-59.5 -160t59.5 -161t158.5 -65t159 65t60 161zM543 231q0 -107 -67.5 -176t-173.5 -69t-173 69t-67 176t67 175t173 68t173.5 -68t67.5 -175z"/>
<glyph glyph-name="p" horiz-adv-x="626" unicode="p" d="M542 229q0 94 -57.5 160t-150.5 66q-90 0 -150.5 -66t-60.5 -159t60.5 -159t150.5 -66q93 0 150.5 65t57.5 159zM124 335h3q29 67 84.5 103t122.5 36q102 0 166 -69t64 -176q0 -105 -65 -174t-165 -69q-68 0 -125 36.5t-82 101.5h-3v-364h-22v700h22v-125z"/>
<glyph glyph-name="q" horiz-adv-x="626" unicode="q" d="M84 229q0 -94 57.5 -159t150.5 -65q90 0 150.5 66t60.5 159t-60.5 159t-150.5 66q-93 0 -150.5 -66t-57.5 -160zM502 335v125h22v-700h-22v364h-3q-25 -65 -82 -101.5t-125 -36.5q-100 0 -165 69t-65 174q0 107 64 176t166 69q67 0 122.5 -36t84.5 -103h3z"/>
<glyph glyph-name="r" horiz-adv-x="317" unicode="r" d="M128 339q19 68 62 101.5t97 33.5q12 0 18 -1v-19q-5 1 -13 1q-55 0 -93.5 -34t-55 -81.5t-16.5 -101.5v-238h-22v344q0 73 -5 116h22q4 -52 4 -121h2z"/>
<glyph glyph-name="s" horiz-adv-x="415" unicode="s" d="M361 120q0 -60 -43 -96t-107 -36q-106 0 -161 77l18 12q50 -70 144 -70q49 0 88 30t39 81q0 14 -2.5 26t-9.5 21.5t-12.5 17t-17.5 14t-19 10.5t-22.5 9t-21.5 7t-23 6.5t-21 5.5q-60 16 -90.5 41t-30.5 80q0 56 42 87t99 31q94 0 141 -67l-19 -11q-44 59 -122 59 q-45 0 -82 -24t-37 -74q0 -28 8 -46t27.5 -30t36 -17.5t50.5 -14.5q5 -1 8 -2q32 -8 53.5 -16.5t43 -23t32.5 -36.5t11 -51z"/>
<glyph glyph-name="t" horiz-adv-x="304" unicode="t" d="M280 -1q-29 -11 -59 -11q-51 0 -76 29t-25 78v346h-100v19h99v135h23v-135h135v-19h-135v-346q0 -88 84 -88q28 0 51 9z"/>
<glyph glyph-name="u" horiz-adv-x="572" unicode="u" d="M442 121q-21 -63 -71 -99t-111 -36q-88 0 -127 56.5t-39 139.5v278h22v-276q0 -32 6.5 -60.5t21.5 -56.5t45 -45t71 -17q78 0 130.5 61t52.5 164v230h22v-344q0 -73 5 -116h-22q-4 52 -4 121h-2z"/>
<glyph glyph-name="v" horiz-adv-x="434" unicode="v" d="M410 460l-176 -460h-29l-181 460h24l171 -438h2l165 438h24z"/>
<glyph glyph-name="w" horiz-adv-x="698" unicode="w" d="M664 460l-135 -460h-30l-150 436h-2l-149 -436h-30l-134 460h23l126 -438h2l148 438h31l149 -438h2l126 438h23z"/>
<glyph glyph-name="x" horiz-adv-x="452" unicode="x" d="M395 0l-171 228l-168 -228h-28l182 243l-159 217h28l146 -202l145 202h29l-160 -217l185 -243h-29z"/>
<glyph glyph-name="y" horiz-adv-x="428" unicode="y" d="M404 460l-228 -612q-33 -90 -111 -90q-23 0 -41 7l6 19q16 -6 37 -6q63 0 95 89l44 120l-182 473h24l169 -448l163 448h24z"/>
<glyph glyph-name="z" horiz-adv-x="438" unicode="z" d="M387 0h-338v21l304 420h-288v19h310v-22l-301 -419h313v-19z"/>
<glyph glyph-name="braceleft" horiz-adv-x="300" unicode="{" d="M0 279v18q37 0 57 25t20 90v195q0 125 106 125h47v-19h-47q-84 0 -84 -106v-196q0 -110 -67 -122v-2q67 -12 67 -122v-196q0 -106 84 -106h47v-19h-47q-106 0 -106 125v195q0 65 -20 90t-57 25z"/>
<glyph glyph-name="bar" horiz-adv-x="222" unicode="|" d="M100 750h22v-1000h-22v1000z"/>
<glyph glyph-name="braceright" horiz-adv-x="300" unicode="}" d="M300 279q-37 0 -57 -25t-20 -90v-195q0 -125 -106 -125h-47v19h47q84 0 84 106v196q0 110 67 122v2q-67 12 -67 122v196q0 106 -84 106h-47v19h47q106 0 106 -125v-195q0 -65 20 -90t57 -25v-18z"/>
<glyph glyph-name="asciitilde" d="M93 264q55 93 132 93q50 0 100 -35q72 -50 119 -50q63 0 116 85l15 -16q-58 -90 -131 -90q-31 0 -52 8t-49 27q-47 31 -68 40.5t-48 9.5q-70 0 -117 -86z" unicode="~"/>
<glyph glyph-name="uni00A0" horiz-adv-x="250" unicode=" "/>
<glyph glyph-name="exclamdown" horiz-adv-x="276" unicode="¡" d="M149 -222h-22v513h22v-513zM138 441q-9 0 -16 7t-7 19q0 10 7 17.5t16 7.5t16 -7.5t7 -17.5q0 -11 -7 -18.5t-16 -7.5z"/>
<glyph glyph-name="cent" horiz-adv-x="560" unicode="¢" d="M301 454q-88 -6 -141.5 -70.5t-53.5 -154.5q0 -89 53.5 -153t141.5 -70v448zM323 454v-448q80 2 133 52l15 -14q-55 -55 -148 -57v-59h-22v59q-95 5 -156 72.5t-61 169.5q0 101 61 169.5t156 74.5v67h22v-67q88 -2 146 -61l-17 -15q-54 55 -129 57z"/>
<glyph glyph-name="sterling" horiz-adv-x="560" unicode="£" d="M207 379h170v-19h-170v-340h256v-20h-387v20h109v340h-98v19h98v136q0 99 46.5 155t134.5 56q69 0 119 -43l-14 -16q-45 39 -105 39q-82 0 -120.5 -52.5t-38.5 -141.5v-133z"/>
<glyph glyph-name="currency" horiz-adv-x="800" unicode="¤" d="M620 310q0 96 -60 160t-159 64t-158.5 -64t-59.5 -160t59.5 -161t158.5 -65t159 65t60 161zM565 124q-67 -59 -164 -59q-98 0 -164 61l-97 -96l-15 16l96 96q-60 66 -60 168q0 96 56 163l-92 91l16 16l91 -91q67 64 169 64t168 -63l90 90l16 -16l-90 -90q57 -66 57 -164 q0 -101 -61 -170l94 -94l-15 -16z"/>
<glyph glyph-name="yen" horiz-adv-x="560" unicode="¥" d="M269 354h-190v19h182l-235 335h26l229 -331l228 331h25l-233 -335h180v-19h-190v-131h190v-19h-190v-204h-22v204h-190v19h190v131z"/>
<glyph glyph-name="brokenbar" horiz-adv-x="222" unicode="¦" d="M120 -175h-17v331h17v-331zM120 344h-17v331h17v-331z"/>
<glyph glyph-name="section" horiz-adv-x="560" unicode="§" d="M292 159q58 4 98.5 36t40.5 90q0 50 -35 79.5t-101 54.5l-41 16q-54 -8 -94 -40t-40 -89q0 -28 10 -49.5t31 -36.5t39 -24t48 -20zM317 147q109 -45 109 -132q0 -69 -50 -109t-124 -40q-101 0 -166 68l17 17q56 -65 151 -65q64 0 107 33.5t43 93.5q0 26 -10 47t-31 36.5 t-41.5 26t-52.5 23.5l-37 15q-73 30 -103.5 60t-30.5 88q0 57 40 92.5t91 45.5q-55 25 -79.5 52.5t-24.5 81.5q0 68 49 107.5t123 39.5q102 0 148 -63l-17 -15q-38 59 -134 59q-60 0 -104 -34.5t-44 -96.5q0 -23 8 -42t17 -30t31 -24t33.5 -17.5t40.5 -16.5l32 -13 q76 -31 110.5 -63.5t34.5 -84.5q0 -60 -39.5 -96t-96.5 -44z"/>
<glyph glyph-name="dieresis" horiz-adv-x="240" unicode="¨" d="M197 633q-9 0 -16 7t-7 19q0 10 7 17.5t16 7.5t16 -7.5t7 -17.5q0 -11 -7 -18.5t-16 -7.5zM43 633q-9 0 -16 7t-7 19q0 10 7 17.5t16 7.5t16 -7.5t7 -17.5q0 -11 -7 -18.5t-16 -7.5z"/>
<glyph glyph-name="copyright" horiz-adv-x="800" unicode="©" d="M555 520l-17 -15q-50 53 -121 53q-86 0 -140 -60.5t-54 -146.5t54 -145.5t140 -59.5q75 0 125 48l15 -14q-54 -54 -140 -54q-94 0 -155 63.5t-61 161.5t61 162t155 64q83 0 138 -57zM42 353q0 -147 105.5 -250t253.5 -103q147 0 252 103t105 250t-105 251t-252 104 q-148 0 -253.5 -104t-105.5 -251zM20 353q0 157 111.5 267t269.5 110q157 0 268 -110t111 -267q0 -156 -111 -265.5t-268 -109.5q-158 0 -269.5 109.5t-111.5 265.5z"/>
<glyph glyph-name="ordfeminine" horiz-adv-x="350" unicode="ª" d="M266 586h-15q-88 0 -135 -15.5t-47 -61.5q0 -34 24.5 -50t59.5 -16q52 0 82.5 33.5t30.5 82.5v27zM266 604v11q0 87 -89 87q-61 0 -100 -39l-11 17q40 40 111 40q50 0 79.5 -26t29.5 -76v-124q0 -36 5 -63h-20q-5 23 -5 64h-1q-17 -35 -49.5 -53t-68.5 -18q-38 0 -68 21 t-30 64q0 31 17.5 51t51.5 29t67 12t81 3z"/>
<glyph glyph-name="guillemotleft" horiz-adv-x="481" unicode="«" d="M221 52l-16 -12l-123 197l122 196l16 -11l-113 -185zM387 52l-16 -12l-123 197l122 196l16 -11l-113 -185z"/>
<glyph glyph-name="logicalnot" d="M573 134h-22v246h-457v19h479v-265z" unicode="¬"/>
<glyph glyph-name="uni00AD" horiz-adv-x="300" unicode="­" d="M240 244h-180v20h180v-20z"/>
<glyph glyph-name="registered" horiz-adv-x="600" unicode="®" d="M93 494q0 -84 61.5 -145t146.5 -61t145.5 61t60.5 145q0 85 -60.5 145.5t-145.5 60.5q-86 0 -147 -60.5t-61 -145.5zM72 494q0 94 67 160t162 66q94 0 160.5 -66t66.5 -160t-66.5 -159.5t-160.5 -65.5q-95 0 -162 65.5t-67 159.5zM369 553q0 50 -61 50h-63v-105h48 q76 0 76 55zM400 371h-26l-74 110h-55v-110h-21v251h84q39 0 60.5 -18t21.5 -52q0 -31 -20 -48.5t-47 -19.5z"/>
<glyph glyph-name="macron" horiz-adv-x="240" unicode="¯" d="M236 621h-232v20h232v-20z"/>
<glyph glyph-name="degree" horiz-adv-x="400" unicode="°" d="M325 571q0 52 -36.5 88.5t-88.5 36.5t-88.5 -36.5t-36.5 -88.5t36.5 -88.5t88.5 -36.5t88.5 36.5t36.5 88.5zM345 571q0 -60 -42.5 -102.5t-102.5 -42.5t-102.5 42.5t-42.5 102.5t42.5 102.5t102.5 42.5t102.5 -42.5t42.5 -102.5z"/>
<glyph glyph-name="plusminus" d="M569 48h-471v20h471v-20zM573 342h-231v-192h-22v192h-226v20h225v196h22v-196h232v-20z" unicode="±"/>
<glyph glyph-name="twosuperior" horiz-adv-x="350" unicode="²" d="M71 471h227v-18h-249v20l154 169q44 48 59 76t15 56q0 44 -26.5 68t-69.5 24q-78 0 -99 -75l-19 6q11 44 43 65.5t75 21.5q55 0 85.5 -30t30.5 -75q0 -38 -16 -67t-69 -86z"/>
<glyph glyph-name="threesuperior" horiz-adv-x="350" unicode="³" d="M285 562q0 -56 -34.5 -88t-90.5 -32q-87 0 -121 70l18 7q30 -59 103 -59q48 0 76.5 27t28.5 76q0 48 -36 75t-85 27h-17v18h16q51 0 79 27.5t28 67.5q0 42 -26 65.5t-64 23.5q-57 0 -85 -43l-15 11q36 49 100 49q52 0 81 -29t29 -77q0 -43 -25.5 -70.5t-67.5 -32.5v-2 q50 -5 79 -35t29 -76z"/>
<glyph glyph-name="acute" horiz-adv-x="240" unicode="´" d="M220 708l-111 -144h-19l103 144h27z"/>
<glyph glyph-name="mu" horiz-adv-x="591" unicode="µ" d="M102 460h22v-276q0 -32 6.5 -60.5t21.5 -56.5t45 -45t71 -17q78 0 130.5 61.5t52.5 163.5v230h22v-382q0 -43 11.5 -57t38.5 -14q13 0 25 3l3 -17q-12 -5 -29 -5q-25 0 -40 7.5t-21.5 23t-8 28t-1.5 34.5v40h-1q-22 -63 -71.5 -99t-110.5 -36q-105 0 -142 82h-2v-308h-22 v700z"/>
<glyph glyph-name="paragraph" horiz-adv-x="600" unicode="¶" d="M489 -126h-22v817h-155v-817h-22v467q-96 0 -155 51.5t-59 126.5q0 92 58 140.5t164 48.5h191v-834z"/>
<glyph glyph-name="periodcentered" horiz-adv-x="240" unicode="·" d="M120 229q-9 0 -16 7t-7 19q0 10 7 17.5t16 7.5t16 -7.5t7 -17.5q0 -11 -7 -18.5t-16 -7.5z"/>
<glyph glyph-name="cedilla" horiz-adv-x="240" unicode="¸" d="M219 -146q0 -43 -35 -61.5t-77 -18.5q-45 0 -90 20l5 17q35 -18 86 -18q90 0 90 61q0 51 -72 51q-42 0 -69 -15l-10 9l69 101h21l-59 -86q25 8 54 8q35 0 61 -16t26 -52z"/>
<glyph glyph-name="onesuperior" horiz-adv-x="350" unicode="¹" d="M196 453h-21v398l-96 -64l-12 16l109 70h20v-420z"/>
<glyph glyph-name="ordmasculine" horiz-adv-x="350" unicode="º" d="M53 573q0 -56 33 -94t89 -38t89 37.5t33 94.5q0 56 -33 93t-89 37t-89 -37t-33 -93zM317 573q0 -65 -39.5 -107t-102.5 -42t-102.5 42t-39.5 107t39.5 106.5t102.5 41.5t102.5 -41.5t39.5 -106.5z"/>
<glyph glyph-name="guillemotright" horiz-adv-x="481" unicode="»" d="M233 237l-122 -196l-16 11l113 185l-114 185l16 12zM399 237l-122 -196l-16 11l113 185l-114 185l16 12z"/>
<glyph glyph-name="onequarter" horiz-adv-x="800" unicode="¼" d="M476 125h175v272h-3zM651 107h-194v22l183 291h31v-295h67v-18h-67v-107h-20v107zM190 288h-21v398l-96 -64l-12 16l109 70h20v-420zM612 725l-440 -752l-16 11l440 752z"/>
<glyph glyph-name="onehalf" horiz-adv-x="800" unicode="½" d="M500 18h227v-18h-249v20l154 169q44 48 59 76t15 56q0 44 -26.5 68t-69.5 24q-78 0 -99 -75l-19 6q11 44 43 65.5t75 21.5q55 0 85.5 -30t30.5 -75q0 -38 -16 -67t-69 -86zM190 288h-21v398l-96 -64l-12 16l109 70h20v-420zM612 725l-440 -752l-16 11l440 752z"/>
<glyph glyph-name="threequarters" horiz-adv-x="800" unicode="¾" d="M476 125h175v272h-3zM651 107h-194v22l183 291h31v-295h67v-18h-67v-107h-20v107zM285 398q0 -56 -34.5 -88t-90.5 -32q-87 0 -121 70l18 7q30 -59 103 -59q48 0 76.5 27t28.5 76q0 48 -36 75t-85 27h-17v18h16q51 0 79 27.5t28 67.5q0 42 -26 65.5t-64 23.5 q-57 0 -85 -43l-15 11q36 49 100 49q52 0 81 -29t29 -77q0 -43 -25.5 -70.5t-67.5 -32.5v-2q50 -5 79 -35t29 -76zM612 725l-440 -752l-16 11l440 752z"/>
<glyph glyph-name="questiondown" horiz-adv-x="472" unicode="¿" d="M221 242v44h22v-53q0 -82 -69 -137l-34 -30q-24 -23 -36.5 -37.5t-23 -40.5t-10.5 -58q0 -70 45.5 -109.5t115.5 -39.5q67 0 111 39.5t55 104.5l21 -4q-13 -77 -64 -119t-125 -42q-78 0 -129.5 44.5t-51.5 124.5q0 39 14.5 71.5t30 48.5t45.5 42q51 42 67 71.5t16 79.5z M230 441q-9 0 -16 7.5t-7 18.5q0 10 7 17.5t16 7.5t16 -7.5t7 -17.5q0 -12 -7 -19t-16 -7z"/>
<glyph glyph-name="Agrave" d="M221 908h27l103 -144h-19zM533 222l-195 472l-201 -472h396zM648 0h-24l-84 203h-411l-87 -203h-24l307 708h28z" unicode="À"/>
<glyph glyph-name="Aacute" d="M455 908l-111 -144h-19l103 144h27zM533 222l-195 472l-201 -472h396zM648 0h-24l-84 203h-411l-87 -203h-24l307 708h28z" unicode="Á"/>
<glyph glyph-name="Acircumflex" d="M324 908h28l103 -144h-23l-94 132l-94 -132h-23zM533 222l-195 472l-201 -472h396zM648 0h-24l-84 203h-411l-87 -203h-24l307 708h28z" unicode="Â"/>
<glyph glyph-name="Atilde" d="M342 838q39 -24 59 -24q33 0 40 48h16q-7 -67 -56 -67q-26 0 -64 24q-37 24 -59 24q-32 0 -40 -51h-16q4 34 19.5 52t36.5 18q25 0 64 -24zM533 222l-195 472l-201 -472h396zM648 0h-24l-84 203h-411l-87 -203h-24l307 708h28z" unicode="Ã"/>
<glyph glyph-name="Adieresis" d="M415 833q-9 0 -16 7t-7 19q0 10 7 17.5t16 7.5t16 -7.5t7 -17.5q0 -11 -7 -18.5t-16 -7.5zM261 833q-9 0 -16 7t-7 19q0 10 7 17.5t16 7.5t16 -7.5t7 -17.5q0 -11 -7 -18.5t-16 -7.5zM533 222l-195 472l-201 -472h396zM648 0h-24l-84 203h-411l-87 -203h-24l307 708h28z " unicode="Ä"/>
<glyph glyph-name="Aring" d="M415 850q0 32 -22.5 55t-54.5 23t-54.5 -23t-22.5 -55t22.5 -55t54.5 -23t54.5 23t22.5 55zM434 850q0 -40 -28.5 -67.5t-67.5 -27.5t-67.5 27.5t-28.5 67.5t28.5 67.5t67.5 27.5t67.5 -27.5t28.5 -67.5zM533 222l-195 472l-201 -472h396zM648 0h-24l-84 203h-411 l-87 -203h-24l307 708h28z" unicode="Å"/>
<glyph glyph-name="AE" horiz-adv-x="968" unicode="Æ" d="M491 226v462h-13l-298 -462h311zM912 0h-421v206h-324l-135 -206h-26l460 708h429v-20h-382v-311h358v-20h-358v-337h399v-20z"/>
<glyph glyph-name="Ccedilla" horiz-adv-x="724" unicode="Ç" d="M535 -146q0 -43 -35 -61.5t-77 -18.5q-45 0 -90 20l5 17q35 -18 86 -18q90 0 90 61q0 51 -72 51q-42 0 -69 -15l-10 9l55 82q-153 5 -249.5 109.5t-96.5 263.5q0 163 101.5 268.5t259.5 105.5q148 0 235 -91l-14 -16q-40 43 -100.5 65t-120.5 22q-149 0 -244 -102 t-95 -252t94 -252t245 -102q68 0 132.5 26.5t104.5 75.5l16 -15q-42 -51 -108 -78t-139 -29l-45 -66q25 8 54 8q35 0 61 -16t26 -52z"/>
<glyph glyph-name="Egrave" horiz-adv-x="590" unicode="È" d="M206 908h27l103 -144h-19zM534 0h-428v708h412v-20h-391v-311h368v-20h-368v-337h407v-20z"/>
<glyph glyph-name="Eacute" horiz-adv-x="590" unicode="É" d="M417 908l-111 -144h-19l103 144h27zM534 0h-428v708h412v-20h-391v-311h368v-20h-368v-337h407v-20z"/>
<glyph glyph-name="Ecircumflex" horiz-adv-x="590" unicode="Ê" d="M301 908h28l103 -144h-23l-94 132l-94 -132h-23zM534 0h-428v708h412v-20h-391v-311h368v-20h-368v-337h407v-20z"/>
<glyph glyph-name="Edieresis" horiz-adv-x="590" unicode="Ë" d="M392 833q-9 0 -16 7t-7 19q0 10 7 17.5t16 7.5t16 -7.5t7 -17.5q0 -11 -7 -18.5t-16 -7.5zM238 833q-9 0 -16 7t-7 19q0 10 7 17.5t16 7.5t16 -7.5t7 -17.5q0 -11 -7 -18.5t-16 -7.5zM534 0h-428v708h412v-20h-391v-311h368v-20h-368v-337h407v-20z"/>
<glyph glyph-name="Igrave" horiz-adv-x="234" unicode="Ì" d="M-1 908h27l103 -144h-19zM128 0h-22v708h22v-708z"/>
<glyph glyph-name="Iacute" horiz-adv-x="234" unicode="Í" d="M234 908l-111 -144h-19l103 144h27zM128 0h-22v708h22v-708z"/>
<glyph glyph-name="Icircumflex" horiz-adv-x="234" unicode="Î" d="M102 908h28l103 -144h-23l-94 132l-94 -132h-23zM128 0h-22v708h22v-708z"/>
<glyph glyph-name="Idieresis" horiz-adv-x="234" unicode="Ï" d="M194 833q-9 0 -16 7t-7 19q0 10 7 17.5t16 7.5t16 -7.5t7 -17.5q0 -11 -7 -18.5t-16 -7.5zM40 833q-9 0 -16 7t-7 19q0 10 7 17.5t16 7.5t16 -7.5t7 -17.5q0 -11 -7 -18.5t-16 -7.5zM128 0h-22v708h22v-708z"/>
<glyph glyph-name="Eth" horiz-adv-x="770" unicode="Ð" d="M129 378h268v-20h-268v-338h173q167 0 270 83.5t103 250.5q0 168 -103 251t-270 83h-173v-310zM106 358h-80v20h80v330h201q175 0 283 -89t108 -265q0 -89 -30 -158t-83.5 -111t-123.5 -63.5t-154 -21.5h-201v358z"/>
<glyph glyph-name="Ntilde" horiz-adv-x="777" unicode="Ñ" d="M395 838q39 -24 59 -24q33 0 40 48h16q-7 -67 -56 -67q-26 0 -64 24q-37 24 -59 24q-32 0 -40 -51h-16q4 34 19.5 52t36.5 18q25 0 64 -24zM671 0h-32l-508 680h-3v-680h-22v708h31l509 -679h3v679h22v-708z"/>
<glyph glyph-name="Ograve" horiz-adv-x="872" unicode="Ò" d="M342 908h27l103 -144h-19zM778 354q0 150 -96.5 252t-245.5 102t-245.5 -102t-96.5 -252t96 -252t246 -102q151 0 246.5 102t95.5 252zM800 354q0 -163 -103.5 -268.5t-260.5 -105.5t-260.5 105.5t-103.5 268.5t103 268.5t261 105.5t261 -105.5t103 -268.5z"/>
<glyph glyph-name="Oacute" horiz-adv-x="872" unicode="Ó" d="M540 908l-111 -144h-19l103 144h27zM778 354q0 150 -96.5 252t-245.5 102t-245.5 -102t-96.5 -252t96 -252t246 -102q151 0 246.5 102t95.5 252zM800 354q0 -163 -103.5 -268.5t-260.5 -105.5t-260.5 105.5t-103.5 268.5t103 268.5t261 105.5t261 -105.5t103 -268.5z"/>
<glyph glyph-name="Ocircumflex" horiz-adv-x="872" unicode="Ô" d="M424 908h28l103 -144h-23l-94 132l-94 -132h-23zM778 354q0 150 -96.5 252t-245.5 102t-245.5 -102t-96.5 -252t96 -252t246 -102q151 0 246.5 102t95.5 252zM800 354q0 -163 -103.5 -268.5t-260.5 -105.5t-260.5 105.5t-103.5 268.5t103 268.5t261 105.5t261 -105.5 t103 -268.5z"/>
<glyph glyph-name="Otilde" horiz-adv-x="872" unicode="Õ" d="M441 838q39 -24 59 -24q33 0 40 48h16q-7 -67 -56 -67q-26 0 -64 24q-37 24 -59 24q-32 0 -40 -51h-16q4 34 19.5 52t36.5 18q25 0 64 -24zM778 354q0 150 -96.5 252t-245.5 102t-245.5 -102t-96.5 -252t96 -252t246 -102q151 0 246.5 102t95.5 252zM800 354 q0 -163 -103.5 -268.5t-260.5 -105.5t-260.5 105.5t-103.5 268.5t103 268.5t261 105.5t261 -105.5t103 -268.5z"/>
<glyph glyph-name="Odieresis" horiz-adv-x="872" unicode="Ö" d="M515 833q-9 0 -16 7t-7 19q0 10 7 17.5t16 7.5t16 -7.5t7 -17.5q0 -11 -7 -18.5t-16 -7.5zM361 833q-9 0 -16 7t-7 19q0 10 7 17.5t16 7.5t16 -7.5t7 -17.5q0 -11 -7 -18.5t-16 -7.5zM778 354q0 150 -96.5 252t-245.5 102t-245.5 -102t-96.5 -252t96 -252t246 -102 q151 0 246.5 102t95.5 252zM800 354q0 -163 -103.5 -268.5t-260.5 -105.5t-260.5 105.5t-103.5 268.5t103 268.5t261 105.5t261 -105.5t103 -268.5z"/>
<glyph glyph-name="multiply" d="M347 308l180 -180l-14 -13l-179 179l-179 -179l-14 13l180 180l-180 180l13 13l180 -180l180 180l13 -13z" unicode="×"/>
<glyph glyph-name="Oslash" horiz-adv-x="872" unicode="Ø" d="M655 619l-460 -535q94 -84 228 -84q151 0 246.5 102t95.5 252q0 161 -110 265zM670 636q117 -106 117 -282q0 -163 -103.5 -268.5t-260.5 -105.5q-143 0 -242 88l-68 -79l-14 14l68 78q-108 105 -108 273q0 163 103 268.5t261 105.5q132 0 232 -79l67 78l15 -13zM640 632 q-91 76 -217 76q-149 0 -245.5 -102t-96.5 -252q0 -154 100 -256z"/>
<glyph glyph-name="Ugrave" horiz-adv-x="732" unicode="Ù" d="M271 908h27l103 -144h-19zM636 268q0 -131 -64.5 -209.5t-205.5 -78.5t-205.5 78.5t-64.5 209.5v440h22v-436q0 -38 5 -71.5t21 -72t42 -65.5t72 -45t108 -18q60 0 106 17.5t72.5 44.5t42.5 64.5t21.5 72t5.5 73.5v436h22v-440z"/>
<glyph glyph-name="Uacute" horiz-adv-x="732" unicode="Ú" d="M453 908l-111 -144h-19l103 144h27zM636 268q0 -131 -64.5 -209.5t-205.5 -78.5t-205.5 78.5t-64.5 209.5v440h22v-436q0 -38 5 -71.5t21 -72t42 -65.5t72 -45t108 -18q60 0 106 17.5t72.5 44.5t42.5 64.5t21.5 72t5.5 73.5v436h22v-440z"/>
<glyph glyph-name="Ucircumflex" horiz-adv-x="732" unicode="Û" d="M352 908h28l103 -144h-23l-94 132l-94 -132h-23zM636 268q0 -131 -64.5 -209.5t-205.5 -78.5t-205.5 78.5t-64.5 209.5v440h22v-436q0 -38 5 -71.5t21 -72t42 -65.5t72 -45t108 -18q60 0 106 17.5t72.5 44.5t42.5 64.5t21.5 72t5.5 73.5v436h22v-440z"/>
<glyph glyph-name="Udieresis" horiz-adv-x="732" unicode="Ü" d="M443 833q-9 0 -16 7t-7 19q0 10 7 17.5t16 7.5t16 -7.5t7 -17.5q0 -11 -7 -18.5t-16 -7.5zM289 833q-9 0 -16 7t-7 19q0 10 7 17.5t16 7.5t16 -7.5t7 -17.5q0 -11 -7 -18.5t-16 -7.5zM636 268q0 -131 -64.5 -209.5t-205.5 -78.5t-205.5 78.5t-64.5 209.5v440h22v-436 q0 -38 5 -71.5t21 -72t42 -65.5t72 -45t108 -18q60 0 106 17.5t72.5 44.5t42.5 64.5t21.5 72t5.5 73.5v436h22v-440z"/>
<glyph glyph-name="Yacute" horiz-adv-x="538" unicode="Ý" d="M383 908l-111 -144h-19l103 144h27zM523 708l-243 -398v-310h-22v310l-243 398h26l229 -376l228 376h25z"/>
<glyph glyph-name="Thorn" horiz-adv-x="572" unicode="Þ" d="M495 374q0 56 -30 93t-70 50.5t-88 13.5h-179v-322h184q75 0 129 41.5t54 123.5zM517 374q0 -87 -59 -135.5t-147 -48.5h-183v-190h-22v708h22v-158h170q41 0 77.5 -9t69.5 -28t52.5 -54.5t19.5 -84.5z"/>
<glyph glyph-name="germandbls" horiz-adv-x="589" unicode="ß" d="M527 208q0 -98 -60.5 -158t-161.5 -60q-24 0 -48 3v21q27 -4 47 -4q92 0 146.5 54.5t54.5 144.5q0 102 -59 154.5t-150 52.5h-16v21h16q72 0 118.5 42.5t46.5 116.5q0 70 -44.5 111t-115.5 41q-93 0 -135 -60.5t-42 -152.5v-535h-22v538q0 103 51.5 166.5t146.5 63.5 q81 0 132 -47t51 -126q0 -69 -38 -111.5t-98 -54.5v-2q80 -12 130 -65t50 -154z"/>
<glyph glyph-name="agrave" horiz-adv-x="512" unicode="à" d="M164 708h27l103 -144h-19zM396 207v44h-71q-237 0 -237 -133q0 -57 40.5 -85t91.5 -28q49 0 85 18.5t55 49.5t27.5 64t8.5 70zM418 104q0 -54 8 -104h-21q-8 52 -8 110h-3q-19 -60 -67 -92t-107 -32q-62 0 -108 34t-46 98q0 47 24.5 79t65.5 47t79 20.5t81 5.5h80v37 q0 74 -39.5 111t-108.5 37q-78 0 -140 -55l-12 17q65 57 152 57q81 0 125.5 -42t44.5 -126v-202z"/>
<glyph glyph-name="aacute" horiz-adv-x="512" unicode="á" d="M363 708l-111 -144h-19l103 144h27zM396 207v44h-71q-237 0 -237 -133q0 -57 40.5 -85t91.5 -28q49 0 85 18.5t55 49.5t27.5 64t8.5 70zM418 104q0 -54 8 -104h-21q-8 52 -8 110h-3q-19 -60 -67 -92t-107 -32q-62 0 -108 34t-46 98q0 47 24.5 79t65.5 47t79 20.5t81 5.5 h80v37q0 74 -39.5 111t-108.5 37q-78 0 -140 -55l-12 17q65 57 152 57q81 0 125.5 -42t44.5 -126v-202z"/>
<glyph glyph-name="acircumflex" horiz-adv-x="512" unicode="â" d="M234 708h28l103 -144h-23l-94 132l-94 -132h-23zM396 207v44h-71q-237 0 -237 -133q0 -57 40.5 -85t91.5 -28q49 0 85 18.5t55 49.5t27.5 64t8.5 70zM418 104q0 -54 8 -104h-21q-8 52 -8 110h-3q-19 -60 -67 -92t-107 -32q-62 0 -108 34t-46 98q0 47 24.5 79t65.5 47 t79 20.5t81 5.5h80v37q0 74 -39.5 111t-108.5 37q-78 0 -140 -55l-12 17q65 57 152 57q81 0 125.5 -42t44.5 -126v-202z"/>
<glyph glyph-name="atilde" horiz-adv-x="512" unicode="ã" d="M253 638q39 -24 59 -24q33 0 40 48h16q-7 -67 -56 -67q-26 0 -64 24q-37 24 -59 24q-32 0 -40 -51h-16q4 34 19.5 52t36.5 18q25 0 64 -24zM396 207v44h-71q-237 0 -237 -133q0 -57 40.5 -85t91.5 -28q49 0 85 18.5t55 49.5t27.5 64t8.5 70zM418 104q0 -54 8 -104h-21 q-8 52 -8 110h-3q-19 -60 -67 -92t-107 -32q-62 0 -108 34t-46 98q0 47 24.5 79t65.5 47t79 20.5t81 5.5h80v37q0 74 -39.5 111t-108.5 37q-78 0 -140 -55l-12 17q65 57 152 57q81 0 125.5 -42t44.5 -126v-202z"/>
<glyph glyph-name="adieresis" horiz-adv-x="512" unicode="ä" d="M328 633q-9 0 -16 7t-7 19q0 10 7 17.5t16 7.5t16 -7.5t7 -17.5q0 -11 -7 -18.5t-16 -7.5zM174 633q-9 0 -16 7t-7 19q0 10 7 17.5t16 7.5t16 -7.5t7 -17.5q0 -11 -7 -18.5t-16 -7.5zM396 207v44h-71q-237 0 -237 -133q0 -57 40.5 -85t91.5 -28q49 0 85 18.5t55 49.5 t27.5 64t8.5 70zM418 104q0 -54 8 -104h-21q-8 52 -8 110h-3q-19 -60 -67 -92t-107 -32q-62 0 -108 34t-46 98q0 47 24.5 79t65.5 47t79 20.5t81 5.5h80v37q0 74 -39.5 111t-108.5 37q-78 0 -140 -55l-12 17q65 57 152 57q81 0 125.5 -42t44.5 -126v-202z"/>
<glyph glyph-name="aring" horiz-adv-x="512" unicode="å" d="M328 650q0 32 -22.5 55t-54.5 23t-54.5 -23t-22.5 -55t22.5 -55t54.5 -23t54.5 23t22.5 55zM347 650q0 -40 -28.5 -67.5t-67.5 -27.5t-67.5 27.5t-28.5 67.5t28.5 67.5t67.5 27.5t67.5 -27.5t28.5 -67.5zM396 207v44h-71q-237 0 -237 -133q0 -57 40.5 -85t91.5 -28 q49 0 85 18.5t55 49.5t27.5 64t8.5 70zM418 104q0 -54 8 -104h-21q-8 52 -8 110h-3q-19 -60 -67 -92t-107 -32q-62 0 -108 34t-46 98q0 47 24.5 79t65.5 47t79 20.5t81 5.5h80v37q0 74 -39.5 111t-108.5 37q-78 0 -140 -55l-12 17q65 57 152 57q81 0 125.5 -42t44.5 -126 v-202z"/>
<glyph glyph-name="ae" horiz-adv-x="879" unicode="æ" d="M407 191v44h-75q-243 0 -243 -123q0 -57 41 -82t94 -25q97 0 140 54t43 132zM426 338q24 62 74.5 99t113.5 37q96 0 149.5 -65.5t53.5 -154.5v-19h-389q0 -57 19.5 -107t65.5 -85.5t111 -35.5q101 0 161 83l15 -13q-67 -90 -177 -90q-72 0 -126.5 42t-76.5 114 q-8 -67 -58 -112t-138 -45q-65 0 -111.5 31.5t-46.5 94.5q0 35 17 61.5t42.5 41.5t61.5 24.5t68 12.5t68 3h84v47q0 74 -40 113.5t-114 39.5q-81 0 -144 -55l-12 17q66 57 156 57q80 0 123.5 -37.5t49.5 -98.5zM429 255h367q-3 90 -53 145t-130 55q-47 0 -84 -22t-58 -54.5 t-31.5 -65t-10.5 -58.5z"/>
<glyph glyph-name="ccedilla" horiz-adv-x="480" unicode="ç" d="M399 -146q0 -43 -35 -61.5t-77 -18.5q-45 0 -90 20l5 17q35 -18 86 -18q90 0 90 61q0 51 -72 51q-42 0 -69 -15l-10 9l59 87q-98 4 -161 71.5t-63 171.5q0 106 66.5 175.5t167.5 69.5q92 0 151 -61l-17 -15q-55 57 -134 57q-95 0 -153.5 -66t-58.5 -160t58.5 -159 t153.5 -65q83 0 138 52l15 -14q-54 -54 -142 -57l-49 -72q25 8 54 8q35 0 61 -16t26 -52z"/>
<glyph glyph-name="egrave" horiz-adv-x="556" unicode="è" d="M185 708h27l103 -144h-19zM473 254q-2 90 -55 145.5t-138 55.5q-49 0 -88.5 -21.5t-61.5 -53.5t-33.5 -65t-11.5 -61h388zM494 235h-410q0 -92 54 -160.5t153 -68.5q105 0 169 84l16 -14q-70 -90 -185 -90q-102 0 -165.5 70t-63.5 179q0 104 63 171.5t156 67.5 q102 0 157.5 -65.5t55.5 -154.5v-19z"/>
<glyph glyph-name="eacute" horiz-adv-x="556" unicode="é" d="M387 708l-111 -144h-19l103 144h27zM473 254q-2 90 -55 145.5t-138 55.5q-49 0 -88.5 -21.5t-61.5 -53.5t-33.5 -65t-11.5 -61h388zM494 235h-410q0 -92 54 -160.5t153 -68.5q105 0 169 84l16 -14q-70 -90 -185 -90q-102 0 -165.5 70t-63.5 179q0 104 63 171.5t156 67.5 q102 0 157.5 -65.5t55.5 -154.5v-19z"/>
<glyph glyph-name="ecircumflex" horiz-adv-x="556" unicode="ê" d="M272 708h28l103 -144h-23l-94 132l-94 -132h-23zM473 254q-2 90 -55 145.5t-138 55.5q-49 0 -88.5 -21.5t-61.5 -53.5t-33.5 -65t-11.5 -61h388zM494 235h-410q0 -92 54 -160.5t153 -68.5q105 0 169 84l16 -14q-70 -90 -185 -90q-102 0 -165.5 70t-63.5 179 q0 104 63 171.5t156 67.5q102 0 157.5 -65.5t55.5 -154.5v-19z"/>
<glyph glyph-name="edieresis" horiz-adv-x="556" unicode="ë" d="M360 633q-9 0 -16 7t-7 19q0 10 7 17.5t16 7.5t16 -7.5t7 -17.5q0 -11 -7 -18.5t-16 -7.5zM206 633q-9 0 -16 7t-7 19q0 10 7 17.5t16 7.5t16 -7.5t7 -17.5q0 -11 -7 -18.5t-16 -7.5zM473 254q-2 90 -55 145.5t-138 55.5q-49 0 -88.5 -21.5t-61.5 -53.5t-33.5 -65 t-11.5 -61h388zM494 235h-410q0 -92 54 -160.5t153 -68.5q105 0 169 84l16 -14q-70 -90 -185 -90q-102 0 -165.5 70t-63.5 179q0 104 63 171.5t156 67.5q102 0 157.5 -65.5t55.5 -154.5v-19z"/>
<glyph glyph-name="igrave" horiz-adv-x="226" unicode="ì" d="M-5 708h27l103 -144h-19zM124 0h-22v460h22v-460z"/>
<glyph glyph-name="iacute" horiz-adv-x="226" unicode="í" d="M231 708l-111 -144h-19l103 144h27zM124 0h-22v460h22v-460z"/>
<glyph glyph-name="icircumflex" horiz-adv-x="226" unicode="î" d="M100 708h28l103 -144h-23l-94 132l-94 -132h-23zM124 0h-22v460h22v-460z"/>
<glyph glyph-name="idieresis" horiz-adv-x="226" unicode="ï" d="M191 633q-9 0 -16 7t-7 19q0 10 7 17.5t16 7.5t16 -7.5t7 -17.5q0 -11 -7 -18.5t-16 -7.5zM37 633q-9 0 -16 7t-7 19q0 10 7 17.5t16 7.5t16 -7.5t7 -17.5q0 -11 -7 -18.5t-16 -7.5zM124 0h-22v460h22v-460z"/>
<glyph glyph-name="eth" horiz-adv-x="605" unicode="ð" d="M521 231q0 96 -60 160t-159 64t-158.5 -64t-59.5 -160t59.5 -161t158.5 -65t159 65t60 161zM482 397l6 2q-29 70 -78 143t-93 114l-112 -61l-12 14l110 62q-60 56 -97 80l17 12q44 -28 98 -82l105 59l16 -13l-105 -59q28 -28 58.5 -68.5t66 -98.5t58.5 -128.5t23 -136.5 q0 -110 -67.5 -180t-173.5 -70t-173 69t-67 176t67 175t173 68q110 0 180 -77z"/>
<glyph glyph-name="ntilde" horiz-adv-x="572" unicode="ñ" d="M293 638q39 -24 59 -24q33 0 40 48h16q-7 -67 -56 -67q-26 0 -64 24q-37 24 -59 24q-32 0 -40 -51h-16q4 34 19.5 52t36.5 18q25 0 64 -24zM128 339q21 63 71 99t111 36q88 0 127 -56.5t39 -139.5v-278h-22v276q0 32 -6.5 60.5t-21.5 56.5t-45 45t-71 17 q-78 0 -130.5 -61t-52.5 -164v-230h-22v344q0 73 -5 116h22q4 -52 4 -121h2z"/>
<glyph glyph-name="ograve" horiz-adv-x="605" unicode="ò" d="M212 708h27l103 -144h-19zM521 231q0 96 -60 160t-159 64t-158.5 -64t-59.5 -160t59.5 -161t158.5 -65t159 65t60 161zM543 231q0 -107 -67.5 -176t-173.5 -69t-173 69t-67 176t67 175t173 68t173.5 -68t67.5 -175z"/>
<glyph glyph-name="oacute" horiz-adv-x="605" unicode="ó" d="M397 708l-111 -144h-19l103 144h27zM521 231q0 96 -60 160t-159 64t-158.5 -64t-59.5 -160t59.5 -161t158.5 -65t159 65t60 161zM543 231q0 -107 -67.5 -176t-173.5 -69t-173 69t-67 176t67 175t173 68t173.5 -68t67.5 -175z"/>
<glyph glyph-name="ocircumflex" horiz-adv-x="605" unicode="ô" d="M290 708h28l103 -144h-23l-94 132l-94 -132h-23zM521 231q0 96 -60 160t-159 64t-158.5 -64t-59.5 -160t59.5 -161t158.5 -65t159 65t60 161zM543 231q0 -107 -67.5 -176t-173.5 -69t-173 69t-67 176t67 175t173 68t173.5 -68t67.5 -175z"/>
<glyph glyph-name="otilde" horiz-adv-x="605" unicode="õ" d="M307 638q39 -24 59 -24q33 0 40 48h16q-7 -67 -56 -67q-26 0 -64 24q-37 24 -59 24q-32 0 -40 -51h-16q4 34 19.5 52t36.5 18q25 0 64 -24zM521 231q0 96 -60 160t-159 64t-158.5 -64t-59.5 -160t59.5 -161t158.5 -65t159 65t60 161zM543 231q0 -107 -67.5 -176 t-173.5 -69t-173 69t-67 176t67 175t173 68t173.5 -68t67.5 -175z"/>
<glyph glyph-name="odieresis" horiz-adv-x="605" unicode="ö" d="M381 633q-9 0 -16 7t-7 19q0 10 7 17.5t16 7.5t16 -7.5t7 -17.5q0 -11 -7 -18.5t-16 -7.5zM227 633q-9 0 -16 7t-7 19q0 10 7 17.5t16 7.5t16 -7.5t7 -17.5q0 -11 -7 -18.5t-16 -7.5zM521 231q0 96 -60 160t-159 64t-158.5 -64t-59.5 -160t59.5 -161t158.5 -65t159 65 t60 161zM543 231q0 -107 -67.5 -176t-173.5 -69t-173 69t-67 176t67 175t173 68t173.5 -68t67.5 -175z"/>
<glyph glyph-name="divide" d="M369 136q0 -16 -11 -27t-25 -11t-24.5 11t-10.5 27t10 27t25 11q14 0 25 -11t11 -27zM573 293h-479v20h479v-20zM369 470q0 -16 -11 -27t-25 -11t-24.5 11t-10.5 27t10.5 27t24.5 11t25 -11t11 -27z" unicode="÷"/>
<glyph glyph-name="oslash" horiz-adv-x="605" unicode="ø" d="M451 401q-61 54 -149 54q-99 0 -158.5 -64t-59.5 -160q0 -87 49 -148zM464 387l-318 -318q58 -64 156 -64q99 0 159 65t60 161q0 93 -57 156zM479 402q64 -66 64 -171q0 -107 -67.5 -176t-173.5 -69q-105 0 -171 68l-66 -66l-14 13l67 67q-56 66 -56 163q0 107 67 175 t173 68q97 0 164 -58l59 59l14 -14z"/>
<glyph glyph-name="ugrave" horiz-adv-x="572" unicode="ù" d="M175 708h27l103 -144h-19zM442 121q-21 -63 -71 -99t-111 -36q-88 0 -127 56.5t-39 139.5v278h22v-276q0 -32 6.5 -60.5t21.5 -56.5t45 -45t71 -17q78 0 130.5 61t52.5 164v230h22v-344q0 -73 5 -116h-22q-4 52 -4 121h-2z"/>
<glyph glyph-name="uacute" horiz-adv-x="572" unicode="ú" d="M373 708l-111 -144h-19l103 144h27zM442 121q-21 -63 -71 -99t-111 -36q-88 0 -127 56.5t-39 139.5v278h22v-276q0 -32 6.5 -60.5t21.5 -56.5t45 -45t71 -17q78 0 130.5 61t52.5 164v230h22v-344q0 -73 5 -116h-22q-4 52 -4 121h-2z"/>
<glyph glyph-name="ucircumflex" horiz-adv-x="572" unicode="û" d="M264 708h28l103 -144h-23l-94 132l-94 -132h-23zM442 121q-21 -63 -71 -99t-111 -36q-88 0 -127 56.5t-39 139.5v278h22v-276q0 -32 6.5 -60.5t21.5 -56.5t45 -45t71 -17q78 0 130.5 61t52.5 164v230h22v-344q0 -73 5 -116h-22q-4 52 -4 121h-2z"/>
<glyph glyph-name="udieresis" horiz-adv-x="572" unicode="ü" d="M355 633q-9 0 -16 7t-7 19q0 10 7 17.5t16 7.5t16 -7.5t7 -17.5q0 -11 -7 -18.5t-16 -7.5zM201 633q-9 0 -16 7t-7 19q0 10 7 17.5t16 7.5t16 -7.5t7 -17.5q0 -11 -7 -18.5t-16 -7.5zM442 121q-21 -63 -71 -99t-111 -36q-88 0 -127 56.5t-39 139.5v278h22v-276 q0 -32 6.5 -60.5t21.5 -56.5t45 -45t71 -17q78 0 130.5 61t52.5 164v230h22v-344q0 -73 5 -116h-22q-4 52 -4 121h-2z"/>
<glyph glyph-name="yacute" horiz-adv-x="428" unicode="ý" d="M324 708l-111 -144h-19l103 144h27zM404 460l-228 -612q-33 -90 -111 -90q-23 0 -41 7l6 19q16 -6 37 -6q63 0 95 89l44 120l-182 473h24l169 -448l163 448h24z"/>
<glyph glyph-name="thorn" horiz-adv-x="626" unicode="þ" d="M542 229q0 94 -57.5 160t-150.5 66q-90 0 -150.5 -66t-60.5 -159t60.5 -159t150.5 -66q93 0 150.5 65t57.5 159zM124 335h3q29 67 84.5 103t122.5 36q102 0 166 -69t64 -176q0 -105 -65 -174t-165 -69q-68 0 -125 36.5t-82 101.5h-3v-364h-22v996h22v-421z"/>
<glyph glyph-name="OE" horiz-adv-x="978" unicode="Œ" d="M922 0h-459q-175 0 -283 89t-108 265q0 89 30 158t83.5 111t123.5 63.5t154 21.5h443v-20h-353v-311h331v-20h-331v-337h369v-20zM532 688h-64q-167 0 -270 -83.5t-103 -250.5q0 -168 103 -251t270 -83h64v668z"/>
<glyph glyph-name="oe" horiz-adv-x="1012" unicode="œ" d="M520 231q0 96 -59.5 160t-158.5 64t-158.5 -64t-59.5 -160t59.5 -161t158.5 -65t158.5 65t59.5 161zM929 254q-2 90 -55 145.5t-138 55.5q-49 0 -88.5 -21.5t-61 -53.5t-33 -65t-11.5 -61h387zM530 316q22 72 78 115t129 43q102 0 157.5 -65.5t55.5 -154.5v-19h-409 q0 -92 53.5 -160.5t152.5 -68.5q105 0 169 84l16 -14q-70 -90 -185 -90q-79 0 -136.5 44t-79.5 118q-23 -74 -84 -118t-145 -44q-106 0 -173 69t-67 176t67 175t173 68q83 0 144 -42.5t84 -115.5z"/>
<glyph glyph-name="Scaron" horiz-adv-x="570" unicode="Š" d="M313 764h-28l-103 144h23l94 -132l94 132h23zM498 170q0 -88 -62 -139t-153 -51q-132 0 -211 87l17 15q77 -82 193 -82q82 0 138 46t56 124q0 39 -15.5 68.5t-47 49.5t-58.5 31.5t-71 25.5q-101 32 -150 73.5t-49 124.5q0 85 63 135t155 50q118 0 182 -79l-17 -15 q-58 74 -166 74q-78 0 -136.5 -43.5t-58.5 -121.5q0 -39 14 -69t42.5 -50t54 -31.5t65.5 -24.5q43 -14 69.5 -24t57.5 -27.5t48 -36t28.5 -47t11.5 -63.5z"/>
<glyph glyph-name="scaron" horiz-adv-x="415" unicode="š" d="M228 564h-28l-103 144h23l94 -132l94 132h23zM361 120q0 -60 -43 -96t-107 -36q-106 0 -161 77l18 12q50 -70 144 -70q49 0 88 30t39 81q0 14 -2.5 26t-9.5 21.5t-12.5 17t-17.5 14t-19 10.5t-22.5 9t-21.5 7t-23 6.5t-21 5.5q-60 16 -90.5 41t-30.5 80q0 56 42 87t99 31 q94 0 141 -67l-19 -11q-44 59 -122 59q-45 0 -82 -24t-37 -74q0 -28 8 -46t27.5 -30t36 -17.5t50.5 -14.5q5 -1 8 -2q32 -8 53.5 -16.5t43 -23t32.5 -36.5t11 -51z"/>
<glyph glyph-name="Ydieresis" horiz-adv-x="538" unicode="Ÿ" d="M347 833q-9 0 -16 7t-7 19q0 10 7 17.5t16 7.5t16 -7.5t7 -17.5q0 -11 -7 -18.5t-16 -7.5zM193 833q-9 0 -16 7t-7 19q0 10 7 17.5t16 7.5t16 -7.5t7 -17.5q0 -11 -7 -18.5t-16 -7.5zM523 708l-243 -398v-310h-22v310l-243 398h26l229 -376l228 376h25z"/>
<glyph glyph-name="circumflex" horiz-adv-x="240" unicode="ˆ" d="M106 708h28l103 -144h-23l-94 132l-94 -132h-23z"/>
<glyph glyph-name="tilde" horiz-adv-x="240" unicode="˜" d="M123 638q39 -24 59 -24q33 0 40 48h16q-7 -67 -56 -67q-26 0 -64 24q-37 24 -59 24q-32 0 -40 -51h-16q4 34 19.5 52t36.5 18q25 0 64 -24z"/>
<glyph glyph-name="uni0394" horiz-adv-x="670" unicode="Δ" d="M623 20l-283 674l-293 -674h576zM648 0h-626v18l305 690h28l293 -690v-18z"/>
<glyph glyph-name="uni03BC" horiz-adv-x="591" unicode="μ" d="M102 460h22v-276q0 -32 6.5 -60.5t21.5 -56.5t45 -45t71 -17q78 0 130.5 61.5t52.5 163.5v230h22v-382q0 -43 11.5 -57t38.5 -14q13 0 25 3l3 -17q-12 -5 -29 -5q-25 0 -40 7.5t-21.5 23t-8 28t-1.5 34.5v40h-1q-22 -63 -71.5 -99t-110.5 -36q-105 0 -142 82h-2v-308h-22 v700z"/>
<glyph glyph-name="pi" horiz-adv-x="619" unicode="π" d="M438 440v-347q0 -43 12.5 -64.5t49.5 -21.5q23 0 47 9l3 -17q-25 -11 -53 -11q-47 0 -63.5 27.5t-16.5 75.5v349h-232l-70 -440h-22l71 440h-134v20h539v-20h-131z"/>
<glyph glyph-name="endash" horiz-adv-x="400" unicode="–" d="M370 244h-340v20h340v-20z"/>
<glyph glyph-name="emdash" horiz-adv-x="600" unicode="—" d="M570 244h-540v20h540v-20z"/>
<glyph glyph-name="quoteleft" horiz-adv-x="220" unicode="‘" d="M70 480l63 228h17l-56 -228h-24z"/>
<glyph glyph-name="quotesinglbase" horiz-adv-x="220" unicode="‚" d="M150 90l-63 -228h-17l56 228h24z"/>
<glyph glyph-name="quotedblleft" horiz-adv-x="350" unicode="“" d="M70 480l65 228h17l-58 -228h-24zM200 480l63 228h17l-56 -228h-24z"/>
<glyph glyph-name="quotedblright" horiz-adv-x="350" unicode="”" d="M280 708l-65 -228h-17l58 228h24zM150 708l-63 -228h-17l56 228h24z"/>
<glyph glyph-name="dagger" horiz-adv-x="520" unicode="†" d="M466 481h-194v-607h-22v607h-196v20h196v207h22v-207h194v-20z"/>
<glyph glyph-name="daggerdbl" horiz-adv-x="520" unicode="‡" d="M250 481h-196v20h196v207h22v-207h194v-20h-194v-380h194v-20h-194v-207h-22v207h-196v20h196v380z"/>
<glyph glyph-name="ellipsis" horiz-adv-x="1000" unicode="…" d="M500 -6q-9 0 -16 7t-7 19q0 10 7 17.5t16 7.5t16 -7.5t7 -17.5q0 -11 -7 -18.5t-16 -7.5zM835 -6q-9 0 -16 7t-7 19q0 10 7 17.5t16 7.5t16 -7.5t7 -17.5q0 -11 -7 -18.5t-16 -7.5zM165 -6q-9 0 -16 7t-7 19q0 10 7 17.5t16 7.5t16 -7.5t7 -17.5q0 -11 -7 -18.5t-16 -7.5 z"/>
<glyph glyph-name="perthousand" horiz-adv-x="1000" unicode="‰" d="M560 721l-452 -745l-16 11l452 745zM943 141q0 54 -36 91t-88 37q-51 0 -86.5 -37t-35.5 -91t35.5 -90.5t86.5 -36.5q52 0 88 36.5t36 90.5zM965 141q0 -62 -42.5 -104t-103.5 -42q-60 0 -102.5 42t-42.5 104t42.5 105t102.5 43t103 -43t43 -105zM601 141q0 54 -36 91 t-88 37q-51 0 -86.5 -37t-35.5 -91t35.5 -90.5t86.5 -36.5q52 0 88 36.5t36 90.5zM623 141q0 -62 -42.5 -104t-103.5 -42q-60 0 -102.5 42t-42.5 104t42.5 105t102.5 43t103 -43t43 -105zM312 570q0 54 -36 91t-88 37q-51 0 -86.5 -37t-35.5 -91t35.5 -90.5t86.5 -36.5 q52 0 88 36.5t36 90.5zM334 570q0 -62 -42.5 -104t-103.5 -42q-60 0 -102.5 42t-42.5 104t42.5 105t102.5 43t103 -43t43 -105z"/>
<glyph glyph-name="guilsinglleft" horiz-adv-x="315" unicode="‹" d="M221 52l-16 -12l-123 197l122 196l16 -11l-113 -185z"/>
<glyph glyph-name="guilsinglright" horiz-adv-x="315" unicode="›" d="M233 237l-122 -196l-16 11l113 185l-114 185l16 12z"/>
<glyph glyph-name="fraction" horiz-adv-x="100" unicode="⁄" d="M262 725l-440 -752l-16 11l440 752z"/>
<glyph glyph-name="Euro" horiz-adv-x="560" unicode="€" d="M508 675q-57 33 -136 33q-99 0 -168.5 -69t-93.5 -195h342l-7 -19h-338q-5 -33 -5 -77q0 -38 3 -64h297l-6 -19h-289q17 -121 89 -193t172 -72q91 0 150 46l11 -19q-64 -47 -167 -47q-112 0 -185 80.5t-91 204.5h-65l8 19h55q-3 26 -3 64q0 49 4 77h-62l6 19h59 q26 138 102.5 211t183.5 73q82 0 143 -33z"/>
<glyph glyph-name="trademark" horiz-adv-x="1000" unicode="™" d="M389 689h-134v-393h-22v393h-133v19h289v-19zM891 296h-22v391h-2l-169 -391h-13l-166 391h-2v-391h-22v412h37l160 -377l161 377h38v-412z"/>
<glyph glyph-name="partialdiff" horiz-adv-x="475" unicode="∂" d="M397 276q-32 53 -78 84.5t-100 31.5q-74 0 -114.5 -55.5t-40.5 -132.5q0 -74 41.5 -136.5t113.5 -62.5q47 0 83 27.5t55 72t28 86.5t12 85zM401 298q2 58 2 82q0 153 -55 239t-145 86q-60 0 -110 -40l-11 16q53 44 119 44q114 0 168 -96.5t54 -262.5q0 -185 -57 -288 q-54 -95 -148 -95q-77 0 -127.5 63.5t-50.5 156.5q0 100 50.5 155t125.5 55q58 0 107.5 -31.5t77.5 -83.5z"/>
<glyph glyph-name="product" horiz-adv-x="704" unicode="∏" d="M612 -214h-22v980h-476v-980h-22v1000h520v-1000z"/>
<glyph glyph-name="summation" horiz-adv-x="593" unicode="∑" d="M548 -214h-503v22l339 481l-325 475v22h478v-20h-452l330 -477l-342 -483h475v-20z"/>
<glyph glyph-name="minus" d="M566 297h-466v19h466v-19z" unicode="−"/>
<glyph glyph-name="radical" horiz-adv-x="475" unicode="√" d="M261 -215h-31l-168 368l-62 -30l-8 20l81 37l170 -373l205 979h22z"/>
<glyph glyph-name="infinity" horiz-adv-x="722" unicode="∞" d="M358 246q-59 64 -95.5 90.5t-70.5 26.5q-46 0 -72.5 -34t-26.5 -83q0 -47 26.5 -80.5t72.5 -33.5q34 0 70.5 25.5t95.5 88.5zM382 246q59 -63 95.5 -88.5t70.5 -25.5q46 0 72.5 33.5t26.5 80.5q0 49 -26.5 83t-72.5 34q-34 0 -70.5 -26.5t-95.5 -90.5zM370 234 q-104 -120 -178 -120q-52 0 -85.5 37t-33.5 97q0 59 33.5 96t85.5 37q75 0 178 -121q103 121 178 121q52 0 85.5 -37t33.5 -96q0 -60 -33.5 -97t-85.5 -37q-74 0 -178 120z"/>
<glyph glyph-name="approxequal" d="M437 140q87 1 102 89h18q-5 -47 -34 -78t-87 -32q-45 0 -141.5 34.5t-130.5 34.5q-53 0 -76 -23.5t-30 -64.5h-18q5 47 33.5 78t84.5 31q45 0 143.5 -34.5t135.5 -34.5zM437 328q87 1 102 89h18q-5 -47 -34 -78t-87 -32q-45 0 -141.5 34.5t-130.5 34.5q-53 0 -76 -23.5 t-30 -64.5h-18q5 47 33.5 78t84.5 31q45 0 143.5 -34.5t135.5 -34.5z" unicode="≈"/>
<glyph glyph-name="notequal" d="M352 380h-252v19h261l73 147l18 -8l-69 -139h183v-19h-192l-75 -152h267v-19h-277l-85 -172l-17 9l81 163h-168v19h177z" unicode="≠"/>
<glyph glyph-name="lessequal" d="M566 67l-466 224v24l466 224v-20l-454 -216l454 -216v-20zM566 0h-466v20h466v-20z" unicode="≤"/>
<glyph glyph-name="greaterequal" d="M100 67v20l454 216l-454 216v20l466 -224v-24zM100 0v20h466v-20h-466z" unicode="≥"/>
<glyph glyph-name="lozenge" horiz-adv-x="593" unicode="◊" d="M446 356l-151 377l-151 -377l151 -377zM470 356l-163 -391h-24l-161 391l161 391h24z"/>
</font>
</defs>
</svg>
