<?xml version="1.0" encoding="UTF-8" standalone="no"?>
<!DOCTYPE svg  PUBLIC '-//W3C//DTD SVG 1.1//EN'  'http://www.w3.org/Graphics/SVG/1.1/DTD/svg11.dtd'>
<svg xmlns="http://www.w3.org/2000/svg">
<defs>
<font id="AvenirNextCyr-Thin" horiz-adv-x="566">
<font-face underline-position="125" font-weight="275" descent="-200" panose-1="2 11 3 3 2 2 2 2 2 4" units-per-em="1000" unicode-range="U+0020-25CA" bbox="-197 -250 968 945" x-height="462" underline-thickness="50" font-family="AvenirNextCyr" ascent="800" cap-height="708"/>
<missing-glyph horiz-adv-x="1000"/>
<glyph glyph-name=".notdef" horiz-adv-x="1000"/>
<glyph glyph-name=".null" horiz-adv-x="1000"/>
<glyph glyph-name=".null" horiz-adv-x="1000"/>
<glyph glyph-name="nonmarkingreturn" horiz-adv-x="333"/>
<glyph glyph-name="space" horiz-adv-x="250" unicode=" "/>
<glyph glyph-name="exclam" horiz-adv-x="292" unicode="!" d="M179 28q0 -14 -10 -24t-23 -10t-23 10t-10 24q0 15 9.5 25t23.5 10t23.5 -10t9.5 -25zM165 708v-514h-38v514h38z"/>
<glyph glyph-name="quotedbl" horiz-adv-x="404" unicode='&quot;' d="M257 478v230h34v-230h-34zM113 478v230h34v-230h-34z"/>
<glyph glyph-name="numbersign" horiz-adv-x="552" unicode="#" d="M200 448l-24 -186h159l25 186h-160zM109 0l30 232h-108v30h112l25 186h-110v30h115l29 230h32l-30 -230h160l30 230h32l-30 -230h105v-30h-109l-25 -186h107v-30h-111l-30 -232h-32l30 232h-160l-30 -232h-32z"/>
<glyph glyph-name="dollar" d="M257 18v326q-92 29 -140 71t-48 122q0 79 53 127.5t135 55.5v72h31v-71q123 -2 189 -79l-29 -24q-55 72 -160 72v-318q39 -13 64 -23.5t54 -27.5t45.5 -36t28 -47.5t11.5 -63.5q0 -83 -57 -133.5t-146 -53.5v-71h-31v71q-127 4 -203 95l29 22q32 -39 80 -61.5t94 -24.5z M288 336v-318q70 3 118 44t48 114q0 63 -44.5 99.5t-121.5 60.5zM257 382v307q-64 -6 -108 -46t-44 -105q0 -64 40.5 -99t111.5 -57z" unicode="$"/>
<glyph glyph-name="percent" horiz-adv-x="824" unicode="%" d="M645 721l-443 -749l-27 16l443 749zM742 154q0 55 -38 93.5t-91 38.5t-91 -38.5t-38 -93.5q0 -56 37.5 -94t91.5 -38q53 0 91 38t38 94zM776 154q0 -69 -47.5 -116t-115.5 -47t-115 47t-47 116t47 116.5t115 47.5t115.5 -47.5t47.5 -116.5zM340 553q0 55 -38 93.5 t-91 38.5t-91 -38.5t-38 -93.5q0 -56 37.5 -94t91.5 -38q53 0 91 38t38 94zM373 553q0 -69 -47 -116.5t-115 -47.5t-115.5 47.5t-47.5 116.5q0 68 47.5 116t115.5 48q67 0 114.5 -48t47.5 -116z"/>
<glyph glyph-name="ampersand" horiz-adv-x="704" unicode="&amp;" d="M472 144l-213 225q-154 -75 -154 -189q0 -73 50 -118.5t122 -45.5q120 0 195 128zM425 577q0 52 -34 85t-85 33q-53 0 -88.5 -35t-35.5 -90q0 -41 23 -79t65 -83q76 39 115.5 76.5t39.5 92.5zM643 373l-126 -223l142 -150h-51l-111 118q-89 -134 -224 -134 q-88 0 -147 53.5t-59 143.5q0 73 43.5 121.5t126.5 90.5q-49 53 -70 93t-21 83q0 71 45.5 114t115.5 43q66 0 110.5 -41.5t44.5 -104.5q0 -64 -42.5 -106t-127.5 -88l199 -212l110 199h42z"/>
<glyph glyph-name="quotesingle" horiz-adv-x="260" unicode="&apos;" d="M113 478v230h34v-230h-34z"/>
<glyph glyph-name="parenleft" horiz-adv-x="300" unicode="(" d="M97 288q0 -112 35 -229.5t93 -198.5l-30 -17q-62 89 -98 206.5t-36 238.5t36 238.5t98 206.5l30 -17q-58 -81 -93 -198.5t-35 -229.5z"/>
<glyph glyph-name="parenright" horiz-adv-x="300" unicode=")" d="M202 288q0 112 -35 229.5t-94 198.5l30 17q62 -89 98.5 -206.5t36.5 -238.5t-36.5 -238.5t-98.5 -206.5l-30 17q59 81 94 198.5t35 229.5z"/>
<glyph glyph-name="asterisk" horiz-adv-x="444" unicode="*" d="M237 708v-162l156 49l11 -29l-158 -48l99 -136l-25 -18l-98 138l-98 -138l-25 18l99 136l-158 48l11 29l156 -49v162h30z"/>
<glyph glyph-name="plus" horiz-adv-x="666" unicode="+" d="M351 548v-228h222v-32h-222v-228h-33v228h-225v32h225v228h33z"/>
<glyph glyph-name="comma" horiz-adv-x="246" unicode="," d="M162 92l-70 -231h-29l60 231h39z"/>
<glyph glyph-name="hyphen" horiz-adv-x="306" unicode="-" d="M250 266v-31h-194v31h194z"/>
<glyph glyph-name="period" horiz-adv-x="246" unicode="." d="M156 29q0 -15 -9.5 -25t-23.5 -10t-23 10t-9 25q0 14 9.5 24t22.5 10t23 -10t10 -24z"/>
<glyph glyph-name="slash" horiz-adv-x="370" unicode="/" d="M354 717l-306 -733l-31 11l306 733z"/>
<glyph glyph-name="zero" d="M283 689q-47 0 -82 -24t-54.5 -59.5t-31 -84t-15 -87.5t-3.5 -80t3.5 -80t15 -87.5t31 -84t54.5 -59.5t82 -24q57 0 97 34.5t57.5 91t24.5 106t7 103.5t-7 103.5t-24.5 106t-57.5 91t-97 34.5zM283 722q52 0 92 -22.5t64.5 -58t40 -85.5t21.5 -98.5t6 -103.5 q0 -70 -10 -130.5t-34 -116.5t-70 -88.5t-110 -32.5q-65 0 -111 32.5t-69.5 89t-33.5 116.5t-10 130q0 55 5.5 103.5t21 98.5t40 85.5t65 58t92.5 22.5z" unicode="0"/>
<glyph glyph-name="one" d="M326 708v-708h-37v663l-132 -113l-23 27l157 131h35z" unicode="1"/>
<glyph glyph-name="two" d="M474 34v-34h-415v41l261 291q54 60 82 108.5t28 97.5q0 69 -43.5 110.5t-110.5 41.5q-57 0 -99.5 -33t-58.5 -90l-37 9q18 67 71 106.5t124 39.5q83 0 137.5 -50t54.5 -129q0 -62 -30 -113t-100 -129l-239 -267h375z" unicode="2"/>
<glyph glyph-name="three" d="M217 355v33h25q72 0 123 39t51 115q0 66 -43.5 107t-108.5 41q-44 0 -82.5 -20t-60.5 -56l-28 19q59 89 173 89q80 0 133 -48.5t53 -129.5q0 -63 -36 -110t-101 -60v-2q77 -13 119 -63.5t42 -119.5q0 -88 -56 -145.5t-155 -57.5q-70 0 -123 32t-80 89l32 16 q21 -47 67 -74.5t104 -29.5q79 0 126.5 47.5t47.5 123.5q0 81 -60.5 123t-136.5 42h-25z" unicode="3"/>
<glyph glyph-name="four" d="M372 213v453h-3l-289 -453h292zM408 708v-495h114v-33h-114v-180h-36v180h-329v40l313 488h52z" unicode="4"/>
<glyph glyph-name="five" d="M455 708v-34h-299l-6 -257q48 22 113 22q99 0 160 -62.5t61 -160.5q0 -105 -64.5 -167.5t-156.5 -62.5q-128 0 -196 105l31 19q54 -91 164 -91q75 0 130 53t55 142q0 86 -53 139.5t-143 53.5q-71 0 -136 -36l5 337h335z" unicode="5"/>
<glyph glyph-name="six" d="M104 202q0 -80 50.5 -132t128.5 -52t128.5 52t50.5 132t-49 133t-126 53t-130 -53.5t-53 -132.5zM361 708l-209 -344l2 -2q23 26 61 41.5t78 15.5q88 0 147 -61.5t59 -155.5t-61 -155t-156 -61t-155 60.5t-60 155.5q0 83 61 187l189 319h44z" unicode="6"/>
<glyph glyph-name="seven" d="M471 708v-39l-292 -669h-41l297 674h-358v34h394z" unicode="7"/>
<glyph glyph-name="eight" d="M106 190q0 -74 49 -123t128 -49t128 49t49 123q0 75 -50.5 123.5t-126.5 48.5t-126.5 -48.5t-50.5 -123.5zM132 543q0 -62 43.5 -105.5t107.5 -43.5q65 0 108.5 44t43.5 105q0 64 -43.5 105.5t-108.5 41.5t-108 -41t-43 -106zM353 378q71 -21 108 -72.5t37 -118.5 q0 -90 -61.5 -145.5t-153.5 -55.5t-153 55.5t-61 145.5q0 67 37.5 119t106.5 72v2q-56 20 -86.5 65t-30.5 99q0 79 53.5 128.5t133.5 49.5t134 -49.5t54 -128.5q0 -53 -31 -98.5t-87 -65.5v-2z" unicode="8"/>
<glyph glyph-name="nine" d="M462 507q0 80 -50 131.5t-128 51.5q-79 0 -129 -51.5t-50 -131.5q0 -79 49 -131t126 -52t129.5 52.5t52.5 130.5zM205 0l210 348l-2 2q-23 -26 -61 -41.5t-78 -15.5q-88 0 -147 60.5t-59 153.5q0 94 60.5 154.5t155.5 60.5t155.5 -60t60.5 -155q0 -81 -61 -184l-190 -323 h-44z" unicode="9"/>
<glyph glyph-name="colon" horiz-adv-x="286" unicode=":" d="M176 29q0 -15 -9.5 -25t-23.5 -10t-23 10t-9 25q0 14 9.5 24t22.5 10t23 -10t10 -24zM176 430q0 -14 -9.5 -24t-23.5 -10q-13 0 -22.5 10t-9.5 24t9.5 24t22.5 10q14 0 23.5 -10t9.5 -24z"/>
<glyph glyph-name="semicolon" horiz-adv-x="286" unicode=";" d="M173 92l-69 -231h-30l60 231h39zM176 430q0 -14 -9.5 -24t-23.5 -10q-13 0 -22.5 10t-9.5 24t9.5 24t22.5 10q14 0 23.5 -10t9.5 -24z"/>
<glyph glyph-name="less" horiz-adv-x="666" unicode="&lt;" d="M573 547v-33l-446 -211l446 -211v-33l-480 229v30z"/>
<glyph glyph-name="equal" horiz-adv-x="666" unicode="=" d="M93 237h480v-31h-480v31zM93 402h480v-32h-480v32z"/>
<glyph glyph-name="greater" horiz-adv-x="666" unicode="&gt;" d="M93 514v33l480 -229v-30l-480 -229v33l446 211z"/>
<glyph glyph-name="question" horiz-adv-x="475" unicode="?" d="M275 28q0 -14 -9.5 -24t-22.5 -10q-14 0 -23.5 10t-9.5 24q0 15 9.5 25t23.5 10q13 0 22.5 -10t9.5 -25zM257 242v-44h-36v55q0 43 18.5 78.5t70.5 78.5q44 37 62.5 67t18.5 74q0 65 -42.5 102t-106.5 37q-62 0 -103.5 -37t-51.5 -98l-36 6q14 77 66 120t127 43 q80 0 132.5 -45.5t52.5 -125.5q0 -40 -14.5 -72t-30 -49t-46.5 -42q-50 -42 -65.5 -70t-15.5 -78z"/>
<glyph glyph-name="at" horiz-adv-x="800" unicode="@" d="M700 137l22 -23q-119 -133 -302 -133q-167 0 -272 106.5t-105 266.5q0 157 108.5 265t264.5 108q149 0 248 -87.5t99 -227.5q0 -113 -53 -182.5t-141 -69.5q-38 0 -61 19t-23 53q0 8 1 12h-3q-17 -33 -51.5 -58.5t-80.5 -25.5q-59 0 -91 40t-32 99q0 60 23.5 117 t70.5 96.5t105 39.5q43 0 70 -22t34 -60h4l17 65h33l-59 -222q-10 -36 -10 -66q0 -55 58 -55q74 0 114 63t40 155q0 126 -88.5 205t-223.5 79q-144 0 -239 -100.5t-95 -240.5q0 -146 95 -243t245 -97q166 0 278 124zM426 519q-71 0 -115.5 -71t-44.5 -151q0 -44 22.5 -74.5 t68.5 -30.5q49 0 87 43t54 93t16 90q0 44 -22 72.5t-66 28.5z"/>
<glyph glyph-name="A" horiz-adv-x="677" unicode="A" d="M341 674l-187 -443h370zM140 198l-83 -198h-41l306 708h41l298 -708h-41l-82 198h-398z"/>
<glyph glyph-name="B" horiz-adv-x="619" unicode="B" d="M140 356v-323h169q94 0 151.5 39t57.5 118q0 82 -58 124t-139 42h-181zM140 675v-287h162q74 0 128.5 36.5t54.5 108.5q0 75 -54 108.5t-139 33.5h-152zM102 0v708h199q43 0 80.5 -8.5t70.5 -27t52 -53t19 -82.5q0 -66 -39 -107t-99 -54v-2q67 -7 119 -54t52 -129 q0 -98 -69 -144.5t-170 -46.5h-215z"/>
<glyph glyph-name="C" horiz-adv-x="723" unicode="C" d="M659 117l28 -22q-41 -53 -109.5 -83.5t-146.5 -30.5q-159 0 -261.5 105.5t-102.5 267.5t103 267.5t261 105.5q71 0 135 -25.5t104 -71.5l-27 -25q-35 41 -93 64.5t-119 23.5q-144 0 -234.5 -98t-90.5 -241t90 -241t235 -98q67 0 128.5 26t99.5 76z"/>
<glyph glyph-name="D" horiz-adv-x="766" unicode="D" d="M140 674v-640h164q161 0 258.5 84t97.5 236t-97.5 236t-258.5 84h-164zM102 0v708h212q166 0 275.5 -90.5t109.5 -263.5q0 -88 -31 -157t-84.5 -111.5t-122 -64t-147.5 -21.5h-212z"/>
<glyph glyph-name="E" horiz-adv-x="591" unicode="E" d="M139 351v-317h398v-34h-435v708h421v-34h-384v-290h360v-33h-360z"/>
<glyph glyph-name="F" horiz-adv-x="561" unicode="F" d="M140 350v-350h-38v708h411v-34h-373v-291h347v-33h-347z"/>
<glyph glyph-name="G" horiz-adv-x="790" unicode="G" d="M678 641l-25 -26q-38 37 -97 58t-120 21q-147 0 -238.5 -98t-91.5 -241q0 -144 91 -242.5t244 -98.5q122 0 218 49v261h-178v32h215v-312q-108 -63 -257 -63q-165 0 -268.5 106t-103.5 268t103.5 267t265.5 105q145 0 242 -86z"/>
<glyph glyph-name="H" horiz-adv-x="728" unicode="H" d="M102 0v708h38v-324h448v324h37v-708h-37v350h-448v-350h-38z"/>
<glyph glyph-name="I" horiz-adv-x="242" unicode="I" d="M140 708v-708h-38v708h38z"/>
<glyph glyph-name="J" horiz-adv-x="484" unicode="J" d="M28 103l34 12q16 -45 53 -72.5t85 -27.5q77 0 113 50.5t36 134.5v508h37v-512q0 -95 -45.5 -154.5t-137.5 -59.5q-65 0 -112 34t-63 87z"/>
<glyph glyph-name="K" horiz-adv-x="584" unicode="K" d="M140 708v-323l351 323h54l-359 -324l377 -384h-54l-369 380v-380h-38v708h38z"/>
<glyph glyph-name="L" horiz-adv-x="502" unicode="L" d="M140 708v-674h345v-34h-383v708h38z"/>
<glyph glyph-name="M" horiz-adv-x="900" unicode="M" d="M102 0v708h61l287 -648l287 648h61v-708h-38v662h-3l-296 -662h-24l-295 662h-2v-662h-38z"/>
<glyph glyph-name="N" horiz-adv-x="773" unicode="N" d="M152 708l479 -656h2v656h38v-708h-50l-479 658h-2v-658h-38v708h50z"/>
<glyph glyph-name="O" horiz-adv-x="865" unicode="O" d="M759 354q0 143 -91 241.5t-235 98.5t-235.5 -98.5t-91.5 -241.5t91 -241t236 -98t235.5 98t90.5 241zM798 354q0 -162 -104 -267.5t-261 -105.5q-158 0 -262 105.5t-104 267.5t103.5 267.5t262.5 105.5q158 0 261.5 -105.5t103.5 -267.5z"/>
<glyph glyph-name="P" horiz-adv-x="574" unicode="P" d="M140 676v-302h165q78 0 128.5 38.5t50.5 115.5q0 76 -52 112t-131 36h-161zM102 0v708h195q96 0 160.5 -43.5t64.5 -136.5q0 -88 -61 -137t-156 -49h-165v-342h-38z"/>
<glyph glyph-name="Q" horiz-adv-x="871" unicode="Q" d="M832 34v-34h-404q-153 0 -257 101.5t-104 260.5t103 262t259 103t259 -104t103 -261q0 -111 -62.5 -204t-156.5 -122v-2h260zM106 362q0 -138 91 -233.5t233 -95.5q143 0 233 98t90 231q0 138 -91 235t-233 97t-232.5 -96.5t-90.5 -235.5z"/>
<glyph glyph-name="R" horiz-adv-x="596" unicode="R" d="M140 676v-294h158q94 0 144.5 38t50.5 109q0 147 -202 147h-151zM140 349v-349h-38v708h200q100 0 164 -41t64 -138q0 -86 -58 -130t-140 -47l212 -352h-44l-208 349h-152z"/>
<glyph glyph-name="S" horiz-adv-x="568" unicode="S" d="M486 646l-28 -24q-54 72 -159 72q-73 0 -127.5 -40.5t-54.5 -113.5q0 -44 21 -76t55 -50.5t74.5 -33t81.5 -29.5t75 -35.5t55 -56t21 -84.5q0 -91 -64 -142.5t-156 -51.5q-136 0 -212 91l25 25q79 -82 187 -82q75 0 128.5 42.5t53.5 115.5q0 51 -28.5 85.5t-70.5 51 t-92 35.5t-92 38t-70.5 59t-28.5 97q0 88 64.5 138t155.5 50q59 0 107.5 -21.5t78.5 -59.5z"/>
<glyph glyph-name="T" horiz-adv-x="549" unicode="T" d="M293 674v-674h-37v674h-240v34h517v-34h-240z"/>
<glyph glyph-name="U" horiz-adv-x="725" unicode="U" d="M363 -19q-74 0 -128 23.5t-83.5 65t-43.5 90.5t-14 107v441h38v-436q0 -37 5.5 -70t20.5 -68.5t40 -61t67 -42t98 -16.5q67 0 115 23.5t72 63.5t34 81.5t10 89.5v436h37v-441q0 -58 -14 -107t-43.5 -90.5t-83.5 -65t-127 -23.5z"/>
<glyph glyph-name="V" horiz-adv-x="611" unicode="V" d="M54 708l249 -665h2l253 665h40l-270 -708h-47l-268 708h41z"/>
<glyph glyph-name="W" horiz-adv-x="961" unicode="W" d="M63 708l195 -664h3l193 664h50l197 -664h2l195 664h39l-211 -708h-49l-197 663h-2l-194 -663h-49l-211 708h39z"/>
<glyph glyph-name="X" horiz-adv-x="608" unicode="X" d="M97 708l208 -309l206 309h44l-228 -337l253 -371h-46l-230 343l-230 -343h-46l253 371l-229 337h45z"/>
<glyph glyph-name="Y" horiz-adv-x="558" unicode="Y" d="M298 308v-308h-38v308l-250 400h46l224 -366l224 366h43z"/>
<glyph glyph-name="Z" horiz-adv-x="587" unicode="Z" d="M538 708v-39l-450 -635h461v-34h-502v37l452 637h-440v34h479z"/>
<glyph glyph-name="bracketleft" horiz-adv-x="300" unicode="[" d="M220 732v-30h-111v-828h111v-30h-147v888h147z"/>
<glyph glyph-name="backslash" horiz-adv-x="370" unicode="\" d="M323 -16l-306 733l31 11l306 -733z"/>
<glyph glyph-name="bracketright" horiz-adv-x="300" unicode="]" d="M80 -156v30h111v828h-111v30h147v-888h-147z"/>
<glyph glyph-name="asciicircum" horiz-adv-x="666" unicode="^" d="M92 252l225 456h32l225 -456h-33l-208 425l-208 -425h-33z"/>
<glyph glyph-name="underscore" horiz-adv-x="500" unicode="_" d="M0 -117v29h500v-29h-500z"/>
<glyph glyph-name="grave" horiz-adv-x="240" unicode="`" d="M128 564l-117 144h47l102 -144h-32z"/>
<glyph glyph-name="a" horiz-adv-x="519" unicode="a" d="M225 17q85 0 126.5 58.5t41.5 143.5v27h-56q-238 0 -238 -123q0 -54 38 -80t88 -26zM219 -13q-62 0 -109 34.5t-47 100.5q0 153 264 153h66v30q0 70 -37 105t-104 35q-80 0 -140 -55l-20 26q66 60 162 60q81 0 127.5 -42.5t46.5 -126.5v-203q0 -64 8 -104h-34 q-7 44 -7 99h-3q-22 -56 -68.5 -84t-104.5 -28z"/>
<glyph glyph-name="b" horiz-adv-x="629" unicode="b" d="M532 231q0 89 -54.5 151.5t-144.5 62.5q-85 0 -142 -62.5t-57 -151.5t57 -151t142 -62q90 0 144.5 61.5t54.5 151.5zM138 110h-3v-110h-36v756h36v-405h3q29 60 82.5 92.5t115.5 32.5q103 0 168 -69.5t65 -175.5q0 -105 -65.5 -174.5t-167.5 -69.5q-63 0 -117.5 32.5 t-80.5 90.5z"/>
<glyph glyph-name="c" horiz-adv-x="486" unicode="c" d="M454 410l-25 -23q-50 58 -130 58q-90 0 -145.5 -62t-55.5 -152t55.5 -151t145.5 -61q80 0 137 54l22 -22q-61 -64 -159 -64q-105 0 -172 68.5t-67 175.5q0 106 67 175.5t172 69.5q97 0 155 -66z"/>
<glyph glyph-name="d" horiz-adv-x="629" unicode="d" d="M98 231q0 -90 54 -151.5t144 -61.5q85 0 142 62t57 151t-57 151.5t-142 62.5q-89 0 -143.5 -62t-54.5 -152zM492 110q-29 -59 -82.5 -91t-115.5 -32q-103 0 -168.5 69.5t-65.5 174.5t66 175t168 70q62 0 115.5 -32.5t82.5 -92.5h2v405h36v-756h-36v110h-2z"/>
<glyph glyph-name="e" horiz-adv-x="561" unicode="e" d="M293 -13q-102 0 -167.5 70t-65.5 178q0 104 64.5 172.5t159.5 68.5q103 0 160 -66t57 -159q0 -4 -0.5 -11.5t-0.5 -10.5h-403q1 -85 53.5 -148t142.5 -63q98 0 165 82l25 -21q-72 -92 -190 -92zM98 259h367q-2 83 -51.5 134.5t-129.5 51.5q-58 0 -102 -32.5t-63.5 -73.5 t-20.5 -80z"/>
<glyph glyph-name="f" horiz-adv-x="286" unicode="f" d="M274 462v-30h-120v-432h-36v432h-98v30h97v154q0 78 37 115t95 37q28 0 49 -6l-6 -31q-21 6 -43 6q-51 0 -73 -34.5t-22 -88.5v-152h120z"/>
<glyph glyph-name="g" horiz-adv-x="628" unicode="g" d="M98 232q0 -88 54.5 -149.5t143.5 -61.5q86 0 142.5 61.5t56.5 150.5q0 88 -57 150t-142 62q-89 0 -143.5 -62t-54.5 -151zM85 -158l24 24q78 -81 187 -81q106 0 152 65.5t46 170.5v93h-2q-26 -58 -80.5 -91t-117.5 -33q-103 0 -168.5 68.5t-65.5 173.5q0 104 66 174 t168 70q62 0 115.5 -33t82.5 -92h2v111h36v-443q0 -53 -11.5 -98t-37 -84t-73.5 -61.5t-113 -22.5q-129 0 -210 89z"/>
<glyph glyph-name="h" horiz-adv-x="573" unicode="h" d="M135 355h2q20 56 68 88.5t106 32.5q88 0 128.5 -55t40.5 -140v-281h-36v271q0 34 -6.5 62.5t-21 55t-43 41.5t-68.5 15q-73 0 -121.5 -59t-48.5 -167v-219h-36v756h36v-401z"/>
<glyph glyph-name="i" horiz-adv-x="233" unicode="i" d="M147 656q0 -14 -9 -23.5t-21 -9.5q-13 0 -22 9.5t-9 23.5q0 13 9.5 22.5t21.5 9.5t21 -9.5t9 -22.5zM135 462v-462h-36v462h36z"/>
<glyph glyph-name="j" horiz-adv-x="234" unicode="j" d="M148 656q0 -14 -9.5 -23.5t-21.5 -9.5q-13 0 -22 9.5t-9 23.5q0 13 9.5 22.5t21.5 9.5t21.5 -9.5t9.5 -22.5zM-20 -236l6 30q20 -4 30 -4q22 0 38 7t24.5 16.5t13.5 26.5t6 31t1 35v556h36v-558q0 -72 -25.5 -108.5t-92.5 -36.5q-19 0 -37 5z"/>
<glyph glyph-name="k" horiz-adv-x="465" unicode="k" d="M135 756v-505h2l231 211h52l-241 -213l267 -249h-53l-256 244h-2v-244h-36v756h36z"/>
<glyph glyph-name="l" horiz-adv-x="234" unicode="l" d="M135 756v-756h-36v756h36z"/>
<glyph glyph-name="m" horiz-adv-x="887" unicode="m" d="M100 0v350q0 76 -4 112h35q4 -50 4 -108h2q20 56 65 89t99 33q118 0 154 -128q21 61 66.5 94.5t105.5 33.5q87 0 127 -56t40 -145v-275h-36v266q0 76 -31.5 127.5t-102.5 51.5q-72 0 -116.5 -58t-44.5 -151v-236h-37v275q0 82 -32.5 126t-95.5 44q-68 0 -114.5 -58.5 t-46.5 -161.5v-225h-37z"/>
<glyph glyph-name="n" horiz-adv-x="575" unicode="n" d="M96 462h35q4 -50 4 -108h2q20 56 68 89t105 33q88 0 130 -55.5t42 -139.5v-281h-36v271q0 74 -32 124t-107 50q-72 0 -121 -57t-49 -155v-233h-37v350q0 76 -4 112z"/>
<glyph glyph-name="o" horiz-adv-x="607" unicode="o" d="M509 232q0 91 -56.5 152t-149.5 61t-149 -61t-56 -152t56 -152.5t149 -61.5t149.5 61.5t56.5 152.5zM547 232q0 -107 -68.5 -176t-175.5 -69q-106 0 -174.5 69t-68.5 176t68.5 175.5t174.5 68.5q107 0 175.5 -68.5t68.5 -175.5z"/>
<glyph glyph-name="p" horiz-adv-x="629" unicode="p" d="M531 231q0 89 -54.5 151.5t-143.5 62.5q-85 0 -142.5 -62.5t-57.5 -151.5t57.5 -151t142.5 -62q89 0 143.5 61.5t54.5 151.5zM135 110v-350h-37v702h37v-111h3q29 60 82 92.5t115 32.5q104 0 169 -69.5t65 -175.5q0 -105 -65.5 -174.5t-168.5 -69.5q-63 0 -117 32.5 t-80 90.5h-3z"/>
<glyph glyph-name="q" horiz-adv-x="629" unicode="q" d="M98 231q0 -90 54 -151.5t144 -61.5q85 0 142 62t57 151t-57 151.5t-142 62.5q-89 0 -143.5 -62t-54.5 -152zM494 110h-3q-26 -58 -80 -90.5t-117 -32.5q-103 0 -168.5 69.5t-65.5 174.5q0 106 65 175.5t169 69.5q62 0 115 -32.5t82 -92.5h3v111h36v-702h-36v350z"/>
<glyph glyph-name="r" horiz-adv-x="330" unicode="r" d="M100 350q0 76 -4 112h35q4 -50 4 -108h2q19 59 61.5 90.5t94.5 31.5q18 0 27 -2l-3 -33q-12 2 -24 2q-74 0 -115 -61t-41 -154v-228h-37v350z"/>
<glyph glyph-name="s" horiz-adv-x="424" unicode="s" d="M361 404l-27 -20q-41 61 -120 61q-44 0 -78 -23t-34 -70q0 -40 28 -61t96 -37q71 -17 109 -46t38 -84q0 -64 -46 -100t-112 -36q-112 0 -169 81l29 21q50 -71 140 -71q49 0 85.5 26.5t36.5 75.5q0 21 -9.5 38t-20 27t-35.5 19.5t-37.5 13t-43.5 11.5q-62 16 -93.5 44.5 t-31.5 77.5q0 59 44 91.5t105 32.5q99 0 146 -72z"/>
<glyph glyph-name="t" horiz-adv-x="308" unicode="t" d="M284 462v-30h-134v-324q0 -86 80 -86q29 0 53 11l3 -31q-31 -12 -64 -12q-50 0 -79 29t-29 83v330h-99v30h98v135h37v-135h134z"/>
<glyph glyph-name="u" horiz-adv-x="575" unicode="u" d="M478 0h-36q-4 52 -4 108h-2q-20 -56 -68.5 -88.5t-106.5 -32.5q-88 0 -128.5 55t-40.5 140v280h36v-270q0 -74 31.5 -124.5t106.5 -50.5q73 0 122 58t49 161v226h36v-350q0 -65 5 -112z"/>
<glyph glyph-name="v" horiz-adv-x="451" unicode="v" d="M429 462l-180 -462h-43l-184 462h40l165 -425h2l161 425h39z"/>
<glyph glyph-name="w" horiz-adv-x="713" unicode="w" d="M32 462h38l122 -420h2l141 420h42l142 -420h2l122 420h38l-139 -462h-43l-143 418h-2l-141 -418h-43z"/>
<glyph glyph-name="x" horiz-adv-x="462" unicode="x" d="M24 0l183 243l-163 219h46l140 -194l140 194h45l-163 -218l186 -244h-48l-161 218l-160 -218h-45z"/>
<glyph glyph-name="y" horiz-adv-x="447" unicode="y" d="M73 -241q-27 0 -47 6l6 33q19 -7 41 -7q36 0 57.5 23.5t36.5 63.5l42 113l-187 471h40l166 -431l158 431h39l-230 -604q-38 -99 -122 -99z"/>
<glyph glyph-name="z" horiz-adv-x="439" unicode="z" d="M383 462v-30l-296 -401h307v-31h-351v29l299 403h-283v30h324z"/>
<glyph glyph-name="braceleft" horiz-adv-x="300" unicode="{" d="M0 273v30q78 0 78 114v190q0 125 106 125h52v-30h-47q-76 0 -76 -99v-190q0 -60 -21.5 -89.5t-52.5 -34.5v-2q31 -5 52.5 -34.5t21.5 -89.5v-190q0 -99 76 -99h47v-30h-52q-106 0 -106 125v190q0 114 -78 114z"/>
<glyph glyph-name="bar" horiz-adv-x="222" unicode="|" d="M94 750h34v-1000h-34v1000z"/>
<glyph glyph-name="braceright" horiz-adv-x="300" unicode="}" d="M300 303v-30q-78 0 -78 -114v-190q0 -125 -106 -125h-52v30h47q76 0 76 99v190q0 60 21.5 89.5t52.5 34.5v2q-31 5 -52.5 34.5t-21.5 89.5v190q0 99 -76 99h-47v30h52q106 0 106 -125v-190q0 -114 78 -114z"/>
<glyph glyph-name="asciitilde" horiz-adv-x="666" unicode="~" d="M552 360l24 -23q-58 -91 -133 -91q-50 0 -104 35q-42 28 -64 37.5t-48 9.5q-66 0 -111 -82l-24 22q57 93 133 93q52 0 103 -35q68 -47 114 -47q59 0 110 81z"/>
<glyph glyph-name="uni00A0" horiz-adv-x="250" unicode=" "/>
<glyph glyph-name="exclamdown" horiz-adv-x="292" unicode="¡" d="M179 456q0 -15 -9.5 -25t-23.5 -10t-23.5 10t-9.5 25q0 14 10 24t23 10t23 -10t10 -24zM165 290v-514h-38v514h38z"/>
<glyph glyph-name="cent" d="M330 443v-424q78 3 125 55l27 -22q-58 -62 -152 -64v-60h-30v60q-95 7 -155 74.5t-60 168.5q0 100 59.5 168t155.5 75v66h30v-65q92 -3 151 -67l-29 -23q-48 56 -122 58zM300 20v423q-80 -8 -128.5 -68t-48.5 -144t48.5 -144t128.5 -67z" unicode="¢"/>
<glyph glyph-name="sterling" d="M389 384v-32h-169v-320h258v-32h-402v32h107v320h-98v32h98v123q0 99 47.5 159t142.5 60q79 0 130 -48l-24 -27q-44 42 -107 42q-80 0 -116 -53.5t-36 -136.5v-119h169z" unicode="£"/>
<glyph glyph-name="currency" horiz-adv-x="819" unicode="¤" d="M410 522q-93 0 -150 -61t-57 -151q0 -91 57 -153t150 -62q94 0 151 62t57 153q0 90 -57 151t-151 61zM601 472q55 -66 55 -162q0 -99 -59 -168q45 -49 94 -94q-3 -2 -13 -13t-11 -12l-95 95q-66 -57 -162 -57q-95 0 -162 59l-97 -97q-13 16 -24 25l96 96q-57 67 -57 166 q0 94 54 161q-5 5 -46.5 45.5t-46.5 45.5q5 4 25 24l91 -91q69 61 167 61q100 0 166 -60l90 90l12 -12t13 -12z"/>
<glyph glyph-name="yen" d="M83 223h182v123h-182v30h170l-232 332h46l217 -321l217 321h44l-230 -332h168v-30h-182v-123h182v-30h-182v-193h-36v193h-182v30z" unicode="¥"/>
<glyph glyph-name="brokenbar" horiz-adv-x="222" unicode="¦" d="M96 163h30v-337h-30v337zM96 675h30v-337h-30v337z"/>
<glyph glyph-name="section" d="M303 408l-47 19q-49 -6 -85 -35t-36 -82q0 -25 8.5 -44t29.5 -33.5t36 -22t48 -21.5l51 -21q49 5 84 34t35 80q0 48 -31.5 74.5t-92.5 51.5zM454 655l-30 -20q-36 61 -126 61q-56 0 -96 -31t-40 -87q0 -27 8.5 -46.5t30 -34.5t35.5 -22t46 -21l49 -21q68 -29 100.5 -61.5 t32.5 -84.5q0 -56 -35 -91.5t-87 -46.5q97 -45 97 -129q0 -73 -51 -113.5t-127 -40.5q-116 0 -176 83l32 21q47 -71 145 -71q58 0 99 30t41 88q0 44 -30 71t-87 50l-64 29q-45 21 -67 35t-38.5 41t-16.5 65q0 56 35.5 92t86.5 47q-48 24 -71.5 51t-23.5 79q0 71 50 110.5 t124 39.5q110 0 154 -72z" unicode="§"/>
<glyph glyph-name="dieresis" horiz-adv-x="240" unicode="¨" d="M171 655q0 14 9.5 23.5t22.5 9.5t22.5 -10t9.5 -23q0 -14 -9.5 -23.5t-22.5 -9.5q-14 0 -23 9.5t-9 23.5zM5 655q0 13 9.5 23t22.5 10t22.5 -9.5t9.5 -23.5t-9.5 -23.5t-22.5 -9.5t-22.5 9.5t-9.5 23.5z"/>
<glyph glyph-name="copyright" horiz-adv-x="800" unicode="©" d="M54 353q0 -142 101.5 -242t245.5 -100q143 0 244 100t101 242q0 143 -101 243.5t-244 100.5q-144 0 -245.5 -100.5t-101.5 -243.5zM20 353q0 157 111.5 267t269.5 110q157 0 268 -110t111 -267q0 -156 -111 -265.5t-268 -109.5q-158 0 -269.5 109.5t-111.5 265.5z M538 214l26 -20q-56 -66 -149 -66q-95 0 -157 63.5t-62 161.5t62 162t157 64q42 0 81 -17t64 -47l-28 -22q-47 54 -117 54q-81 0 -132 -57t-51 -137t50.5 -136t132.5 -56q76 0 123 53z"/>
<glyph glyph-name="ordfeminine" horiz-adv-x="353" unicode="ª" d="M259 580h-15q-37 0 -63 -2.5t-51.5 -9t-38.5 -21.5t-13 -37q0 -31 22.5 -45t54.5 -14q48 0 76 30.5t28 75.5v23zM259 605v10q0 39 -22 59t-62 20q-56 0 -95 -37l-17 22q43 41 114 41q53 0 83 -27.5t30 -76.5v-124q0 -36 5 -61h-30q-5 23 -5 57h-1q-35 -64 -112 -64 q-39 0 -70 21.5t-31 64.5q0 31 17 51t50.5 29t66 12t79.5 3z"/>
<glyph glyph-name="guillemotleft" horiz-adv-x="481" unicode="«" d="M397 420l-114 -182l115 -182l-26 -19l-128 201l127 200zM226 420l-114 -182l115 -182l-26 -19l-128 201l127 200z"/>
<glyph glyph-name="logicalnot" horiz-adv-x="666" unicode="¬" d="M578 402v-269h-34v237h-455v32h489z"/>
<glyph glyph-name="uni00AD" horiz-adv-x="306" unicode="­" d="M250 266v-31h-194v31h194z"/>
<glyph glyph-name="registered" horiz-adv-x="600" unicode="®" d="M249 502h44q70 0 70 49q0 46 -58 46h-56v-95zM220 369v253h86q39 0 62.5 -18.5t23.5 -53.5q0 -29 -19 -47t-46 -21l75 -113h-35l-70 110h-48v-110h-29zM98 494q0 -83 59.5 -142.5t143.5 -59.5q83 0 142 59.5t59 142.5t-59 142t-142 59q-84 0 -143.5 -59t-59.5 -142z M72 494q0 94 67 160t162 66q94 0 160.5 -66t66.5 -160t-66.5 -159.5t-160.5 -65.5q-95 0 -162 65.5t-67 159.5z"/>
<glyph glyph-name="macron" horiz-adv-x="240" unicode="¯" d="M242 645v-30h-244v30h244z"/>
<glyph glyph-name="degree" horiz-adv-x="400" unicode="°" d="M318 571q0 49 -34.5 83.5t-83.5 34.5t-83.5 -34.5t-34.5 -83.5t34.5 -83.5t83.5 -34.5t83.5 34.5t34.5 83.5zM346 571q0 -61 -42 -103.5t-104 -42.5t-104 42.5t-42 103.5t42 103.5t104 42.5t104 -42.5t42 -103.5z"/>
<glyph glyph-name="plusminus" horiz-adv-x="666" unicode="±" d="M92 48v32h483v-32h-483zM89 344v32h225v184h34v-184h230v-32h-230v-180h-33v180h-226z"/>
<glyph glyph-name="twosuperior" horiz-adv-x="356" unicode="²" d="M304 482v-29h-257v31l158 169q64 69 64 118q0 39 -24 61t-62 22q-73 0 -92 -74l-32 7q11 46 45 71t79 25q55 0 87.5 -30.5t32.5 -78.5q0 -38 -17 -67.5t-63 -78.5l-137 -146h218z"/>
<glyph glyph-name="threesuperior" horiz-adv-x="356" unicode="³" d="M166 443q-92 0 -127 78l30 11q13 -30 40 -45t57 -15q45 0 71 25t26 69t-33.5 68.5t-79.5 24.5h-20v28h19q47 0 73.5 24.5t26.5 62.5t-24 59.5t-59 21.5q-55 0 -82 -45l-26 15q38 58 108 58q54 0 84.5 -29t30.5 -79q0 -40 -21.5 -66t-58.5 -34q-1 -1 -1 -2q44 -8 69.5 -36 t25.5 -71q0 -58 -36.5 -90.5t-92.5 -32.5z"/>
<glyph glyph-name="acute" horiz-adv-x="240" unicode="´" d="M229 708l-117 -144h-32l102 144h47z"/>
<glyph glyph-name="mu" horiz-adv-x="556" unicode="µ" d="M87 -228v690h36v-270q0 -174 139 -174q73 0 121.5 57t48.5 154v233h35v-350l4 -112h-38v107h-2q-21 -55 -70 -87.5t-105 -32.5q-92 0 -133 68v-283h-36z"/>
<glyph glyph-name="paragraph" horiz-adv-x="600" unicode="¶" d="M496 708v-834h-35v806h-146v-806h-35v459q-95 0 -154 52.5t-59 128.5q0 94 59 144t165 50h205z"/>
<glyph glyph-name="periodcentered" horiz-adv-x="246" unicode="·" d="M156 273q0 -14 -9.5 -24t-23.5 -10q-13 0 -22.5 10t-9.5 24t9.5 24t22.5 10q14 0 23.5 -10t9.5 -24z"/>
<glyph glyph-name="cedilla" horiz-adv-x="240" unicode="¸" d="M143 0l-55 -83q22 7 48 7q35 0 60 -17t25 -52q0 -44 -35 -63t-79 -19q-46 0 -91 20l8 23q35 -17 82 -17q32 0 57 13t25 43q0 47 -66 47q-37 0 -61 -13l-13 11l67 100h28z"/>
<glyph glyph-name="onesuperior" horiz-adv-x="356" unicode="¹" d="M204 874v-421h-34v382l-86 -62l-21 24l110 77h31z"/>
<glyph glyph-name="ordmasculine" horiz-adv-x="353" unicode="º" d="M290 573q0 52 -30.5 86.5t-82.5 34.5t-83 -35t-31 -86q0 -52 31 -87.5t83 -35.5t82.5 35.5t30.5 87.5zM322 573q0 -65 -40.5 -107t-104.5 -42t-105 42t-41 107t41 106.5t105 41.5t104.5 -41.5t40.5 -106.5z"/>
<glyph glyph-name="guillemotright" horiz-adv-x="481" unicode="»" d="M84 56l114 182l-114 182l25 19l129 -201l-128 -200zM255 56l114 182l-114 182l25 19l129 -201l-128 -200z"/>
<glyph glyph-name="onequarter" horiz-adv-x="812" unicode="¼" d="M629 721l-443 -749l-27 16l443 749zM204 708v-421h-34v382l-86 -62l-21 24l110 77h31zM656 383h-3l-157 -250h160v250zM687 424v-291h65v-29h-65v-104h-31v104h-193v31l182 289h42z"/>
<glyph glyph-name="onehalf" horiz-adv-x="812" unicode="½" d="M204 708v-421h-34v382l-86 -62l-21 24l123 77h18zM629 721l-443 -749l-27 16l443 749zM745 29v-29h-257v31l158 169q64 68 64 118q0 39 -24 61t-63 22q-72 0 -91 -74l-32 7q11 46 44.5 71t78.5 25q55 0 88 -30.5t33 -77.5q0 -39 -16.5 -68t-62.5 -78l-137 -147h217z"/>
<glyph glyph-name="threequarters" horiz-adv-x="812" unicode="¾" d="M629 721l-443 -749l-27 16l443 749zM496 133h160v250h-3zM166 280q-92 0 -127 78l30 11q13 -30 40 -45t57 -15q45 0 71 25t26 69t-33.5 68.5t-79.5 24.5h-20v28h19q47 0 73.5 24.5t26.5 62.5t-24 59.5t-59 21.5q-55 0 -82 -45l-26 15q38 58 108 58q54 0 84.5 -29 t30.5 -79q0 -40 -22 -66t-59 -34v-2q44 -8 69.5 -36t25.5 -71q0 -58 -36.5 -90.5t-92.5 -32.5zM656 0v104h-193v31l182 289h42v-291h65v-29h-65v-104h-31z"/>
<glyph glyph-name="questiondown" horiz-adv-x="475" unicode="¿" d="M201 456q0 14 10 24t23 10t22.5 -10t9.5 -24q0 -15 -9 -25t-23 -10t-23.5 10t-9.5 25zM219 242v44h37v-55q0 -45 -19.5 -80t-74.5 -80q-41 -33 -59 -63t-18 -75q0 -65 42.5 -102.5t107.5 -37.5q62 0 103.5 37.5t50.5 98.5l36 -6q-14 -77 -66 -120t-127 -43 q-80 0 -132.5 45.5t-52.5 125.5q0 39 14.5 71.5t30.5 49.5t46 42q49 41 65 69.5t16 78.5z"/>
<glyph glyph-name="Agrave" horiz-adv-x="677" unicode="À" d="M329 764l-117 144h47l102 -144h-32zM341 674l-187 -443h370zM140 198l-83 -198h-41l306 708h41l298 -708h-41l-82 198h-398z"/>
<glyph glyph-name="Aacute" horiz-adv-x="677" unicode="Á" d="M472 908l-117 -144h-32l102 144h47zM341 674l-187 -443h370zM140 198l-83 -198h-41l306 708h41l298 -708h-41l-82 198h-398z"/>
<glyph glyph-name="Acircumflex" horiz-adv-x="677" unicode="Â" d="M364 908l105 -144h-36l-91 125l-91 -125h-36l105 144h44zM341 674l-187 -443h370zM140 198l-83 -198h-41l306 708h41l298 -708h-41l-82 198h-398z"/>
<glyph glyph-name="Atilde" horiz-adv-x="677" unicode="Ã" d="M235 787h-24q5 37 22.5 59t44.5 22q26 0 67 -24q40 -24 61 -24q35 0 43 49h25q-11 -79 -68 -79q-26 0 -66 24q-39 24 -62 24q-33 0 -43 -51zM341 674l-187 -443h370zM140 198l-83 -198h-41l306 708h41l298 -708h-41l-82 198h-398z"/>
<glyph glyph-name="Adieresis" horiz-adv-x="677" unicode="Ä" d="M393 855q0 14 9.5 23.5t22.5 9.5t22.5 -10t9.5 -23q0 -14 -9.5 -23.5t-22.5 -9.5q-14 0 -23 9.5t-9 23.5zM227 855q0 13 9.5 23t22.5 10t22.5 -9.5t9.5 -23.5t-9.5 -23.5t-22.5 -9.5t-22.5 9.5t-9.5 23.5zM341 674l-187 -443h370zM140 198l-83 -198h-41l306 708h41 l298 -708h-41l-82 198h-398z"/>
<glyph glyph-name="Aring" horiz-adv-x="677" unicode="Å" d="M414 850q0 30 -21 51t-51 21t-51 -21t-21 -51t21 -51t51 -21t51 21t21 51zM438 850q0 -40 -28.5 -67.5t-67.5 -27.5t-67.5 27.5t-28.5 67.5t28.5 67.5t67.5 27.5t67.5 -27.5t28.5 -67.5zM341 674l-187 -443h370zM140 198l-83 -198h-41l306 708h41l298 -708h-41l-82 198 h-398z"/>
<glyph glyph-name="AE" horiz-adv-x="975" unicode="Æ" d="M213 237h287v437h-5zM537 351v-317h382v-34h-419v204h-307l-133 -204h-43l460 708h427v-34h-367v-290h343v-33h-343z"/>
<glyph glyph-name="Ccedilla" horiz-adv-x="723" unicode="Ç" d="M659 117l28 -22q-41 -53 -108 -83t-144 -31l-42 -64q22 7 48 7q35 0 60 -17t25 -52q0 -44 -35 -63t-79 -19q-46 0 -91 20l8 23q35 -17 82 -17q32 0 57 13t25 43q0 47 -66 47q-37 0 -61 -13l-13 11l55 82q-151 8 -246 112t-95 260q0 162 103 267.5t261 105.5 q71 0 135 -25.5t104 -71.5l-27 -25q-35 41 -93 64.5t-119 23.5q-144 0 -234.5 -98t-90.5 -241t90 -241t235 -98q67 0 128.5 26t99.5 76z"/>
<glyph glyph-name="Egrave" horiz-adv-x="591" unicode="È" d="M316 764l-117 144h47l102 -144h-32zM139 351v-317h398v-34h-435v708h421v-34h-384v-290h360v-33h-360z"/>
<glyph glyph-name="Eacute" horiz-adv-x="591" unicode="É" d="M429 908l-117 -144h-32l102 144h47zM139 351v-317h398v-34h-435v708h421v-34h-384v-290h360v-33h-360z"/>
<glyph glyph-name="Ecircumflex" horiz-adv-x="591" unicode="Ê" d="M337 908l105 -144h-36l-91 125l-91 -125h-36l105 144h44zM139 351v-317h398v-34h-435v708h421v-34h-384v-290h360v-33h-360z"/>
<glyph glyph-name="Edieresis" horiz-adv-x="591" unicode="Ë" d="M367 855q0 14 9.5 23.5t22.5 9.5t22.5 -10t9.5 -23q0 -14 -9.5 -23.5t-22.5 -9.5q-14 0 -23 9.5t-9 23.5zM201 855q0 13 9.5 23t22.5 10t22.5 -9.5t9.5 -23.5t-9.5 -23.5t-22.5 -9.5t-22.5 9.5t-9.5 23.5zM139 351v-317h398v-34h-435v708h421v-34h-384v-290h360v-33h-360 z"/>
<glyph glyph-name="Igrave" horiz-adv-x="242" unicode="Ì" d="M108 764l-117 144h47l102 -144h-32zM140 708v-708h-38v708h38z"/>
<glyph glyph-name="Iacute" horiz-adv-x="242" unicode="Í" d="M250 908l-117 -144h-32l102 144h47zM140 708v-708h-38v708h38z"/>
<glyph glyph-name="Icircumflex" horiz-adv-x="242" unicode="Î" d="M142 908l105 -144h-36l-91 125l-91 -125h-36l105 144h44zM140 708v-708h-38v708h38z"/>
<glyph glyph-name="Idieresis" horiz-adv-x="242" unicode="Ï" d="M172 855q0 14 9.5 23.5t22.5 9.5t22.5 -10t9.5 -23q0 -14 -9.5 -23.5t-22.5 -9.5q-14 0 -23 9.5t-9 23.5zM6 855q0 13 9.5 23t22.5 10t22.5 -9.5t9.5 -23.5t-9.5 -23.5t-22.5 -9.5t-22.5 9.5t-9.5 23.5zM140 708v-708h-38v708h38z"/>
<glyph glyph-name="Eth" horiz-adv-x="766" unicode="Ð" d="M138 355v-321h163q162 0 258.5 84t96.5 236t-96.5 236t-258.5 84h-163v-289h265v-30h-265zM100 0v355h-78v30h78v323h211q166 0 275.5 -90.5t109.5 -263.5q0 -88 -31 -157t-84.5 -111.5t-122 -64t-147.5 -21.5h-211z"/>
<glyph glyph-name="Ntilde" horiz-adv-x="773" unicode="Ñ" d="M283 787h-24q5 37 22.5 59t44.5 22q26 0 67 -24q40 -24 61 -24q35 0 43 49h25q-11 -79 -68 -79q-26 0 -66 24q-39 24 -62 24q-33 0 -43 -51zM152 708l479 -656h2v656h38v-708h-50l-479 658h-2v-658h-38v708h50z"/>
<glyph glyph-name="Ograve" horiz-adv-x="865" unicode="Ò" d="M448 764l-117 144h47l102 -144h-32zM759 354q0 143 -91 241.5t-235 98.5t-235.5 -98.5t-91.5 -241.5t91 -241t236 -98t235.5 98t90.5 241zM798 354q0 -162 -104 -267.5t-261 -105.5q-158 0 -262 105.5t-104 267.5t103.5 267.5t262.5 105.5q158 0 261.5 -105.5 t103.5 -267.5z"/>
<glyph glyph-name="Oacute" horiz-adv-x="865" unicode="Ó" d="M546 908l-117 -144h-32l102 144h47zM759 354q0 143 -91 241.5t-235 98.5t-235.5 -98.5t-91.5 -241.5t91 -241t236 -98t235.5 98t90.5 241zM798 354q0 -162 -104 -267.5t-261 -105.5q-158 0 -262 105.5t-104 267.5t103.5 267.5t262.5 105.5q158 0 261.5 -105.5 t103.5 -267.5z"/>
<glyph glyph-name="Ocircumflex" horiz-adv-x="865" unicode="Ô" d="M456 908l105 -144h-36l-91 125l-91 -125h-36l105 144h44zM759 354q0 143 -91 241.5t-235 98.5t-235.5 -98.5t-91.5 -241.5t91 -241t236 -98t235.5 98t90.5 241zM798 354q0 -162 -104 -267.5t-261 -105.5q-158 0 -262 105.5t-104 267.5t103.5 267.5t262.5 105.5 q158 0 261.5 -105.5t103.5 -267.5z"/>
<glyph glyph-name="Otilde" horiz-adv-x="865" unicode="Õ" d="M327 787h-24q5 37 22.5 59t44.5 22q26 0 67 -24q40 -24 61 -24q35 0 43 49h25q-11 -79 -68 -79q-26 0 -66 24q-39 24 -62 24q-33 0 -43 -51zM759 354q0 143 -91 241.5t-235 98.5t-235.5 -98.5t-91.5 -241.5t91 -241t236 -98t235.5 98t90.5 241zM798 354 q0 -162 -104 -267.5t-261 -105.5q-158 0 -262 105.5t-104 267.5t103.5 267.5t262.5 105.5q158 0 261.5 -105.5t103.5 -267.5z"/>
<glyph glyph-name="Odieresis" horiz-adv-x="865" unicode="Ö" d="M485 855q0 14 9.5 23.5t22.5 9.5t22.5 -10t9.5 -23q0 -14 -9.5 -23.5t-22.5 -9.5q-14 0 -23 9.5t-9 23.5zM319 855q0 13 9.5 23t22.5 10t22.5 -9.5t9.5 -23.5t-9.5 -23.5t-22.5 -9.5t-22.5 9.5t-9.5 23.5zM759 354q0 143 -91 241.5t-235 98.5t-235.5 -98.5t-91.5 -241.5 t91 -241t236 -98t235.5 98t90.5 241zM798 354q0 -162 -104 -267.5t-261 -105.5q-158 0 -262 105.5t-104 267.5t103.5 267.5t262.5 105.5q158 0 261.5 -105.5t103.5 -267.5z"/>
<glyph glyph-name="multiply" horiz-adv-x="666" unicode="×" d="M160 502l174 -173l173 173l22 -22l-173 -174l173 -173l-23 -22l-172 172l-173 -172l-23 22l174 173l-174 174z"/>
<glyph glyph-name="Oslash" horiz-adv-x="865" unicode="Ø" d="M187 114l446 507q-88 73 -209 73q-144 0 -235.5 -98.5t-91.5 -241.5q0 -145 90 -240zM654 600l-446 -507q89 -79 216 -79q145 0 235.5 98.5t90.5 241.5q0 150 -96 246zM748 707l-69 -79q110 -105 110 -274q0 -162 -104 -267.5t-261 -105.5q-142 0 -241 85l-70 -79l-21 20 l70 79q-104 104 -104 268q0 162 103.5 267.5t262.5 105.5q133 0 233 -79l70 79z"/>
<glyph glyph-name="Ugrave" horiz-adv-x="725" unicode="Ù" d="M373 764l-117 144h47l102 -144h-32zM363 -19q-74 0 -128 23.5t-83.5 65t-43.5 90.5t-14 107v441h38v-436q0 -37 5.5 -70t20.5 -68.5t40 -61t67 -42t98 -16.5q67 0 115 23.5t72 63.5t34 81.5t10 89.5v436h37v-441q0 -58 -14 -107t-43.5 -90.5t-83.5 -65t-127 -23.5z"/>
<glyph glyph-name="Uacute" horiz-adv-x="725" unicode="Ú" d="M467 908l-117 -144h-32l102 144h47zM363 -19q-74 0 -128 23.5t-83.5 65t-43.5 90.5t-14 107v441h38v-436q0 -37 5.5 -70t20.5 -68.5t40 -61t67 -42t98 -16.5q67 0 115 23.5t72 63.5t34 81.5t10 89.5v436h37v-441q0 -58 -14 -107t-43.5 -90.5t-83.5 -65t-127 -23.5z"/>
<glyph glyph-name="Ucircumflex" horiz-adv-x="725" unicode="Û" d="M385 908l105 -144h-36l-91 125l-91 -125h-36l105 144h44zM363 -19q-74 0 -128 23.5t-83.5 65t-43.5 90.5t-14 107v441h38v-436q0 -37 5.5 -70t20.5 -68.5t40 -61t67 -42t98 -16.5q67 0 115 23.5t72 63.5t34 81.5t10 89.5v436h37v-441q0 -58 -14 -107t-43.5 -90.5 t-83.5 -65t-127 -23.5z"/>
<glyph glyph-name="Udieresis" horiz-adv-x="725" unicode="Ü" d="M414 855q0 14 9.5 23.5t22.5 9.5t22.5 -10t9.5 -23q0 -14 -9.5 -23.5t-22.5 -9.5q-14 0 -23 9.5t-9 23.5zM248 855q0 13 9.5 23t22.5 10t22.5 -9.5t9.5 -23.5t-9.5 -23.5t-22.5 -9.5t-22.5 9.5t-9.5 23.5zM363 -19q-74 0 -128 23.5t-83.5 65t-43.5 90.5t-14 107v441h38 v-436q0 -37 5.5 -70t20.5 -68.5t40 -61t67 -42t98 -16.5q67 0 115 23.5t72 63.5t34 81.5t10 89.5v436h37v-441q0 -58 -14 -107t-43.5 -90.5t-83.5 -65t-127 -23.5z"/>
<glyph glyph-name="Yacute" horiz-adv-x="558" unicode="Ý" d="M409 908l-117 -144h-32l102 144h47zM298 308v-308h-38v308l-250 400h46l224 -366l224 366h43z"/>
<glyph glyph-name="Thorn" horiz-adv-x="574" unicode="Þ" d="M140 518v-300h163q78 0 129 38t51 115q0 76 -52.5 111.5t-131.5 35.5h-159zM102 0v708h38v-157h157q96 0 160.5 -43.5t64.5 -136.5q0 -88 -61 -137t-156 -49h-165v-185h-38z"/>
<glyph glyph-name="germandbls" horiz-adv-x="591" unicode="ß" d="M134 537v-537h-36v540q0 99 50.5 163.5t150.5 64.5q81 0 133.5 -47.5t52.5 -126.5q0 -66 -35 -107.5t-95 -56.5v-2q79 -10 128.5 -64.5t49.5 -150.5q0 -101 -62 -162.5t-166 -61.5q-18 0 -50 4v32q24 -4 47 -4q88 0 140.5 52.5t52.5 140.5q0 97 -56.5 147t-147.5 50h-13 v33h13q70 0 114 39t44 110q0 67 -42 105t-108 38q-46 0 -79.5 -17t-51.5 -47t-26 -63t-8 -72z"/>
<glyph glyph-name="agrave" horiz-adv-x="519" unicode="à" d="M275 564l-117 144h47l102 -144h-32zM225 17q85 0 126.5 58.5t41.5 143.5v27h-56q-238 0 -238 -123q0 -54 38 -80t88 -26zM219 -13q-62 0 -109 34.5t-47 100.5q0 153 264 153h66v30q0 70 -37 105t-104 35q-80 0 -140 -55l-20 26q66 60 162 60q81 0 127.5 -42.5 t46.5 -126.5v-203q0 -64 8 -104h-34q-7 44 -7 99h-3q-22 -56 -68.5 -84t-104.5 -28z"/>
<glyph glyph-name="aacute" horiz-adv-x="519" unicode="á" d="M376 708l-117 -144h-32l102 144h47zM225 17q85 0 126.5 58.5t41.5 143.5v27h-56q-238 0 -238 -123q0 -54 38 -80t88 -26zM219 -13q-62 0 -109 34.5t-47 100.5q0 153 264 153h66v30q0 70 -37 105t-104 35q-80 0 -140 -55l-20 26q66 60 162 60q81 0 127.5 -42.5 t46.5 -126.5v-203q0 -64 8 -104h-34q-7 44 -7 99h-3q-22 -56 -68.5 -84t-104.5 -28z"/>
<glyph glyph-name="acircumflex" horiz-adv-x="519" unicode="â" d="M277 708l105 -144h-36l-91 125l-91 -125h-36l105 144h44zM225 17q85 0 126.5 58.5t41.5 143.5v27h-56q-238 0 -238 -123q0 -54 38 -80t88 -26zM219 -13q-62 0 -109 34.5t-47 100.5q0 153 264 153h66v30q0 70 -37 105t-104 35q-80 0 -140 -55l-20 26q66 60 162 60 q81 0 127.5 -42.5t46.5 -126.5v-203q0 -64 8 -104h-34q-7 44 -7 99h-3q-22 -56 -68.5 -84t-104.5 -28z"/>
<glyph glyph-name="atilde" horiz-adv-x="519" unicode="ã" d="M148 587h-24q5 37 22.5 59t44.5 22t67 -24t61 -24q35 0 43 49h25q-11 -79 -68 -79q-26 0 -66 24q-39 24 -62 24q-33 0 -43 -51zM225 17q85 0 126.5 58.5t41.5 143.5v27h-56q-238 0 -238 -123q0 -54 38 -80t88 -26zM219 -13q-62 0 -109 34.5t-47 100.5q0 153 264 153h66 v30q0 70 -37 105t-104 35q-80 0 -140 -55l-20 26q66 60 162 60q81 0 127.5 -42.5t46.5 -126.5v-203q0 -64 8 -104h-34q-7 44 -7 99h-3q-22 -56 -68.5 -84t-104.5 -28z"/>
<glyph glyph-name="adieresis" horiz-adv-x="519" unicode="ä" d="M307 655q0 14 9.5 23.5t22.5 9.5t22.5 -10t9.5 -23q0 -14 -9.5 -23.5t-22.5 -9.5q-14 0 -23 9.5t-9 23.5zM141 655q0 13 9.5 23t22.5 10t22.5 -9.5t9.5 -23.5t-9.5 -23.5t-22.5 -9.5t-22.5 9.5t-9.5 23.5zM225 17q85 0 126.5 58.5t41.5 143.5v27h-56q-238 0 -238 -123 q0 -54 38 -80t88 -26zM219 -13q-62 0 -109 34.5t-47 100.5q0 153 264 153h66v30q0 70 -37 105t-104 35q-80 0 -140 -55l-20 26q66 60 162 60q81 0 127.5 -42.5t46.5 -126.5v-203q0 -64 8 -104h-34q-7 44 -7 99h-3q-22 -56 -68.5 -84t-104.5 -28z"/>
<glyph glyph-name="aring" horiz-adv-x="519" unicode="å" d="M328 650q0 30 -21 51t-51 21t-51 -21t-21 -51t21 -51t51 -21t51 21t21 51zM352 650q0 -40 -28.5 -67.5t-67.5 -27.5t-67.5 27.5t-28.5 67.5t28.5 67.5t67.5 27.5t67.5 -27.5t28.5 -67.5zM225 17q85 0 126.5 58.5t41.5 143.5v27h-56q-238 0 -238 -123q0 -54 38 -80t88 -26 zM219 -13q-62 0 -109 34.5t-47 100.5q0 153 264 153h66v30q0 70 -37 105t-104 35q-80 0 -140 -55l-20 26q66 60 162 60q81 0 127.5 -42.5t46.5 -126.5v-203q0 -64 8 -104h-34q-7 44 -7 99h-3q-22 -56 -68.5 -84t-104.5 -28z"/>
<glyph glyph-name="ae" horiz-adv-x="876" unicode="æ" d="M434 260h346q-2 83 -48.5 134t-122.5 51q-79 0 -126.5 -61.5t-48.5 -123.5zM228 17q89 0 130 48.5t41 122.5v41h-58q-50 0 -88 -4t-75.5 -15t-57.5 -35t-20 -59q0 -53 38 -76t90 -23zM224 -13q-66 0 -113.5 32t-47.5 97q0 144 265 144h71v37q0 70 -37.5 109t-106.5 39 q-81 0 -144 -55l-20 25q67 61 167 61q73 0 115.5 -34t51.5 -90q26 56 75 90t110 34q97 0 151.5 -65.5t54.5 -158.5v-23h-383q0 -84 49 -147t136 -63q99 0 156 82l25 -21q-69 -93 -181 -93q-70 0 -122.5 38t-75.5 104q-14 -65 -64.5 -103.5t-131.5 -38.5z"/>
<glyph glyph-name="ccedilla" horiz-adv-x="486" unicode="ç" d="M454 410l-25 -23q-50 58 -130 58q-90 0 -145.5 -62t-55.5 -152t55.5 -151t145.5 -61q80 0 137 54l22 -22q-58 -61 -150 -64l-46 -70q22 7 48 7q35 0 60 -17t25 -52q0 -44 -35 -63t-79 -19q-46 0 -91 20l8 23q35 -17 82 -17q32 0 57 13t25 43q0 47 -66 47q-37 0 -61 -13 l-13 11l58 88q-98 6 -159 73.5t-61 169.5q0 106 67 175.5t172 69.5q97 0 155 -66z"/>
<glyph glyph-name="egrave" horiz-adv-x="561" unicode="è" d="M291 564l-117 144h47l102 -144h-32zM293 -13q-102 0 -167.5 70t-65.5 178q0 104 64.5 172.5t159.5 68.5q103 0 160 -66t57 -159q0 -4 -0.5 -11.5t-0.5 -10.5h-403q1 -85 53.5 -148t142.5 -63q98 0 165 82l25 -21q-72 -92 -190 -92zM98 259h367q-2 83 -51.5 134.5 t-129.5 51.5q-58 0 -102 -32.5t-63.5 -73.5t-20.5 -80z"/>
<glyph glyph-name="eacute" horiz-adv-x="561" unicode="é" d="M404 708l-117 -144h-32l102 144h47zM293 -13q-102 0 -167.5 70t-65.5 178q0 104 64.5 172.5t159.5 68.5q103 0 160 -66t57 -159q0 -4 -0.5 -11.5t-0.5 -10.5h-403q1 -85 53.5 -148t142.5 -63q98 0 165 82l25 -21q-72 -92 -190 -92zM98 259h367q-2 83 -51.5 134.5 t-129.5 51.5q-58 0 -102 -32.5t-63.5 -73.5t-20.5 -80z"/>
<glyph glyph-name="ecircumflex" horiz-adv-x="561" unicode="ê" d="M312 708l105 -144h-36l-91 125l-91 -125h-36l105 144h44zM293 -13q-102 0 -167.5 70t-65.5 178q0 104 64.5 172.5t159.5 68.5q103 0 160 -66t57 -159q0 -4 -0.5 -11.5t-0.5 -10.5h-403q1 -85 53.5 -148t142.5 -63q98 0 165 82l25 -21q-72 -92 -190 -92zM98 259h367 q-2 83 -51.5 134.5t-129.5 51.5q-58 0 -102 -32.5t-63.5 -73.5t-20.5 -80z"/>
<glyph glyph-name="edieresis" horiz-adv-x="561" unicode="ë" d="M339 655q0 14 9.5 23.5t22.5 9.5t22.5 -10t9.5 -23q0 -14 -9.5 -23.5t-22.5 -9.5q-14 0 -23 9.5t-9 23.5zM173 655q0 13 9.5 23t22.5 10t22.5 -9.5t9.5 -23.5t-9.5 -23.5t-22.5 -9.5t-22.5 9.5t-9.5 23.5zM293 -13q-102 0 -167.5 70t-65.5 178q0 104 64.5 172.5 t159.5 68.5q103 0 160 -66t57 -159q0 -4 -0.5 -11.5t-0.5 -10.5h-403q1 -85 53.5 -148t142.5 -63q98 0 165 82l25 -21q-72 -92 -190 -92zM98 259h367q-2 83 -51.5 134.5t-129.5 51.5q-58 0 -102 -32.5t-63.5 -73.5t-20.5 -80z"/>
<glyph glyph-name="igrave" horiz-adv-x="233" unicode="ì" d="M103 564l-117 144h47l102 -144h-32zM135 462v-462h-36v462h36z"/>
<glyph glyph-name="iacute" horiz-adv-x="233" unicode="í" d="M247 708l-117 -144h-32l102 144h47zM135 462v-462h-36v462h36z"/>
<glyph glyph-name="icircumflex" horiz-adv-x="233" unicode="î" d="M140 708l105 -144h-36l-91 125l-91 -125h-36l105 144h44zM135 462v-462h-36v462h36z"/>
<glyph glyph-name="idieresis" horiz-adv-x="233" unicode="ï" d="M169 655q0 14 9.5 23.5t22.5 9.5t22.5 -10t9.5 -23q0 -14 -9.5 -23.5t-22.5 -9.5q-14 0 -23 9.5t-9 23.5zM3 655q0 13 9.5 23t22.5 10t22.5 -9.5t9.5 -23.5t-9.5 -23.5t-22.5 -9.5t-22.5 9.5t-9.5 23.5zM135 462v-462h-36v462h36z"/>
<glyph glyph-name="eth" horiz-adv-x="607" unicode="ð" d="M446 723l-104 -57q44 -44 86.5 -103t79 -149t36.5 -173q0 -108 -65.5 -181t-178.5 -73q-106 0 -174 69t-68 176t68 175.5t174 68.5q101 0 171 -71l5 2q-28 66 -75 132.5t-92 108.5l-112 -60l-19 21l110 60q-53 50 -98 79l30 20q41 -28 99 -82l104 57zM95 232 q0 -91 56 -152.5t149 -61.5t149.5 61.5t56.5 152.5t-56.5 151.5t-149.5 60.5t-149 -60.5t-56 -151.5z"/>
<glyph glyph-name="ntilde" horiz-adv-x="575" unicode="ñ" d="M184 587h-24q5 37 22.5 59t44.5 22t67 -24t61 -24q35 0 43 49h25q-11 -79 -68 -79q-26 0 -66 24q-39 24 -62 24q-33 0 -43 -51zM96 462h35q4 -50 4 -108h2q20 56 68 89t105 33q88 0 130 -55.5t42 -139.5v-281h-36v271q0 74 -32 124t-107 50q-72 0 -121 -57t-49 -155v-233 h-37v350q0 76 -4 112z"/>
<glyph glyph-name="ograve" horiz-adv-x="607" unicode="ò" d="M311 564l-117 144h47l102 -144h-32zM509 232q0 91 -56.5 152t-149.5 61t-149 -61t-56 -152t56 -152.5t149 -61.5t149.5 61.5t56.5 152.5zM547 232q0 -107 -68.5 -176t-175.5 -69q-106 0 -174.5 69t-68.5 176t68.5 175.5t174.5 68.5q107 0 175.5 -68.5t68.5 -175.5z"/>
<glyph glyph-name="oacute" horiz-adv-x="607" unicode="ó" d="M415 708l-117 -144h-32l102 144h47zM509 232q0 91 -56.5 152t-149.5 61t-149 -61t-56 -152t56 -152.5t149 -61.5t149.5 61.5t56.5 152.5zM547 232q0 -107 -68.5 -176t-175.5 -69q-106 0 -174.5 69t-68.5 176t68.5 175.5t174.5 68.5q107 0 175.5 -68.5t68.5 -175.5z"/>
<glyph glyph-name="ocircumflex" horiz-adv-x="607" unicode="ô" d="M326 708l105 -144h-36l-91 125l-91 -125h-36l105 144h44zM509 232q0 91 -56.5 152t-149.5 61t-149 -61t-56 -152t56 -152.5t149 -61.5t149.5 61.5t56.5 152.5zM547 232q0 -107 -68.5 -176t-175.5 -69q-106 0 -174.5 69t-68.5 176t68.5 175.5t174.5 68.5 q107 0 175.5 -68.5t68.5 -175.5z"/>
<glyph glyph-name="otilde" horiz-adv-x="607" unicode="õ" d="M197 587h-24q5 37 22.5 59t44.5 22q26 0 67 -24q40 -24 61 -24q35 0 43 49h25q-11 -79 -68 -79q-26 0 -66 24q-39 24 -62 24q-33 0 -43 -51zM509 232q0 91 -56.5 152t-149.5 61t-149 -61t-56 -152t56 -152.5t149 -61.5t149.5 61.5t56.5 152.5zM547 232q0 -107 -68.5 -176 t-175.5 -69q-106 0 -174.5 69t-68.5 176t68.5 175.5t174.5 68.5q107 0 175.5 -68.5t68.5 -175.5z"/>
<glyph glyph-name="odieresis" horiz-adv-x="607" unicode="ö" d="M356 655q0 14 9.5 23.5t22.5 9.5t22.5 -10t9.5 -23q0 -14 -9.5 -23.5t-22.5 -9.5q-14 0 -23 9.5t-9 23.5zM190 655q0 13 9.5 23t22.5 10t22.5 -9.5t9.5 -23.5t-9.5 -23.5t-22.5 -9.5t-22.5 9.5t-9.5 23.5zM509 232q0 91 -56.5 152t-149.5 61t-149 -61t-56 -152t56 -152.5 t149 -61.5t149.5 61.5t56.5 152.5zM547 232q0 -107 -68.5 -176t-175.5 -69q-106 0 -174.5 69t-68.5 176t68.5 175.5t174.5 68.5q107 0 175.5 -68.5t68.5 -175.5z"/>
<glyph glyph-name="divide" horiz-adv-x="666" unicode="÷" d="M375 138q0 -18 -12.5 -30.5t-29.5 -12.5t-29 12.5t-12 30.5t11.5 30t29.5 12q17 0 29.5 -12.5t12.5 -29.5zM375 468q0 -17 -12.5 -29.5t-29.5 -12.5t-29 12.5t-12 29.5q0 18 12 30.5t29 12.5t29.5 -12.5t12.5 -30.5zM578 319v-32h-489v32h489z"/>
<glyph glyph-name="oslash" horiz-adv-x="607" unicode="ø" d="M302 17q94 0 151 61.5t57 153.5q0 88 -50 144l-301 -303q54 -56 143 -56zM141 93l301 303q-55 50 -139 50q-94 0 -150 -61.5t-56 -152.5q0 -83 44 -139zM70 -17l-20 19l67 67q-57 67 -57 163q0 107 68 175.5t175 68.5q93 0 162 -56l61 61l20 -19l-62 -62q63 -66 63 -168 q0 -107 -68.5 -176t-175.5 -69q-102 0 -167 63z"/>
<glyph glyph-name="ugrave" horiz-adv-x="575" unicode="ù" d="M283 564l-117 144h47l102 -144h-32zM478 0h-36q-4 52 -4 108h-2q-20 -56 -68.5 -88.5t-106.5 -32.5q-88 0 -128.5 55t-40.5 140v280h36v-270q0 -74 31.5 -124.5t106.5 -50.5q73 0 122 58t49 161v226h36v-350q0 -65 5 -112z"/>
<glyph glyph-name="uacute" horiz-adv-x="575" unicode="ú" d="M391 708l-117 -144h-32l102 144h47zM478 0h-36q-4 52 -4 108h-2q-20 -56 -68.5 -88.5t-106.5 -32.5q-88 0 -128.5 55t-40.5 140v280h36v-270q0 -74 31.5 -124.5t106.5 -50.5q73 0 122 58t49 161v226h36v-350q0 -65 5 -112z"/>
<glyph glyph-name="ucircumflex" horiz-adv-x="575" unicode="û" d="M304 708l105 -144h-36l-91 125l-91 -125h-36l105 144h44zM478 0h-36q-4 52 -4 108h-2q-20 -56 -68.5 -88.5t-106.5 -32.5q-88 0 -128.5 55t-40.5 140v280h36v-270q0 -74 31.5 -124.5t106.5 -50.5q73 0 122 58t49 161v226h36v-350q0 -65 5 -112z"/>
<glyph glyph-name="udieresis" horiz-adv-x="575" unicode="ü" d="M333 655q0 14 9.5 23.5t22.5 9.5t22.5 -10t9.5 -23q0 -14 -9.5 -23.5t-22.5 -9.5q-14 0 -23 9.5t-9 23.5zM167 655q0 13 9.5 23t22.5 10t22.5 -9.5t9.5 -23.5t-9.5 -23.5t-22.5 -9.5t-22.5 9.5t-9.5 23.5zM478 0h-36q-4 52 -4 108h-2q-20 -56 -68.5 -88.5t-106.5 -32.5 q-88 0 -128.5 55t-40.5 140v280h36v-270q0 -74 31.5 -124.5t106.5 -50.5q73 0 122 58t49 161v226h36v-350q0 -65 5 -112z"/>
<glyph glyph-name="yacute" horiz-adv-x="447" unicode="ý" d="M347 708l-117 -144h-32l102 144h47zM73 -241q-27 0 -47 6l6 33q19 -7 41 -7q36 0 57.5 23.5t36.5 63.5l42 113l-187 471h40l166 -431l158 431h39l-230 -604q-38 -99 -122 -99z"/>
<glyph glyph-name="thorn" horiz-adv-x="628" unicode="þ" d="M531 231q0 90 -55 151.5t-144 61.5q-87 0 -143.5 -61.5t-56.5 -151.5q0 -89 56.5 -151t143.5 -62q89 0 144 61.5t55 151.5zM334 -13q-63 0 -117 32t-80 91h-2v-350h-36v996h36v-405h2q29 60 82 92.5t115 32.5q103 0 168.5 -69.5t65.5 -175.5q0 -105 -66 -174.5 t-168 -69.5z"/>
<glyph glyph-name="OE" horiz-adv-x="982" unicode="Œ" d="M466 674q-161 0 -258 -84t-97 -236t97 -236t258 -84h65v640h-65zM457 708h457v-34h-346v-290h324v-33h-324v-317h361v-34h-472q-166 0 -275.5 90.5t-109.5 263.5q0 88 31 157t84.5 111.5t122 64t147.5 21.5z"/>
<glyph glyph-name="oe" horiz-adv-x="1006" unicode="œ" d="M544 259h366q-2 83 -51 134.5t-130 51.5q-44 0 -80.5 -18.5t-58 -47.5t-33.5 -60.5t-13 -59.5zM509 232q0 91 -56.5 152t-149.5 61t-149.5 -61t-56.5 -152t56.5 -152.5t149.5 -61.5t149.5 61.5t56.5 152.5zM303 -13q-107 0 -175 69t-68 176t68 175.5t175 68.5 q79 0 137.5 -39t84.5 -106q25 67 79.5 106t125.5 39q103 0 159.5 -65.5t56.5 -158.5v-23h-403q0 -85 53 -148t143 -63q102 0 163 83l27 -22q-72 -92 -191 -92q-75 0 -131 39.5t-81 107.5q-26 -68 -85 -107.5t-138 -39.5z"/>
<glyph glyph-name="Scaron" horiz-adv-x="568" unicode="Š" d="M422 908l-105 -144h-44l-105 144h36l91 -125l91 125h36zM486 646l-28 -24q-54 72 -159 72q-73 0 -127.5 -40.5t-54.5 -113.5q0 -44 21 -76t55 -50.5t74.5 -33t81.5 -29.5t75 -35.5t55 -56t21 -84.5q0 -91 -64 -142.5t-156 -51.5q-136 0 -212 91l25 25q79 -82 187 -82 q75 0 128.5 42.5t53.5 115.5q0 51 -28.5 85.5t-70.5 51t-92 35.5t-92 38t-70.5 59t-28.5 97q0 88 64.5 138t155.5 50q59 0 107.5 -21.5t78.5 -59.5z"/>
<glyph glyph-name="scaron" horiz-adv-x="424" unicode="š" d="M346 708l-105 -144h-44l-105 144h36l91 -125l91 125h36zM361 404l-27 -20q-41 61 -120 61q-44 0 -78 -23t-34 -70q0 -40 28 -61t96 -37q71 -17 109 -46t38 -84q0 -64 -46 -100t-112 -36q-112 0 -169 81l29 21q50 -71 140 -71q49 0 85.5 26.5t36.5 75.5q0 21 -9.5 38 t-20 27t-35.5 19.5t-37.5 13t-43.5 11.5q-62 16 -93.5 44.5t-31.5 77.5q0 59 44 91.5t105 32.5q99 0 146 -72z"/>
<glyph glyph-name="Ydieresis" horiz-adv-x="558" unicode="Ÿ" d="M332 855q0 14 9.5 23.5t22.5 9.5t22.5 -10t9.5 -23q0 -14 -9.5 -23.5t-22.5 -9.5q-14 0 -23 9.5t-9 23.5zM166 855q0 13 9.5 23t22.5 10t22.5 -9.5t9.5 -23.5t-9.5 -23.5t-22.5 -9.5t-22.5 9.5t-9.5 23.5zM298 308v-308h-38v308l-250 400h46l224 -366l224 366h43z"/>
<glyph glyph-name="circumflex" horiz-adv-x="240" unicode="ˆ" d="M142 708l105 -144h-36l-91 125l-91 -125h-36l105 144h44z"/>
<glyph glyph-name="tilde" horiz-adv-x="240" unicode="˜" d="M13 587h-24q5 37 22.5 59t44.5 22t67 -24t61 -24q35 0 43 49h25q-11 -79 -68 -79q-26 0 -66 24q-39 24 -62 24q-33 0 -43 -51z"/>
<glyph glyph-name="uni0394" horiz-adv-x="661" unicode="Δ" d="M581 33l-252 645l-250 -645h502zM631 0h-599l275 712h44z"/>
<glyph glyph-name="uni03BC" horiz-adv-x="556" unicode="μ" d="M87 -228v690h36v-270q0 -174 139 -174q73 0 121.5 57t48.5 154v233h35v-350l4 -112h-38v107h-2q-21 -55 -70 -87.5t-105 -32.5q-92 0 -133 68v-283h-36z"/>
<glyph glyph-name="pi" horiz-adv-x="558" unicode="π" d="M513 7q-25 -12 -53 -12q-18 0 -30.5 5.5t-18.5 13t-9.5 23t-4 27.5t-0.5 36v330h-252v-430h-35v430h-70v32h468v-32h-76v-341q0 -34 9 -49.5t37 -15.5q18 0 35 6v-23z"/>
<glyph glyph-name="endash" horiz-adv-x="400" unicode="–" d="M370 266v-31h-340v31h340z"/>
<glyph glyph-name="emdash" horiz-adv-x="600" unicode="—" d="M570 266v-31h-540v31h540z"/>
<glyph glyph-name="quoteleft" horiz-adv-x="221" unicode="‘" d="M61 478l69 230h29l-59 -230h-39z"/>
<glyph glyph-name="quotesinglbase" horiz-adv-x="221" unicode="‚" d="M159 92l-68 -231h-30l60 231h38z"/>
<glyph glyph-name="quotedblleft" horiz-adv-x="361" unicode="“" d="M202 478l69 230h29l-59 -230h-39zM61 478l70 230h30l-61 -230h-39z"/>
<glyph glyph-name="quotedblright" horiz-adv-x="361" unicode="”" d="M61 478l60 230h38l-68 -230h-30zM201 478l61 230h38l-70 -230h-29z"/>
<glyph glyph-name="dagger" horiz-adv-x="531" unicode="†" d="M284 708v-206h197v-32h-197v-596h-36v596h-198v32h198v206h36z"/>
<glyph glyph-name="daggerdbl" horiz-adv-x="531" unicode="‡" d="M284 708v-202h194v-33h-194v-364h194v-33h-194v-202h-36v202h-195v33h195v364h-195v33h195v202h36z"/>
<glyph glyph-name="ellipsis" horiz-adv-x="1000" unicode="…" d="M867 29q0 -15 -9.5 -25t-23.5 -10t-23 10t-9 25q0 14 9.5 24t22.5 10q14 0 23.5 -10t9.5 -24zM533 29q0 -15 -10 -25t-23 -10q-14 0 -23.5 10t-9.5 25q0 14 10 24t23 10t23 -10t10 -24zM198 29q0 -15 -9.5 -25t-22.5 -10q-14 0 -23.5 10t-9.5 25q0 14 9.5 24t23.5 10 q13 0 22.5 -10t9.5 -24z"/>
<glyph glyph-name="perthousand" horiz-adv-x="1000" unicode="‰" d="M185 450q49 0 82.5 34t33.5 84q0 51 -33.5 85.5t-82.5 34.5q-48 0 -81.5 -34.5t-33.5 -85.5q0 -50 33.5 -84t81.5 -34zM185 420q-62 0 -105 43t-43 105q0 63 43 106.5t105 43.5q61 0 104.5 -43.5t43.5 -106.5q0 -62 -43.5 -105t-104.5 -43zM555 721l-443 -749l-27 16 l443 749zM820 23q49 0 82.5 34t33.5 84q0 51 -33.5 85.5t-82.5 34.5q-48 0 -81.5 -34.5t-33.5 -85.5q0 -50 33.5 -84t81.5 -34zM820 -7q-62 0 -105 43t-43 105q0 63 43 106.5t105 43.5q61 0 104.5 -43.5t43.5 -106.5q0 -62 -43.5 -105t-104.5 -43zM475 23q49 0 83 34t34 84 q0 51 -34 85.5t-83 34.5q-48 0 -81 -34.5t-33 -85.5q0 -50 33 -84t81 -34zM475 -7q-61 0 -104 43t-43 105q0 63 43 106.5t104 43.5q62 0 105.5 -43.5t43.5 -106.5q0 -62 -43.5 -105t-105.5 -43z"/>
<glyph glyph-name="guilsinglleft" horiz-adv-x="315" unicode="‹" d="M114 238l115 -182l-26 -19l-128 201l127 200l26 -18z"/>
<glyph glyph-name="guilsinglright" horiz-adv-x="315" unicode="›" d="M201 238l-115 182l26 19l128 -201l-127 -200l-26 18z"/>
<glyph glyph-name="fraction" horiz-adv-x="100" unicode="⁄" d="M273 721l-443 -749l-27 16l443 749z"/>
<glyph glyph-name="Euro" d="M509 662q-56 32 -133 32q-94 0 -159.5 -63.5t-88.5 -178.5h327l-10 -30h-321q-5 -33 -5 -74q0 -36 3 -62h282l-10 -30h-269q17 -110 85.5 -176t162.5 -66q87 0 146 44l16 -30q-64 -47 -169 -47q-112 0 -186.5 78.5t-92.5 196.5h-69l12 30h53q-3 24 -3 62q0 47 4 74h-64 l10 30h59q26 132 103.5 203.5t185.5 71.5q86 0 145 -32z" unicode="€"/>
<glyph glyph-name="trademark" horiz-adv-x="1000" unicode="™" d="M902 708v-412h-33v377h-2l-160 -377h-21l-158 377h-2v-377h-33v412h54l150 -358l151 358h54zM393 708v-30h-134v-382h-34v382h-134v30h302z"/>
<glyph glyph-name="partialdiff" horiz-adv-x="481" unicode="∂" d="M223 16q45 0 79 26t52.5 69t27.5 83.5t12 82.5q-32 49 -76.5 78.5t-94.5 29.5q-71 0 -110.5 -53t-39.5 -126q0 -72 40 -131t110 -59zM222 -15q-81 0 -133 64t-52 157q0 97 51 154t131 57q55 0 102.5 -29t76.5 -77q2 52 2 73q0 137 -51.5 223t-142.5 86q-57 0 -111 -42 l-18 24q58 49 127 49q81 0 134 -51t74 -128.5t21 -179.5q0 -190 -57 -285t-154 -95z"/>
<glyph glyph-name="product" horiz-adv-x="706" unicode="∏" d="M621 -214h-36v967h-464v-967h-35v1000h535v-1000z"/>
<glyph glyph-name="summation" horiz-adv-x="596" unicode="∑" d="M557 -214h-518v32l336 471l-322 464v33h493v-33h-449l324 -464l-338 -470h474v-33z"/>
<glyph glyph-name="minus" horiz-adv-x="666" unicode="−" d="M573 321v-31h-480v31h480z"/>
<glyph glyph-name="radical" horiz-adv-x="481" unicode="√" d="M480 786l-209 -1001h-42l-167 360l-57 -28l-13 29l87 41l166 -361l200 960h35z"/>
<glyph glyph-name="infinity" horiz-adv-x="728" unicode="∞" d="M553 141q43 0 68 31t25 75q0 46 -25 77.5t-69 31.5q-34 0 -71 -26.5t-91 -82.5q56 -56 91.5 -81t71.5 -25zM189 141q34 0 72 26t89 80q-54 56 -91 82.5t-71 26.5q-43 0 -68 -31.5t-25 -77.5q0 -44 25 -75t69 -31zM189 111q-55 0 -90.5 38.5t-35.5 98.5t35 99t90 39 q73 0 182 -118q109 118 181 118q55 0 90.5 -38.5t35.5 -98.5q0 -61 -35 -99.5t-90 -38.5q-75 0 -182 116q-109 -116 -181 -116z"/>
<glyph glyph-name="approxequal" horiz-adv-x="666" unicode="≈" d="M50 96q6 51 34.5 85t84.5 34q46 0 144.5 -35.5t134.5 -35.5q79 0 95 86h26q-6 -51 -35.5 -85t-86.5 -34q-44 0 -141.5 35.5t-131.5 35.5q-84 0 -98 -86h-26zM50 279q6 51 34.5 84.5t84.5 33.5q45 0 144 -35t135 -35q80 0 95 85h26q-5 -50 -35 -84t-87 -34q-43 0 -141 35 t-132 35q-84 0 -98 -85h-26z"/>
<glyph glyph-name="notequal" horiz-adv-x="666" unicode="≠" d="M572 181h-281l-82 -163l-28 15l76 148h-163v32h179l73 145h-252v32h268l74 147l29 -14l-67 -133h174v-32h-191l-73 -145h264v-32z"/>
<glyph glyph-name="lessequal" horiz-adv-x="666" unicode="≤" d="M572 2h-478v32h478v-32zM572 80l-478 213v36l478 213v-34l-444 -197l444 -197v-34z"/>
<glyph glyph-name="greaterequal" horiz-adv-x="666" unicode="≥" d="M572 2h-478v32h478v-32zM572 293l-478 -213v34l444 197l-444 197v34l478 -213v-36z"/>
<glyph glyph-name="lozenge" horiz-adv-x="593" unicode="◊" d="M442 356l-147 361l-146 -361l146 -361zM479 356l-166 -391h-36l-163 391l163 391h36z"/>
</font>
</defs>
</svg>
