<?xml version="1.0" encoding="UTF-8" standalone="no"?>
<!DOCTYPE svg  PUBLIC '-//W3C//DTD SVG 1.1//EN'  'http://www.w3.org/Graphics/SVG/1.1/DTD/svg11.dtd'>
<svg xmlns="http://www.w3.org/2000/svg">
<defs>
<font id="AvenirNextCyr-Regular" horiz-adv-x="580">
<font-face underline-position="125" font-weight="400" descent="-200" panose-1="2 11 5 3 2 2 2 2 2 4" units-per-em="1000" unicode-range="U+0020-25CA" bbox="-205 -250 975 945" x-height="468" underline-thickness="50" font-family="AvenirNextCyr" ascent="800" cap-height="708"/>
<missing-glyph horiz-adv-x="1000"/>
<glyph glyph-name=".notdef" horiz-adv-x="1000"/>
<glyph glyph-name=".null" horiz-adv-x="1000"/>
<glyph glyph-name=".null" horiz-adv-x="1000"/>
<glyph glyph-name="nonmarkingreturn" horiz-adv-x="333"/>
<glyph glyph-name="space" horiz-adv-x="250" unicode=" "/>
<glyph glyph-name="exclam" horiz-adv-x="328" unicode="!" d="M218 48q0 -22 -15.5 -38t-38.5 -16t-38.5 16t-15.5 38t15.5 38t38.5 16t38.5 -16t15.5 -38zM200 708v-516h-72v516h72z"/>
<glyph glyph-name="quotedbl" horiz-adv-x="405" unicode='&quot;' d="M245 473v235h60v-235h-60zM100 473v235h60v-235h-60z"/>
<glyph glyph-name="numbersign" horiz-adv-x="556" unicode="#" d="M228 436l-22 -162h133l22 162h-133zM107 0l30 214h-102v60h110l22 162h-108v60h117l29 212h61l-29 -212h133l29 212h61l-29 -212h90v-60h-99l-22 -162h95v-60h-103l-30 -214h-61l30 214h-133l-30 -214h-61z"/>
<glyph glyph-name="dollar" d="M263 46v287q-40 12 -69.5 26t-60 36.5t-47 56.5t-16.5 78q0 84 55.5 135t137.5 55v72h48v-72q51 -2 102 -22.5t83 -58.5l-55 -42q-46 65 -130 67v-275q45 -16 75.5 -30.5t62.5 -39t48.5 -60t16.5 -82.5q0 -82 -58 -134.5t-145 -54.5v-72h-48v72q-130 3 -211 106l57 40 q25 -41 71 -64t83 -24zM311 321v-275q52 2 91.5 35t39.5 101q0 49 -35.5 84.5t-95.5 54.5zM263 406v258q-53 -2 -88.5 -37.5t-35.5 -90.5q0 -96 124 -130z" unicode="$"/>
<glyph glyph-name="percent" horiz-adv-x="833" unicode="%" d="M667 712l-450 -743l-52 27l451 743zM735 163q0 49 -34 82t-82 33t-82 -33t-34 -82t34 -82t82 -33t82 33t34 82zM795 163q0 -74 -51 -124.5t-125 -50.5t-125 50.5t-51 124.5t51 124.5t125 50.5t125 -50.5t51 -124.5zM330 545q0 49 -34 82t-82 33t-82 -33t-34 -82t34 -82 t82 -33t82 33t34 82zM390 545q0 -74 -51 -124.5t-125 -50.5t-125 50.5t-51 124.5t51 124.5t125 50.5t125 -50.5t51 -124.5z"/>
<glyph glyph-name="ampersand" horiz-adv-x="704" unicode="&amp;" d="M440 152l-187 196q-130 -58 -130 -165q0 -59 43 -97t105 -38q56 0 95 25t74 79zM404 567q0 43 -28.5 71.5t-71.5 28.5q-47 0 -77 -30t-30 -79q0 -34 25.5 -73.5t51.5 -60.5q59 27 94.5 60.5t35.5 82.5zM659 383l-130 -219l159 -164h-100l-100 105q-44 -61 -95.5 -89 t-122.5 -28q-95 0 -158 52t-63 144q0 138 164 210q-86 88 -86 165t50.5 122t125.5 45q73 0 122 -43t49 -116q0 -63 -43.5 -106.5t-115.5 -79.5l165 -170l98 172h81z"/>
<glyph glyph-name="quotesingle" horiz-adv-x="260" unicode="&apos;" d="M100 473v235h60v-235h-60z"/>
<glyph glyph-name="parenleft" horiz-adv-x="300" unicode="(" d="M98 288q0 -112 36 -221t96 -193l-52 -33q-66 87 -106 205t-40 242t40 242t106 205l52 -33q-60 -84 -96 -193t-36 -221z"/>
<glyph glyph-name="parenright" horiz-adv-x="300" unicode=")" d="M202 288q0 112 -36 221t-96 193l52 33q66 -87 106 -205t40 -242t-40 -242t-106 -205l-52 33q60 84 96 193t36 221z"/>
<glyph glyph-name="asterisk" horiz-adv-x="444" unicode="*" d="M252 708v-143l140 45l21 -56l-141 -45l90 -121l-48 -36l-92 124l-92 -124l-48 36l90 121l-141 45l21 56l140 -45v143h60z"/>
<glyph glyph-name="plus" horiz-adv-x="666" unicode="+" d="M363 558v-225h225v-60h-225v-225h-60v225h-225v60h225v225h60z"/>
<glyph glyph-name="comma" horiz-adv-x="260" unicode="," d="M183 95l-81 -235h-57l67 235h71z"/>
<glyph glyph-name="hyphen" horiz-adv-x="320" unicode="-" d="M272 271v-57h-224v57h224z"/>
<glyph glyph-name="period" horiz-adv-x="260" unicode="." d="M184 48q0 -22 -15.5 -38t-38.5 -16t-38.5 16t-15.5 38t15.5 38t38.5 16t38.5 -16t15.5 -38z"/>
<glyph glyph-name="slash" horiz-adv-x="370" unicode="/" d="M365 706l-302 -724l-58 19l303 725z"/>
<glyph glyph-name="zero" d="M290 665q-45 0 -77.5 -28t-49.5 -76t-24.5 -99t-7.5 -109t7.5 -108.5t24.5 -98t49.5 -75t77.5 -27.5q44 0 76.5 27.5t49.5 74.5t25 98.5t8 108.5t-8 109t-25 99.5t-49.5 75.5t-76.5 28zM290 726q63 0 110 -31.5t72.5 -86.5t37.5 -118.5t12 -136.5t-12 -136t-37.5 -117.5 t-72.5 -86t-110 -31.5q-64 0 -111 31.5t-72.5 86t-37 117t-11.5 136.5q0 58 7 109.5t23.5 101t42.5 84.5t66.5 56.5t92.5 21.5z" unicode="0"/>
<glyph glyph-name="one" d="M358 708v-708h-72v619l-128 -109l-44 50l180 148h64z" unicode="1"/>
<glyph glyph-name="two" d="M504 64v-64h-453v75l290 293q85 87 85 162q0 60 -40.5 97.5t-99.5 37.5q-56 0 -95 -35t-51 -91l-71 14q15 76 75 124.5t142 48.5q91 0 152 -51t61 -144q0 -62 -29 -109.5t-86 -104.5l-255 -253h375z" unicode="2"/>
<glyph glyph-name="three" d="M214 340v62h31q74 0 119.5 31.5t45.5 98.5q0 58 -41 95.5t-99 37.5q-92 0 -135 -83l-61 32q65 112 200 112q88 0 147.5 -50.5t59.5 -139.5q0 -61 -34.5 -104t-88.5 -58v-2q63 -13 103 -60t40 -116q0 -98 -66 -156t-162 -58q-77 0 -135.5 37.5t-88.5 107.5l68 25 q18 -50 60 -79t96 -29q64 0 110 41.5t46 110.5q0 75 -53 109.5t-131 34.5h-31z" unicode="3"/>
<glyph glyph-name="four" d="M366 234v393h-2l-247 -393h249zM436 708v-474h104v-63h-104v-171h-70v171h-324v70l300 467h94z" unicode="4"/>
<glyph glyph-name="five" d="M475 708v-64h-295l-5 -219q44 16 98 16q100 0 165 -62t65 -160q0 -103 -65.5 -170t-169.5 -67q-148 0 -212 129l65 29q19 -44 58 -70t85 -26q72 0 119 48t47 120q0 77 -49.5 123.5t-126.5 46.5q-74 0 -147 -39l7 365h361z" unicode="5"/>
<glyph glyph-name="six" d="M132 205q0 -70 44.5 -116t113.5 -46t113.5 46t44.5 116t-43 115t-115 45t-115 -45t-43 -115zM400 708l-199 -309l2 -2q34 26 101 26q93 0 154.5 -61t61.5 -157q0 -98 -65 -160.5t-165 -62.5t-165 62.5t-65 160.5q0 88 64 192l193 311h83z" unicode="6"/>
<glyph glyph-name="seven" d="M498 708v-66l-285 -642h-81l293 644h-347v64h420z" unicode="7"/>
<glyph glyph-name="eight" d="M135 194q0 -65 43 -108t112 -43t112 43t43 108q0 64 -43 106t-112 42t-112 -42t-43 -106zM160 533q0 -55 37.5 -91t92.5 -36t92.5 36t37.5 91q0 57 -37 94.5t-93 37.5t-93 -37.5t-37 -94.5zM383 375q59 -17 96.5 -68t37.5 -121q0 -90 -66.5 -147t-160.5 -57t-160.5 57 t-66.5 147q0 70 37.5 120.5t96.5 68.5v2q-47 16 -77 60.5t-30 99.5q0 84 58.5 136.5t141.5 52.5t141.5 -52.5t58.5 -136.5q0 -55 -30 -99.5t-77 -60.5v-2z" unicode="8"/>
<glyph glyph-name="nine" d="M450 503q0 70 -44.5 116t-113.5 46t-113.5 -46t-44.5 -116t43 -115t115 -45t115 45t43 115zM182 0l199 309l-2 2q-34 -26 -101 -26q-93 0 -154.5 61t-61.5 157q0 98 65 160.5t165 62.5t165 -62.5t65 -160.5q0 -88 -64 -192l-193 -311h-83z" unicode="9"/>
<glyph glyph-name="colon" horiz-adv-x="300" unicode=":" d="M204 48q0 -22 -15.5 -38t-38.5 -16t-38.5 16t-15.5 38t15.5 38t38.5 16t38.5 -16t15.5 -38zM204 420q0 -22 -15.5 -38t-38.5 -16t-38.5 16t-15.5 38t15.5 38t38.5 16t38.5 -16t15.5 -38z"/>
<glyph glyph-name="semicolon" horiz-adv-x="300" unicode=";" d="M199 95l-81 -235h-60l67 235h74zM204 420q0 -22 -15.5 -38t-38.5 -16t-38.5 16t-15.5 38t15.5 38t38.5 16t38.5 -16t15.5 -38z"/>
<glyph glyph-name="less" horiz-adv-x="666" unicode="&lt;" d="M588 564v-60l-429 -201l429 -201v-60l-510 238v46z"/>
<glyph glyph-name="equal" horiz-adv-x="666" unicode="=" d="M78 258h510v-60h-510v60zM78 408h510v-60h-510v60z"/>
<glyph glyph-name="greater" horiz-adv-x="666" unicode="&gt;" d="M78 504v60l510 -238v-46l-510 -238v60l429 201z"/>
<glyph glyph-name="question" horiz-adv-x="482" unicode="?" d="M300 48q0 -22 -15.5 -38t-38.5 -16t-38.5 16t-15.5 38t15.5 38t38.5 16t38.5 -16t15.5 -38zM274 238v-46h-70v60q0 51 20.5 84.5t59.5 67.5l28 25q58 47 58 111q0 55 -35.5 86.5t-89.5 31.5q-52 0 -86.5 -32.5t-42.5 -84.5l-68 12q15 77 69 122t131 45q83 0 138.5 -47 t55.5 -129q0 -58 -22.5 -92t-69.5 -73q-45 -37 -60.5 -63t-15.5 -78z"/>
<glyph glyph-name="at" horiz-adv-x="800" unicode="@" d="M694 147l37 -46q-116 -119 -314 -119q-171 0 -276.5 103.5t-105.5 267.5q0 159 111.5 266t270.5 107q70 0 132.5 -20.5t112.5 -59t79.5 -101t29.5 -140.5q0 -115 -56 -180t-138 -65q-42 0 -64.5 21t-22.5 52h-4q-12 -26 -46 -49.5t-79 -23.5q-67 0 -106 46t-39 119 q0 89 55.5 156.5t143.5 67.5q37 0 65 -17t39 -43h4l10 45h62l-40 -186q-11 -49 -11 -80q0 -50 49 -50t80 51.5t31 128.5q0 126 -79.5 196t-208.5 70q-136 0 -221 -89.5t-85 -224.5q0 -141 86.5 -224.5t227.5 -83.5q162 0 270 105zM412 489q-56 0 -89.5 -52t-33.5 -116 q0 -38 18.5 -70.5t61.5 -32.5q62 0 94 53.5t32 114.5q0 103 -83 103z"/>
<glyph glyph-name="A" horiz-adv-x="700" unicode="A" d="M349 628l-156 -376h312zM166 186l-77 -186h-79l306 708h70l304 -708h-80l-78 186h-366z"/>
<glyph glyph-name="B" horiz-adv-x="636" unicode="B" d="M166 339v-277h134q85 0 140 34t55 104q0 69 -47 104t-135 35h-147zM166 646v-248h145q61 0 105.5 30t44.5 94t-47 94t-123 30h-125zM94 0v708h211q44 0 82 -8.5t72 -28t54 -56.5t20 -88q0 -56 -34.5 -97.5t-90.5 -54.5v-2q71 -8 115.5 -55t44.5 -122q0 -89 -71 -142.5 t-193 -53.5h-210z"/>
<glyph glyph-name="C" horiz-adv-x="720" unicode="C" d="M634 150l56 -36q-38 -58 -106.5 -95t-158.5 -37q-160 0 -264.5 105.5t-104.5 266.5t105 266.5t264 105.5q78 0 146.5 -30.5t105.5 -81.5l-60 -44q-25 38 -76.5 65.5t-114.5 27.5q-133 0 -213.5 -90t-80.5 -219t81 -219t213 -90q138 0 208 105z"/>
<glyph glyph-name="D" horiz-adv-x="757" unicode="D" d="M166 644v-580h143q77 0 138.5 24.5t99.5 66t58 92.5t20 107t-20 107t-58 92.5t-99.5 66t-138.5 24.5h-143zM94 0v708h235q68 0 133 -22.5t119 -65t87 -112t33 -154.5t-33 -154.5t-87 -112t-119 -65t-133 -22.5h-235z"/>
<glyph glyph-name="E" horiz-adv-x="592" unicode="E" d="M166 337v-273h379v-64h-451v708h439v-64h-367v-244h343v-63h-343z"/>
<glyph glyph-name="F" horiz-adv-x="562" unicode="F" d="M166 335v-335h-72v708h427v-64h-355v-246h330v-63h-330z"/>
<glyph glyph-name="G" horiz-adv-x="779" unicode="G" d="M681 631l-50 -50q-77 82 -205 82q-132 0 -213 -90t-81 -219q0 -128 81 -218t213 -90q121 0 191 46v215h-165v63h237v-319q-115 -69 -264 -69q-160 0 -264.5 105.5t-104.5 266.5t105 266.5t264 105.5t256 -95z"/>
<glyph glyph-name="H" horiz-adv-x="718" unicode="H" d="M94 0v708h72v-307h386v307h72v-708h-72v335h-386v-335h-72z"/>
<glyph glyph-name="I" horiz-adv-x="260" unicode="I" d="M166 708v-708h-72v708h72z"/>
<glyph glyph-name="J" horiz-adv-x="492" unicode="J" d="M25 126l67 18q9 -43 39.5 -71t75.5 -28q125 0 125 164v499h72v-504q0 -30 -4.5 -58.5t-17.5 -59t-33.5 -53t-54.5 -37t-79 -14.5q-75 0 -126 40t-64 104z"/>
<glyph glyph-name="K" horiz-adv-x="628" unicode="K" d="M166 708v-318h1l337 318h103l-357 -321l377 -387h-106l-354 377h-1v-377h-72v708h72z"/>
<glyph glyph-name="L" horiz-adv-x="510" unicode="L" d="M166 708v-644h330v-64h-402v708h72z"/>
<glyph glyph-name="M" horiz-adv-x="886" unicode="M" d="M204 708l240 -586h1l237 586h110v-708h-72v615h-2l-256 -615h-38l-256 615h-2v-615h-72v708h110z"/>
<glyph glyph-name="N" horiz-adv-x="764" unicode="N" d="M184 708l412 -603h2v603h72v-708h-90l-412 609h-2v-609h-72v708h90z"/>
<glyph glyph-name="O" horiz-adv-x="850" unicode="O" d="M718 354q0 129 -80.5 219t-212.5 90t-212.5 -90t-80.5 -219t80.5 -218.5t212.5 -89.5t212.5 89.5t80.5 218.5zM794 354q0 -161 -105 -266.5t-264 -105.5t-264 105.5t-105 266.5t105 266.5t264 105.5t264 -105.5t105 -266.5z"/>
<glyph glyph-name="P" d="M166 646v-256h122q84 0 128.5 33t44.5 96q0 127 -173 127h-122zM94 0v708h200q111 0 175 -48t64 -141t-65 -141.5t-176 -48.5h-126v-329h-72z" unicode="P"/>
<glyph glyph-name="Q" horiz-adv-x="843" unicode="Q" d="M819 64v-64h-405q-154 0 -256 103t-102 260t102 260t256 103q153 0 255 -103t102 -260q0 -95 -42.5 -173t-123.5 -124v-2h214zM132 363q0 -124 77.5 -212t204.5 -88q126 0 204.5 88t78.5 212t-78.5 212t-204.5 88q-127 0 -204.5 -88t-77.5 -212z"/>
<glyph glyph-name="R" horiz-adv-x="599" unicode="R" d="M166 646v-253h125q87 0 134 32t47 94q0 127 -178 127h-128zM166 331v-331h-72v708h208q112 0 177 -45.5t65 -143.5q0 -77 -50.5 -125t-130.5 -57l207 -337h-88l-196 331h-120z"/>
<glyph glyph-name="S" horiz-adv-x="564" unicode="S" d="M494 640l-57 -46q-50 71 -146 71q-59 0 -105 -35t-46 -98q0 -26 9.5 -47t20.5 -33t36.5 -25t40 -18t47.5 -16q34 -11 44.5 -14.5t40 -15.5t41 -20.5t32 -25.5t29 -34t16 -42t7.5 -55q0 -99 -69 -151.5t-162 -52.5q-67 0 -126.5 27t-96.5 78l62 46q25 -40 67 -64.5 t95 -24.5q61 0 109 36.5t48 100.5q0 29 -10.5 51.5t-23.5 36.5t-40.5 27.5t-45 19.5t-53.5 17q-42 13 -70.5 26t-58.5 35t-45.5 56.5t-15.5 80.5q0 65 35.5 110.5t85 65t105.5 19.5q67 0 120 -24.5t80 -61.5z"/>
<glyph glyph-name="T" horiz-adv-x="570" unicode="T" d="M321 644v-644h-72v644h-237v64h546v-64h-237z"/>
<glyph glyph-name="U" horiz-adv-x="710" unicode="U" d="M355 -18q-61 0 -108.5 18.5t-76.5 46.5t-47.5 67t-25.5 75.5t-7 74.5v444h72v-436q0 -96 46.5 -161t146.5 -65t146.5 65t46.5 161v436h72v-444q0 -38 -7 -74.5t-25.5 -75.5t-47.5 -67t-76.5 -46.5t-108.5 -18.5z"/>
<glyph glyph-name="V" horiz-adv-x="623" unicode="V" d="M81 708l230 -615h2l230 615h77l-271 -708h-76l-270 708h78z"/>
<glyph glyph-name="W" horiz-adv-x="972" unicode="W" d="M90 708l175 -609h2l177 609h86l177 -609h2l173 609h76l-209 -708h-84l-178 608h-2l-178 -608h-84l-209 708h76z"/>
<glyph glyph-name="X" horiz-adv-x="649" unicode="X" d="M132 708l194 -286l193 286h86l-235 -337l260 -371h-90l-216 319l-215 -319h-90l260 372l-237 336h90z"/>
<glyph glyph-name="Y" horiz-adv-x="602" unicode="Y" d="M337 305v-305h-72v305l-265 403h90l213 -343l215 343h84z"/>
<glyph glyph-name="Z" horiz-adv-x="572" unicode="Z" d="M535 708v-60l-413 -584h419v-64h-510v60l414 584h-403v64h493z"/>
<glyph glyph-name="bracketleft" horiz-adv-x="300" unicode="[" d="M220 732v-54h-96v-780h96v-54h-162v888h162z"/>
<glyph glyph-name="backslash" horiz-adv-x="370" unicode="\" d="M307 -18l-302 724l57 20l303 -725z"/>
<glyph glyph-name="bracketright" horiz-adv-x="300" unicode="]" d="M80 -156v54h96v780h-96v54h162v-888h-162z"/>
<glyph glyph-name="asciicircum" horiz-adv-x="666" unicode="^" d="M80 275l229 433h48l229 -433h-62l-191 361l-191 -361h-62z"/>
<glyph glyph-name="underscore" horiz-adv-x="500" unicode="_" d="M0 -125v50h500v-50h-500z"/>
<glyph glyph-name="grave" horiz-adv-x="240" unicode="`" d="M122 564l-132 144h91l100 -144h-59z"/>
<glyph glyph-name="a" horiz-adv-x="534" unicode="a" d="M385 234h-20q-48 0 -85.5 -3.5t-75 -13.5t-58.5 -31t-21 -53q0 -46 32 -67.5t78 -21.5q69 0 109.5 45t40.5 110v35zM385 287v15q0 121 -125 121q-84 0 -139 -55l-38 45q67 67 184 67q80 0 131 -44t51 -126v-205q0 -63 8 -105h-61q-7 40 -7 76h-2q-61 -88 -170 -88 q-63 0 -112.5 35.5t-49.5 106.5q0 35 12 61.5t36 43.5t52 27.5t69 16t76.5 7t84.5 1.5z"/>
<glyph glyph-name="b" horiz-adv-x="637" unicode="b" d="M509 234q0 81 -47.5 135t-129.5 54q-78 0 -129 -54t-51 -135t51 -134.5t129 -53.5q82 0 129.5 53.5t47.5 134.5zM162 79h-2v-79h-68v756h68v-369h2q29 44 77 68.5t100 24.5q108 0 175 -70.5t67 -175.5t-67 -175.5t-175 -70.5q-52 0 -100 24t-77 67z"/>
<glyph glyph-name="c" horiz-adv-x="500" unicode="c" d="M480 399l-53 -38q-17 27 -49.5 44.5t-70.5 17.5q-80 0 -129.5 -53.5t-49.5 -135.5q0 -81 49 -134.5t129 -53.5q81 0 127 61l51 -38q-66 -81 -178 -81t-181 69.5t-69 176.5t69 176.5t181 69.5q50 0 97.5 -21t76.5 -60z"/>
<glyph glyph-name="d" horiz-adv-x="637" unicode="d" d="M128 234q0 -81 47.5 -134.5t129.5 -53.5q78 0 129 53.5t51 134.5t-51 135t-129 54q-82 0 -129.5 -54t-47.5 -135zM475 79q-29 -43 -77 -67t-100 -24q-108 0 -175 70.5t-67 175.5t67 175.5t175 70.5q52 0 100 -24.5t77 -68.5h2v369h68v-756h-68v79h-2z"/>
<glyph glyph-name="e" horiz-adv-x="572" unicode="e" d="M516 248q0 -20 -1 -32h-388q2 -71 51 -120.5t120 -49.5q49 0 89 23.5t61 57.5l51 -40q-78 -99 -201 -99q-104 0 -173 70t-69 176q0 105 68 175.5t168 70.5q106 0 165 -65.5t59 -166.5zM128 270h319q-3 68 -43.5 110.5t-111.5 42.5q-66 0 -112.5 -45.5t-51.5 -107.5z"/>
<glyph glyph-name="f" horiz-adv-x="295" unicode="f" d="M288 468v-57h-110v-411h-68v411h-98v57h98v128q0 81 40 126.5t119 45.5q32 0 56 -7l-12 -60q-24 7 -47 7q-51 0 -69.5 -31t-18.5 -89v-120h110z"/>
<glyph glyph-name="g" horiz-adv-x="632" unicode="g" d="M128 240q0 -77 47.5 -129.5t129.5 -52.5q79 0 129.5 50.5t50.5 131.5q0 75 -51.5 129t-128.5 54q-82 0 -129.5 -53t-47.5 -130zM66 -146l49 52q29 -37 78 -61.5t101 -24.5q95 0 139 51t44 133v88h-2q-26 -42 -75.5 -67t-101.5 -25q-108 0 -175 67t-67 171q0 102 67.5 172 t174.5 70q53 0 101.5 -24.5t75.5 -68.5h2v81h68v-464q0 -43 -11.5 -82t-37.5 -77.5t-78.5 -61.5t-126.5 -23q-64 0 -123.5 25t-101.5 69z"/>
<glyph glyph-name="h" horiz-adv-x="583" unicode="h" d="M160 391h2q18 40 62.5 64.5t94.5 24.5q87 0 132.5 -52t45.5 -141v-287h-68v259q0 79 -28.5 121.5t-98.5 42.5q-59 0 -100.5 -47.5t-41.5 -135.5v-240h-68v756h68v-365z"/>
<glyph glyph-name="i" horiz-adv-x="250" unicode="i" d="M173 648q0 -20 -14.5 -34t-33.5 -14t-33.5 14t-14.5 34t14.5 34t33.5 14t33.5 -14t14.5 -34zM159 468v-468h-68v468h68z"/>
<glyph glyph-name="j" horiz-adv-x="251" unicode="j" d="M174 648q0 -20 -14.5 -34t-33.5 -14t-33.5 14t-14.5 34t14.5 34t33.5 14t33.5 -14t14.5 -34zM-27 -233l10 57q19 -6 43 -6q40 0 53 25t13 75v550h68v-561q0 -147 -133 -147q-30 0 -54 7z"/>
<glyph glyph-name="k" horiz-adv-x="510" unicode="k" d="M160 756v-499h3l216 211h98l-236 -214l260 -254h-100l-238 246h-3v-246h-68v756h68z"/>
<glyph glyph-name="l" horiz-adv-x="252" unicode="l" d="M160 756v-756h-68v756h68z"/>
<glyph glyph-name="m" horiz-adv-x="883" unicode="m" d="M157 388q21 41 62.5 66.5t91.5 25.5q106 0 144 -99q49 99 164 99q87 0 132.5 -52t45.5 -141v-287h-68v259q0 164 -121 164q-68 0 -100.5 -50.5t-32.5 -123.5v-249h-68v273q0 74 -24.5 112t-88.5 38q-54 0 -95 -47.5t-41 -135.5v-240h-68v365q0 60 -4 103h65q4 -50 4 -80 h2z"/>
<glyph glyph-name="n" horiz-adv-x="581" unicode="n" d="M86 468h65q4 -50 4 -80h2q19 40 64.5 66t95.5 26q87 0 132.5 -52t45.5 -141v-287h-68v259q0 79 -28.5 121.5t-98.5 42.5q-59 0 -100.5 -47.5t-41.5 -135.5v-240h-68v365q0 60 -4 103z"/>
<glyph glyph-name="o" horiz-adv-x="611" unicode="o" d="M483 234q0 81 -49 135t-129 54q-79 0 -128 -54t-49 -135q0 -80 49 -134t128 -54q80 0 129 53.5t49 134.5zM555 234q0 -106 -70.5 -176t-179.5 -70q-108 0 -178.5 70t-70.5 176t70.5 176t178.5 70q109 0 179.5 -70t70.5 -176z"/>
<glyph glyph-name="p" horiz-adv-x="635" unicode="p" d="M507 234q0 81 -47.5 135t-129.5 54q-78 0 -129 -54t-51 -135t51 -134.5t129 -53.5q82 0 129.5 53.5t47.5 134.5zM158 79v-319h-68v708h68v-81h3q28 44 76 68.5t100 24.5q108 0 175 -70.5t67 -175.5t-67 -175.5t-175 -70.5q-51 0 -99 24t-77 67h-3z"/>
<glyph glyph-name="q" horiz-adv-x="635" unicode="q" d="M128 234q0 -81 47.5 -134.5t129.5 -53.5q78 0 129 53.5t51 134.5t-51 135t-129 54q-82 0 -129.5 -54t-47.5 -135zM477 79h-3q-29 -43 -77 -67t-99 -24q-108 0 -175 70.5t-67 175.5t67 175.5t175 70.5q52 0 100 -24.5t76 -68.5h3v81h68v-708h-68v319z"/>
<glyph glyph-name="r" horiz-adv-x="360" unicode="r" d="M90 365q0 60 -4 103h65q4 -50 4 -80h2q20 41 60.5 66.5t89.5 25.5q27 0 45 -5l-9 -64q-16 6 -48 6q-59 0 -98 -44.5t-39 -132.5v-240h-68v365z"/>
<glyph glyph-name="s" horiz-adv-x="444" unicode="s" d="M391 396l-52 -39q-15 30 -46 48t-69 18q-41 0 -70 -18.5t-29 -54.5q0 -32 26 -50t86 -30q83 -17 122.5 -50t39.5 -87q0 -74 -51.5 -109.5t-124.5 -35.5q-123 0 -185 91l54 40q19 -32 54.5 -52.5t75.5 -20.5q48 0 79 19.5t31 62.5q0 35 -32.5 54t-105.5 36q-26 6 -45 13 t-41.5 21t-35 37.5t-12.5 54.5q0 67 48.5 101.5t118.5 34.5q50 0 96 -22.5t68 -61.5z"/>
<glyph glyph-name="t" horiz-adv-x="317" unicode="t" d="M301 468v-57h-132v-273q0 -49 18 -67.5t52 -18.5q29 0 59 15l3 -59q-37 -14 -80 -14q-48 0 -84 28t-36 97v292h-97v57h97v132h68v-132h132z"/>
<glyph glyph-name="u" horiz-adv-x="581" unicode="u" d="M495 0h-65q-4 50 -4 80h-2q-19 -40 -64.5 -66t-95.5 -26q-87 0 -132.5 52t-45.5 141v287h68v-259q0 -79 28.5 -121.5t98.5 -42.5q59 0 100.5 47.5t41.5 135.5v240h68v-365q0 -60 4 -103z"/>
<glyph glyph-name="v" horiz-adv-x="488" unicode="v" d="M472 468l-190 -468h-75l-191 468h76l152 -396h2l153 396h73z"/>
<glyph glyph-name="w" horiz-adv-x="746" unicode="w" d="M26 468h73l113 -380h2l126 380h66l128 -380h2l112 380h72l-148 -468h-74l-125 379h-2l-123 -379h-74z"/>
<glyph glyph-name="x" horiz-adv-x="484" unicode="x" d="M16 0l184 242l-173 226h87l128 -178l128 178h82l-170 -223l186 -245h-88l-139 195l-143 -195h-82z"/>
<glyph glyph-name="y" horiz-adv-x="488" unicode="y" d="M92 468l159 -395h2l145 395h74l-233 -589q-23 -59 -56.5 -89t-90.5 -30q-31 0 -61 6l7 62q24 -8 50 -8q33 0 53.5 20.5t36.5 62.5l38 98l-200 467h76z"/>
<glyph glyph-name="z" horiz-adv-x="442" unicode="z" d="M401 468v-48l-280 -361h290v-59h-380v48l279 363h-265v57h356z"/>
<glyph glyph-name="braceleft" horiz-adv-x="300" unicode="{" d="M0 258v60q39 0 59 29t20 82v178q0 66 30 95.5t78 29.5h63v-54h-48q-57 0 -57 -83v-178q0 -63 -30.5 -93.5t-58.5 -34.5v-2q28 -4 58.5 -34.5t30.5 -93.5v-178q0 -83 57 -83h48v-54h-63q-48 0 -78 29.5t-30 95.5v178q0 53 -20 82t-59 29z"/>
<glyph glyph-name="bar" horiz-adv-x="222" unicode="|" d="M81 750h60v-1000h-60v1000z"/>
<glyph glyph-name="braceright" horiz-adv-x="300" unicode="}" d="M300 318v-60q-39 0 -59 -29t-20 -82v-178q0 -66 -30 -95.5t-78 -29.5h-63v54h48q57 0 57 83v178q0 63 30.5 93.5t58.5 34.5v2q-28 4 -58.5 34.5t-30.5 93.5v178q0 83 -57 83h-48v54h63q48 0 78 -29.5t30 -95.5v-178q0 -53 20 -82t59 -29z"/>
<glyph glyph-name="asciitilde" horiz-adv-x="666" unicode="~" d="M535 368l42 -40q-60 -93 -136 -93q-55 0 -111 36q-63 40 -103 40q-56 0 -96 -73l-42 40q19 27 34.5 44t43.5 33t58 16q57 0 110 -35q64 -41 103 -41q53 0 97 73z"/>
<glyph glyph-name="uni00A0" horiz-adv-x="250" unicode=" "/>
<glyph glyph-name="exclamdown" horiz-adv-x="328" unicode="¡" d="M218 431q0 -22 -15.5 -38t-38.5 -16t-38.5 16t-15.5 38t15.5 38t38.5 16t38.5 -16t15.5 -38zM200 287v-516h-72v516h72z"/>
<glyph glyph-name="cent" d="M346 419v-370q35 2 63 19t44 42l54 -41q-63 -75 -161 -80v-61h-48v63q-97 10 -153.5 77.5t-56.5 165.5t56.5 165.5t153.5 77.5v63h48v-61q98 -5 161 -80l-54 -41q-16 25 -44 42t-63 19zM298 51v366q-64 -11 -101 -61.5t-37 -121.5t37 -121.5t101 -61.5z" unicode="¢"/>
<glyph glyph-name="sterling" d="M417 395v-60h-168v-275h262v-60h-436v60h102v275h-96v60h96v93q0 46 11 86t34.5 75.5t66 56t100.5 20.5q98 0 155 -60l-47 -51q-43 50 -111 50q-42 0 -71 -18t-42.5 -48.5t-18.5 -58.5t-5 -58v-87h168z" unicode="£"/>
<glyph glyph-name="currency" horiz-adv-x="860" unicode="¤" d="M431 496q-81 0 -131.5 -54t-50.5 -133q0 -80 50.5 -134.5t131.5 -54.5t131.5 54.5t50.5 134.5q0 79 -50.5 133t-131.5 54zM636 468q51 -67 51 -159q0 -96 -55 -164l94 -93l-43 -44q-11 11 -30 30.5t-35 35t-30 29.5q-67 -51 -157 -51t-158 53l-97 -97q-28 30 -43 44 l96 96q-53 64 -53 161q0 91 50 157l-93 92l44 43l92 -92q70 55 162 55q93 0 160 -54q14 13 29 28.5t33.5 34l28.5 28.5l44 -43z"/>
<glyph glyph-name="yen" d="M91 223h165v105h-165v54h145l-226 326h89l193 -300l192 300h86l-224 -326h143v-54h-165v-105h165v-54h-165v-169h-68v169h-165v54z" unicode="¥"/>
<glyph glyph-name="brokenbar" horiz-adv-x="222" unicode="¦" d="M81 175h60v-350h-60v350zM81 675h60v-350h-60v350z"/>
<glyph glyph-name="section" d="M320 384l-61 26q-34 -4 -61.5 -26.5t-27.5 -63.5q0 -37 24.5 -57.5t83.5 -45.5l66 -30q29 7 51 30t22 59q0 41 -25 64.5t-72 43.5zM474 632l-59 -30q-10 26 -37.5 45t-70.5 19q-49 0 -78.5 -24t-29.5 -65q0 -42 25.5 -65t72.5 -43l87 -41q103 -50 103 -142q0 -47 -25 -82 t-64 -49q71 -43 71 -125q0 -79 -54.5 -121t-133.5 -42q-69 0 -122 29t-76 86l66 32q16 -44 51.5 -65.5t80.5 -21.5t80.5 23t35.5 75q0 60 -75 96l-127 61q-45 22 -70 52.5t-25 81.5q0 48 28.5 82.5t75.5 49.5q-77 46 -77 120q0 76 52.5 117t128.5 41q64 0 107 -26.5 t59 -67.5z" unicode="§"/>
<glyph glyph-name="dieresis" horiz-adv-x="240" unicode="¨" d="M165 647q0 20 14.5 35.5t36.5 15.5t36.5 -15.5t14.5 -35.5t-14.5 -35.5t-36.5 -15.5t-36.5 15.5t-14.5 35.5zM-27 647q0 20 14.5 35.5t36.5 15.5t36.5 -15.5t14.5 -35.5t-14.5 -35.5t-36.5 -15.5t-36.5 15.5t-14.5 35.5z"/>
<glyph glyph-name="copyright" horiz-adv-x="800" unicode="©" d="M80 353q0 -132 94 -225.5t227 -93.5q132 0 225.5 93.5t93.5 225.5q0 133 -93.5 227t-225.5 94q-133 0 -227 -94t-94 -227zM20 353q0 157 111.5 267t269.5 110q157 0 268 -110t111 -267q0 -156 -111 -265.5t-268 -109.5q-158 0 -269.5 109.5t-111.5 265.5zM528 258l52 -34 q-26 -40 -70 -65.5t-100 -25.5q-98 0 -162 64t-64 162q0 97 64 161t162 64q49 0 93.5 -21.5t68.5 -57.5l-52 -40q-15 24 -45 41.5t-63 17.5q-71 0 -115 -48.5t-44 -116.5q0 -69 43 -117.5t114 -48.5q73 0 118 65z"/>
<glyph glyph-name="ordfeminine" horiz-adv-x="360" unicode="ª" d="M244 566h-15q-130 0 -130 -54q0 -44 59 -44q40 0 63 23t23 60v15zM244 606v8q0 30 -20 45.5t-53 15.5q-51 0 -83 -32l-32 35q47 42 120 42q60 0 91.5 -30.5t31.5 -79.5v-123q0 -37 4 -56h-52q-5 22 -5 41h-2q-33 -48 -98 -48q-42 0 -74 21t-32 66q0 30 17 50.5t49 29.5 t63.5 12t74.5 3z"/>
<glyph glyph-name="guillemotleft" horiz-adv-x="482" unicode="«" d="M421 416l-115 -176l115 -176l-47 -33l-140 209l140 209zM239 416l-115 -176l115 -176l-47 -33l-140 209l140 209z"/>
<glyph glyph-name="logicalnot" horiz-adv-x="666" unicode="¬" d="M588 408v-278h-60v218h-450v60h510z"/>
<glyph glyph-name="uni00AD" horiz-adv-x="320" unicode="­" d="M272 271v-57h-224v57h224z"/>
<glyph glyph-name="registered" horiz-adv-x="600" unicode="®" d="M257 510h37q56 0 56 38q0 35 -51 35h-42v-73zM211 366v256h90q40 0 67.5 -18.5t27.5 -56.5q0 -56 -59 -69l69 -112h-56l-60 107h-33v-107h-46zM108 493q0 -79 56.5 -135.5t135.5 -56.5t135.5 56.5t56.5 135.5t-56 135.5t-136 56.5t-136 -56.5t-56 -135.5zM72 493 q0 94 66.5 160.5t161.5 66.5t161.5 -66.5t66.5 -160.5t-66.5 -159.5t-161.5 -65.5t-161.5 65.5t-66.5 159.5z"/>
<glyph glyph-name="macron" horiz-adv-x="240" unicode="¯" d="M255 654v-54h-270v54h270z"/>
<glyph glyph-name="degree" horiz-adv-x="400" unicode="°" d="M301 571q0 42 -29.5 71.5t-71.5 29.5t-71.5 -29.5t-29.5 -71.5t29.5 -71.5t71.5 -29.5t71.5 29.5t29.5 71.5zM349 571q0 -65 -42.5 -107t-106.5 -42t-106.5 42t-42.5 107t42.5 107t106.5 42t106.5 -42t42.5 -107z"/>
<glyph glyph-name="plusminus" horiz-adv-x="666" unicode="±" d="M78 48v60h510v-60h-510zM78 347v60h225v156h60v-156h225v-60h-225v-151h-60v151h-225z"/>
<glyph glyph-name="twosuperior" horiz-adv-x="370" unicode="²" d="M319 452h-276v57l167 169q43 45 43 86q0 28 -19 45t-48 17q-28 0 -48 -19t-27 -51l-60 9q10 51 47.5 83.5t87.5 32.5q56 0 93.5 -30.5t37.5 -86.5q0 -27 -12 -53t-24 -40t-35 -37l-128 -128h201v-54z"/>
<glyph glyph-name="threesuperior" horiz-adv-x="370" unicode="³" d="M320 572q0 -60 -40.5 -93.5t-99.5 -33.5q-102 0 -141 96l57 19q10 -29 32 -45t52 -16q33 0 56.5 19t23.5 54q0 38 -27.5 55.5t-68.5 17.5h-27v51h27q84 0 84 70q0 27 -20 44.5t-49 17.5q-48 0 -75 -50l-50 26q44 77 127 77q55 0 91 -29.5t36 -84.5q0 -63 -57 -93 q69 -26 69 -102z"/>
<glyph glyph-name="acute" horiz-adv-x="240" unicode="´" d="M250 708l-132 -144h-59l100 144h91z"/>
<glyph glyph-name="mu" horiz-adv-x="597" unicode="µ" d="M90 468h68v-262q0 -161 124 -161q69 0 107 52t38 128v243h68v-373q0 -23 5.5 -33t22.5 -10q13 0 26 5l3 -56q-23 -7 -45 -7q-73 0 -75 86h-2q-20 -41 -65 -66.5t-94 -25.5q-80 0 -111 48h-2v-276h-68v708z"/>
<glyph glyph-name="paragraph" horiz-adv-x="600" unicode="¶" d="M513 708v-834h-66v780h-124v-780h-66v442q-91 0 -150 53.5t-59 132.5q0 97 61 151.5t167 54.5h237z"/>
<glyph glyph-name="periodcentered" horiz-adv-x="260" unicode="·" d="M184 314q0 -22 -15.5 -38t-38.5 -16t-38.5 16t-15.5 38t15.5 38t38.5 16t38.5 -16t15.5 -38z"/>
<glyph glyph-name="cedilla" horiz-adv-x="240" unicode="¸" d="M156 0l-47 -75q13 4 35 4q33 0 57.5 -19t24.5 -53q0 -46 -35 -66.5t-83 -20.5q-51 0 -94 20l16 36q31 -14 72 -14q21 0 42.5 11t21.5 33q0 39 -54 39q-22 0 -43 -8l-18 15l62 98h43z"/>
<glyph glyph-name="onesuperior" horiz-adv-x="370" unicode="¹" d="M171 452v346l-64 -57l-38 41l112 92h51v-422h-61z"/>
<glyph glyph-name="ordmasculine" horiz-adv-x="360" unicode="º" d="M274 572q0 43 -25 72.5t-69 29.5t-69 -29.5t-25 -72.5q0 -42 25 -72t69 -30t69 30t25 72zM332 572q0 -64 -43 -106t-109 -42t-109 42t-43 106q0 65 43 106.5t109 41.5t109 -41.5t43 -106.5z"/>
<glyph glyph-name="guillemotright" horiz-adv-x="482" unicode="»" d="M61 64l115 176l-115 176l47 33l140 -209l-140 -209zM243 64l115 176l-115 176l47 33l140 -209l-140 -209z"/>
<glyph glyph-name="onequarter" horiz-adv-x="840" unicode="¼" d="M667 712l-450 -743l-52 27l451 743zM232 708v-422h-61v346l-64 -57l-38 41l112 92h51zM668 340h-3l-122 -188h125v188zM723 422v-270h60v-54h-60v-98h-55v98h-188v52l175 272h68z"/>
<glyph glyph-name="onehalf" horiz-adv-x="840" unicode="½" d="M232 708v-422h-61v346l-64 -57l-38 41l112 92h51zM667 712l-450 -743l-52 27l451 743zM786 54v-54h-276v57l167 169q43 45 43 86q0 28 -19 45t-48 17q-28 0 -48 -19t-27 -51l-60 9q10 51 47.5 83.5t87.5 32.5q56 0 93.5 -30.5t37.5 -86.5q0 -27 -12 -53t-24 -40t-35 -37 l-128 -128h201z"/>
<glyph glyph-name="threequarters" horiz-adv-x="840" unicode="¾" d="M667 712l-450 -743l-52 27l451 743zM137 484v51h27q84 0 84 70q0 27 -20 44.5t-49 17.5q-48 0 -75 -50l-50 26q44 77 127 77q55 0 91 -29.5t36 -84.5q0 -63 -57 -93q69 -26 69 -102q0 -60 -40.5 -93.5t-99.5 -33.5q-102 0 -141 96l57 19q10 -29 32 -45t52 -16 q33 0 56.5 19t23.5 54q0 38 -27.5 55.5t-68.5 17.5h-27zM668 340h-3l-122 -188h125v188zM723 422v-270h60v-54h-60v-98h-55v98h-188v52l175 272h68z"/>
<glyph glyph-name="questiondown" horiz-adv-x="482" unicode="¿" d="M188 431q0 22 15.5 38t38.5 16t38.5 -16t15.5 -38t-15.5 -38t-38.5 -16t-38.5 16t-15.5 38zM214 241v46h70v-60q0 -51 -20.5 -84.5t-59.5 -67.5l-28 -25q-58 -47 -58 -111q0 -55 35.5 -86.5t89.5 -31.5q52 0 86.5 32.5t42.5 84.5l68 -12q-15 -77 -69 -122t-131 -45 q-83 0 -138.5 47t-55.5 129q0 58 22.5 92t69.5 73q45 37 60.5 63t15.5 78z"/>
<glyph glyph-name="Agrave" horiz-adv-x="700" unicode="À" d="M324 764l-132 144h91l100 -144h-59zM349 628l-156 -376h312zM166 186l-77 -186h-79l306 708h70l304 -708h-80l-78 186h-366z"/>
<glyph glyph-name="Aacute" horiz-adv-x="700" unicode="Á" d="M511 908l-132 -144h-59l100 144h91zM349 628l-156 -376h312zM166 186l-77 -186h-79l306 708h70l304 -708h-80l-78 186h-366z"/>
<glyph glyph-name="Acircumflex" horiz-adv-x="700" unicode="Â" d="M389 908l109 -144h-66l-83 108l-83 -108h-66l109 144h80zM349 628l-156 -376h312zM166 186l-77 -186h-79l306 708h70l304 -708h-80l-78 186h-366z"/>
<glyph glyph-name="Atilde" horiz-adv-x="700" unicode="Ã" d="M231 776h-43q18 104 92 104q27 0 73 -23q50 -23 67 -23q37 0 49 50h43q-18 -104 -92 -104q-29 0 -73 23t-67 23q-37 0 -49 -50zM349 628l-156 -376h312zM166 186l-77 -186h-79l306 708h70l304 -708h-80l-78 186h-366z"/>
<glyph glyph-name="Adieresis" horiz-adv-x="700" unicode="Ä" d="M396 847q0 20 14.5 35.5t36.5 15.5t36.5 -15.5t14.5 -35.5t-14.5 -35.5t-36.5 -15.5t-36.5 15.5t-14.5 35.5zM204 847q0 20 14.5 35.5t36.5 15.5t36.5 -15.5t14.5 -35.5t-14.5 -35.5t-36.5 -15.5t-36.5 15.5t-14.5 35.5zM349 628l-156 -376h312zM166 186l-77 -186h-79 l306 708h70l304 -708h-80l-78 186h-366z"/>
<glyph glyph-name="Aring" horiz-adv-x="700" unicode="Å" d="M410 850q0 25 -17.5 42t-42.5 17t-42.5 -17t-17.5 -42t17.5 -42t42.5 -17t42.5 17t17.5 42zM446 850q0 -40 -28.5 -67.5t-67.5 -27.5t-67.5 27.5t-28.5 67.5t28.5 67.5t67.5 27.5t67.5 -27.5t28.5 -67.5zM349 628l-156 -376h312zM166 186l-77 -186h-79l306 708h70 l304 -708h-80l-78 186h-366z"/>
<glyph glyph-name="AE" horiz-adv-x="990" unicode="Æ" d="M258 261h261v383h-14zM591 337v-273h345v-64h-417v198h-298l-128 -198h-82l461 708h452v-64h-333v-244h309v-63h-309z"/>
<glyph glyph-name="Ccedilla" horiz-adv-x="720" unicode="Ç" d="M634 150l56 -36q-38 -58 -106.5 -95t-158.5 -37l-35 -57q13 4 35 4q33 0 57.5 -19t24.5 -53q0 -46 -35 -66.5t-83 -20.5q-51 0 -94 20l16 36q31 -14 72 -14q21 0 42.5 11t21.5 33q0 39 -54 39q-22 0 -43 -8l-18 15l52 82q-145 14 -236.5 117t-91.5 253q0 161 105 266.5 t264 105.5q78 0 146.5 -30.5t105.5 -81.5l-60 -44q-25 38 -76.5 65.5t-114.5 27.5q-133 0 -213.5 -90t-80.5 -219t81 -219t213 -90q138 0 208 105z"/>
<glyph glyph-name="Egrave" horiz-adv-x="592" unicode="È" d="M316 764l-132 144h91l100 -144h-59zM166 337v-273h379v-64h-451v708h439v-64h-367v-244h343v-63h-343z"/>
<glyph glyph-name="Eacute" horiz-adv-x="592" unicode="É" d="M456 908l-132 -144h-59l100 144h91zM166 337v-273h379v-64h-451v708h439v-64h-367v-244h343v-63h-343z"/>
<glyph glyph-name="Ecircumflex" horiz-adv-x="592" unicode="Ê" d="M356 908l109 -144h-66l-83 108l-83 -108h-66l109 144h80zM166 337v-273h379v-64h-451v708h439v-64h-367v-244h343v-63h-343z"/>
<glyph glyph-name="Edieresis" horiz-adv-x="592" unicode="Ë" d="M361 847q0 20 14.5 35.5t36.5 15.5t36.5 -15.5t14.5 -35.5t-14.5 -35.5t-36.5 -15.5t-36.5 15.5t-14.5 35.5zM169 847q0 20 14.5 35.5t36.5 15.5t36.5 -15.5t14.5 -35.5t-14.5 -35.5t-36.5 -15.5t-36.5 15.5t-14.5 35.5zM166 337v-273h379v-64h-451v708h439v-64h-367 v-244h343v-63h-343z"/>
<glyph glyph-name="Igrave" horiz-adv-x="260" unicode="Ì" d="M106 764l-132 144h91l100 -144h-59zM166 708v-708h-72v708h72z"/>
<glyph glyph-name="Iacute" horiz-adv-x="260" unicode="Í" d="M285 908l-132 -144h-59l100 144h91zM166 708v-708h-72v708h72z"/>
<glyph glyph-name="Icircumflex" horiz-adv-x="260" unicode="Î" d="M170 908l109 -144h-66l-83 108l-83 -108h-66l109 144h80zM166 708v-708h-72v708h72z"/>
<glyph glyph-name="Idieresis" horiz-adv-x="260" unicode="Ï" d="M175 847q0 20 14.5 35.5t36.5 15.5t36.5 -15.5t14.5 -35.5t-14.5 -35.5t-36.5 -15.5t-36.5 15.5t-14.5 35.5zM-17 847q0 20 14.5 35.5t36.5 15.5t36.5 -15.5t14.5 -35.5t-14.5 -35.5t-36.5 -15.5t-36.5 15.5t-14.5 35.5zM166 708v-708h-72v708h72z"/>
<glyph glyph-name="Eth" horiz-adv-x="757" unicode="Ð" d="M158 347v-281h140q78 0 140 24t100 65t57.5 92t19.5 107t-19.5 107t-57.5 92t-100 65t-140 24h-140v-241h258v-54h-258zM86 0v347h-73v54h73v307h235q68 0 133 -22.5t119 -65t87 -112t33 -154.5t-33 -154.5t-87 -112t-119 -65t-133 -22.5h-235z"/>
<glyph glyph-name="Ntilde" horiz-adv-x="764" unicode="Ñ" d="M266 776h-43q18 104 92 104q27 0 73 -23q50 -23 67 -23q37 0 49 50h43q-18 -104 -92 -104q-29 0 -73 23t-67 23q-37 0 -49 -50zM184 708l412 -603h2v603h72v-708h-90l-412 609h-2v-609h-72v708h90z"/>
<glyph glyph-name="Ograve" horiz-adv-x="850" unicode="Ò" d="M439 764l-132 144h91l100 -144h-59zM718 354q0 129 -80.5 219t-212.5 90t-212.5 -90t-80.5 -219t80.5 -218.5t212.5 -89.5t212.5 89.5t80.5 218.5zM794 354q0 -161 -105 -266.5t-264 -105.5t-264 105.5t-105 266.5t105 266.5t264 105.5t264 -105.5t105 -266.5z"/>
<glyph glyph-name="Oacute" horiz-adv-x="850" unicode="Ó" d="M558 908l-132 -144h-59l100 144h91zM718 354q0 129 -80.5 219t-212.5 90t-212.5 -90t-80.5 -219t80.5 -218.5t212.5 -89.5t212.5 89.5t80.5 218.5zM794 354q0 -161 -105 -266.5t-264 -105.5t-264 105.5t-105 266.5t105 266.5t264 105.5t264 -105.5t105 -266.5z"/>
<glyph glyph-name="Ocircumflex" horiz-adv-x="850" unicode="Ô" d="M465 908l109 -144h-66l-83 108l-83 -108h-66l109 144h80zM718 354q0 129 -80.5 219t-212.5 90t-212.5 -90t-80.5 -219t80.5 -218.5t212.5 -89.5t212.5 89.5t80.5 218.5zM794 354q0 -161 -105 -266.5t-264 -105.5t-264 105.5t-105 266.5t105 266.5t264 105.5t264 -105.5 t105 -266.5z"/>
<glyph glyph-name="Otilde" horiz-adv-x="850" unicode="Õ" d="M306 776h-43q18 104 92 104q27 0 73 -23q50 -23 67 -23q37 0 49 50h43q-18 -104 -92 -104q-29 0 -73 23t-67 23q-37 0 -49 -50zM718 354q0 129 -80.5 219t-212.5 90t-212.5 -90t-80.5 -219t80.5 -218.5t212.5 -89.5t212.5 89.5t80.5 218.5zM794 354q0 -161 -105 -266.5 t-264 -105.5t-264 105.5t-105 266.5t105 266.5t264 105.5t264 -105.5t105 -266.5z"/>
<glyph glyph-name="Odieresis" horiz-adv-x="850" unicode="Ö" d="M470 847q0 20 14.5 35.5t36.5 15.5t36.5 -15.5t14.5 -35.5t-14.5 -35.5t-36.5 -15.5t-36.5 15.5t-14.5 35.5zM278 847q0 20 14.5 35.5t36.5 15.5t36.5 -15.5t14.5 -35.5t-14.5 -35.5t-36.5 -15.5t-36.5 15.5t-14.5 35.5zM718 354q0 129 -80.5 219t-212.5 90t-212.5 -90 t-80.5 -219t80.5 -218.5t212.5 -89.5t212.5 89.5t80.5 218.5zM794 354q0 -161 -105 -266.5t-264 -105.5t-264 105.5t-105 266.5t105 266.5t264 105.5t264 -105.5t105 -266.5z"/>
<glyph glyph-name="multiply" horiz-adv-x="666" unicode="×" d="M174 505l159 -159l158 159l43 -42l-159 -160l159 -159l-43 -43l-158 159l-159 -159l-42 43l159 159l-159 160z"/>
<glyph glyph-name="Oslash" horiz-adv-x="850" unicode="Ø" d="M201 150l415 445q-74 68 -191 68q-133 0 -213 -90t-80 -219q0 -123 69 -204zM651 558l-415 -445q76 -67 189 -67q133 0 213 89.5t80 218.5q0 122 -67 204zM774 692l-76 -82q96 -102 96 -256q0 -161 -105 -266.5t-264 -105.5q-138 0 -236 81l-76 -81l-37 34l76 82 q-96 102 -96 256q0 161 105 266.5t264 105.5q136 0 236 -81l76 81z"/>
<glyph glyph-name="Ugrave" horiz-adv-x="710" unicode="Ù" d="M356 764l-132 144h91l100 -144h-59zM355 -18q-61 0 -108.5 18.5t-76.5 46.5t-47.5 67t-25.5 75.5t-7 74.5v444h72v-436q0 -96 46.5 -161t146.5 -65t146.5 65t46.5 161v436h72v-444q0 -38 -7 -74.5t-25.5 -75.5t-47.5 -67t-76.5 -46.5t-108.5 -18.5z"/>
<glyph glyph-name="Uacute" horiz-adv-x="710" unicode="Ú" d="M497 908l-132 -144h-59l100 144h91zM355 -18q-61 0 -108.5 18.5t-76.5 46.5t-47.5 67t-25.5 75.5t-7 74.5v444h72v-436q0 -96 46.5 -161t146.5 -65t146.5 65t46.5 161v436h72v-444q0 -38 -7 -74.5t-25.5 -75.5t-47.5 -67t-76.5 -46.5t-108.5 -18.5z"/>
<glyph glyph-name="Ucircumflex" horiz-adv-x="710" unicode="Û" d="M395 908l109 -144h-66l-83 108l-83 -108h-66l109 144h80zM355 -18q-61 0 -108.5 18.5t-76.5 46.5t-47.5 67t-25.5 75.5t-7 74.5v444h72v-436q0 -96 46.5 -161t146.5 -65t146.5 65t46.5 161v436h72v-444q0 -38 -7 -74.5t-25.5 -75.5t-47.5 -67t-76.5 -46.5t-108.5 -18.5z "/>
<glyph glyph-name="Udieresis" horiz-adv-x="710" unicode="Ü" d="M401 847q0 20 14.5 35.5t36.5 15.5t36.5 -15.5t14.5 -35.5t-14.5 -35.5t-36.5 -15.5t-36.5 15.5t-14.5 35.5zM209 847q0 20 14.5 35.5t36.5 15.5t36.5 -15.5t14.5 -35.5t-14.5 -35.5t-36.5 -15.5t-36.5 15.5t-14.5 35.5zM355 -18q-61 0 -108.5 18.5t-76.5 46.5t-47.5 67 t-25.5 75.5t-7 74.5v444h72v-436q0 -96 46.5 -161t146.5 -65t146.5 65t46.5 161v436h72v-444q0 -38 -7 -74.5t-25.5 -75.5t-47.5 -67t-76.5 -46.5t-108.5 -18.5z"/>
<glyph glyph-name="Yacute" horiz-adv-x="602" unicode="Ý" d="M466 908l-132 -144h-59l100 144h91zM337 305v-305h-72v305l-265 403h90l213 -343l215 343h84z"/>
<glyph glyph-name="Thorn" d="M166 489v-252h116q173 0 173 127q0 125 -173 125h-116zM94 0v708h72v-155h128q111 0 175 -48t64 -141t-65 -141.5t-176 -48.5h-126v-174h-72z" unicode="Þ"/>
<glyph glyph-name="germandbls" horiz-adv-x="597" unicode="ß" d="M156 542v-542h-68v544q0 42 10 79.5t32.5 71t65.5 53.5t102 20q79 0 135.5 -48t56.5 -129q0 -117 -116 -159v-2q76 -9 123.5 -65.5t47.5 -141.5q0 -107 -65.5 -171t-174.5 -64q-28 0 -55 5v57q26 -4 48 -4q80 0 128 47.5t48 130.5q0 85 -52 130t-141 45h-9v60h8 q64 0 102.5 31.5t38.5 94.5q0 58 -36 90.5t-90 32.5q-42 0 -71 -15.5t-43 -42t-19.5 -52.5t-5.5 -56z"/>
<glyph glyph-name="agrave" horiz-adv-x="534" unicode="à" d="M276 564l-132 144h91l100 -144h-59zM385 234h-20q-48 0 -85.5 -3.5t-75 -13.5t-58.5 -31t-21 -53q0 -46 32 -67.5t78 -21.5q69 0 109.5 45t40.5 110v35zM385 287v15q0 121 -125 121q-84 0 -139 -55l-38 45q67 67 184 67q80 0 131 -44t51 -126v-205q0 -63 8 -105h-61 q-7 40 -7 76h-2q-61 -88 -170 -88q-63 0 -112.5 35.5t-49.5 106.5q0 35 12 61.5t36 43.5t52 27.5t69 16t76.5 7t84.5 1.5z"/>
<glyph glyph-name="aacute" horiz-adv-x="534" unicode="á" d="M406 708l-132 -144h-59l100 144h91zM385 234h-20q-48 0 -85.5 -3.5t-75 -13.5t-58.5 -31t-21 -53q0 -46 32 -67.5t78 -21.5q69 0 109.5 45t40.5 110v35zM385 287v15q0 121 -125 121q-84 0 -139 -55l-38 45q67 67 184 67q80 0 131 -44t51 -126v-205q0 -63 8 -105h-61 q-7 40 -7 76h-2q-61 -88 -170 -88q-63 0 -112.5 35.5t-49.5 106.5q0 35 12 61.5t36 43.5t52 27.5t69 16t76.5 7t84.5 1.5z"/>
<glyph glyph-name="acircumflex" horiz-adv-x="534" unicode="â" d="M309 708l109 -144h-66l-83 108l-83 -108h-66l109 144h80zM385 234h-20q-48 0 -85.5 -3.5t-75 -13.5t-58.5 -31t-21 -53q0 -46 32 -67.5t78 -21.5q69 0 109.5 45t40.5 110v35zM385 287v15q0 121 -125 121q-84 0 -139 -55l-38 45q67 67 184 67q80 0 131 -44t51 -126v-205 q0 -63 8 -105h-61q-7 40 -7 76h-2q-61 -88 -170 -88q-63 0 -112.5 35.5t-49.5 106.5q0 35 12 61.5t36 43.5t52 27.5t69 16t76.5 7t84.5 1.5z"/>
<glyph glyph-name="atilde" horiz-adv-x="534" unicode="ã" d="M146 576h-43q18 104 92 104q27 0 73 -23q50 -23 67 -23q37 0 49 50h43q-18 -104 -92 -104q-29 0 -73 23t-67 23q-37 0 -49 -50zM385 234h-20q-48 0 -85.5 -3.5t-75 -13.5t-58.5 -31t-21 -53q0 -46 32 -67.5t78 -21.5q69 0 109.5 45t40.5 110v35zM385 287v15 q0 121 -125 121q-84 0 -139 -55l-38 45q67 67 184 67q80 0 131 -44t51 -126v-205q0 -63 8 -105h-61q-7 40 -7 76h-2q-61 -88 -170 -88q-63 0 -112.5 35.5t-49.5 106.5q0 35 12 61.5t36 43.5t52 27.5t69 16t76.5 7t84.5 1.5z"/>
<glyph glyph-name="adieresis" horiz-adv-x="534" unicode="ä" d="M311 647q0 20 14.5 35.5t36.5 15.5t36.5 -15.5t14.5 -35.5t-14.5 -35.5t-36.5 -15.5t-36.5 15.5t-14.5 35.5zM119 647q0 20 14.5 35.5t36.5 15.5t36.5 -15.5t14.5 -35.5t-14.5 -35.5t-36.5 -15.5t-36.5 15.5t-14.5 35.5zM385 234h-20q-48 0 -85.5 -3.5t-75 -13.5 t-58.5 -31t-21 -53q0 -46 32 -67.5t78 -21.5q69 0 109.5 45t40.5 110v35zM385 287v15q0 121 -125 121q-84 0 -139 -55l-38 45q67 67 184 67q80 0 131 -44t51 -126v-205q0 -63 8 -105h-61q-7 40 -7 76h-2q-61 -88 -170 -88q-63 0 -112.5 35.5t-49.5 106.5q0 35 12 61.5 t36 43.5t52 27.5t69 16t76.5 7t84.5 1.5z"/>
<glyph glyph-name="aring" horiz-adv-x="534" unicode="å" d="M325 650q0 25 -17.5 42t-42.5 17t-42.5 -17t-17.5 -42t17.5 -42t42.5 -17t42.5 17t17.5 42zM361 650q0 -40 -28.5 -67.5t-67.5 -27.5t-67.5 27.5t-28.5 67.5t28.5 67.5t67.5 27.5t67.5 -27.5t28.5 -67.5zM385 234h-20q-48 0 -85.5 -3.5t-75 -13.5t-58.5 -31t-21 -53 q0 -46 32 -67.5t78 -21.5q69 0 109.5 45t40.5 110v35zM385 287v15q0 121 -125 121q-84 0 -139 -55l-38 45q67 67 184 67q80 0 131 -44t51 -126v-205q0 -63 8 -105h-61q-7 40 -7 76h-2q-61 -88 -170 -88q-63 0 -112.5 35.5t-49.5 106.5q0 35 12 61.5t36 43.5t52 27.5t69 16 t76.5 7t84.5 1.5z"/>
<glyph glyph-name="ae" horiz-adv-x="870" unicode="æ" d="M380 216h-20q-53 0 -89 -3t-72.5 -11.5t-54.5 -27.5t-18 -48q0 -83 111 -83q70 0 106.5 37.5t36.5 101.5v34zM446 270h299q0 68 -39 110.5t-105 42.5q-61 0 -107 -46t-48 -107zM814 248q0 -23 -1 -32h-370q2 -71 48.5 -121t114.5 -50q47 0 84.5 23.5t58.5 57.5l49 -39 q-75 -99 -192 -99q-65 0 -113.5 29t-72.5 80q-46 -109 -195 -109q-69 0 -119 34t-50 103q0 38 19 66t47.5 43t74.5 23.5t86.5 10.5t96.5 2v15q0 63 -30.5 100.5t-89.5 37.5q-84 0 -144 -55l-39 44q31 30 83 49t110 19q56 0 96.5 -26t57.5 -72q28 45 75 71.5t102 26.5 q101 0 157 -65.5t56 -166.5z"/>
<glyph glyph-name="ccedilla" horiz-adv-x="500" unicode="ç" d="M480 399l-53 -38q-17 27 -49.5 44.5t-70.5 17.5q-80 0 -129.5 -53.5t-49.5 -135.5q0 -81 49 -134.5t129 -53.5q81 0 127 61l51 -38q-64 -78 -172 -81l-39 -63q13 4 35 4q33 0 57.5 -19t24.5 -53q0 -46 -35 -66.5t-83 -20.5q-51 0 -94 20l16 36q31 -14 72 -14 q21 0 42.5 11t21.5 33q0 39 -54 39q-22 0 -43 -8l-18 15l55 88q-97 11 -155.5 78.5t-58.5 165.5q0 107 69 176.5t181 69.5q50 0 97.5 -21t76.5 -60z"/>
<glyph glyph-name="egrave" horiz-adv-x="572" unicode="è" d="M282 564l-132 144h91l100 -144h-59zM516 248q0 -20 -1 -32h-388q2 -71 51 -120.5t120 -49.5q49 0 89 23.5t61 57.5l51 -40q-78 -99 -201 -99q-104 0 -173 70t-69 176q0 105 68 175.5t168 70.5q106 0 165 -65.5t59 -166.5zM128 270h319q-3 68 -43.5 110.5t-111.5 42.5 q-66 0 -112.5 -45.5t-51.5 -107.5z"/>
<glyph glyph-name="eacute" horiz-adv-x="572" unicode="é" d="M442 708l-132 -144h-59l100 144h91zM516 248q0 -20 -1 -32h-388q2 -71 51 -120.5t120 -49.5q49 0 89 23.5t61 57.5l51 -40q-78 -99 -201 -99q-104 0 -173 70t-69 176q0 105 68 175.5t168 70.5q106 0 165 -65.5t59 -166.5zM128 270h319q-3 68 -43.5 110.5t-111.5 42.5 q-66 0 -112.5 -45.5t-51.5 -107.5z"/>
<glyph glyph-name="ecircumflex" horiz-adv-x="572" unicode="ê" d="M339 708l109 -144h-66l-83 108l-83 -108h-66l109 144h80zM516 248q0 -20 -1 -32h-388q2 -71 51 -120.5t120 -49.5q49 0 89 23.5t61 57.5l51 -40q-78 -99 -201 -99q-104 0 -173 70t-69 176q0 105 68 175.5t168 70.5q106 0 165 -65.5t59 -166.5zM128 270h319 q-3 68 -43.5 110.5t-111.5 42.5q-66 0 -112.5 -45.5t-51.5 -107.5z"/>
<glyph glyph-name="edieresis" horiz-adv-x="572" unicode="ë" d="M344 647q0 20 14.5 35.5t36.5 15.5t36.5 -15.5t14.5 -35.5t-14.5 -35.5t-36.5 -15.5t-36.5 15.5t-14.5 35.5zM152 647q0 20 14.5 35.5t36.5 15.5t36.5 -15.5t14.5 -35.5t-14.5 -35.5t-36.5 -15.5t-36.5 15.5t-14.5 35.5zM516 248q0 -20 -1 -32h-388q2 -71 51 -120.5 t120 -49.5q49 0 89 23.5t61 57.5l51 -40q-78 -99 -201 -99q-104 0 -173 70t-69 176q0 105 68 175.5t168 70.5q106 0 165 -65.5t59 -166.5zM128 270h319q-3 68 -43.5 110.5t-111.5 42.5q-66 0 -112.5 -45.5t-51.5 -107.5z"/>
<glyph glyph-name="igrave" horiz-adv-x="250" unicode="ì" d="M99 564l-132 144h91l100 -144h-59zM159 468v-468h-68v468h68z"/>
<glyph glyph-name="iacute" horiz-adv-x="250" unicode="í" d="M282 708l-132 -144h-59l100 144h91zM159 468v-468h-68v468h68z"/>
<glyph glyph-name="icircumflex" horiz-adv-x="250" unicode="î" d="M167 708l109 -144h-66l-83 108l-83 -108h-66l109 144h80zM159 468v-468h-68v468h68z"/>
<glyph glyph-name="idieresis" horiz-adv-x="250" unicode="ï" d="M171 647q0 20 14.5 35.5t36.5 15.5t36.5 -15.5t14.5 -35.5t-14.5 -35.5t-36.5 -15.5t-36.5 15.5t-14.5 35.5zM-21 647q0 20 14.5 35.5t36.5 15.5t36.5 -15.5t14.5 -35.5t-14.5 -35.5t-36.5 -15.5t-36.5 15.5t-14.5 35.5zM159 468v-468h-68v468h68z"/>
<glyph glyph-name="eth" horiz-adv-x="611" unicode="ð" d="M455 714l-103 -54q86 -80 139.5 -187t53.5 -221q0 -48 -13.5 -92.5t-41.5 -84t-78 -63.5t-116 -24q-108 0 -178 70t-70 176t70 176t178 70q80 0 150 -58l2 2q-57 120 -156 205l-112 -57l-36 36l110 56q-29 28 -100 77l59 37q59 -44 100 -82l102 53zM120 234 q0 -80 48.5 -133t127.5 -53q80 0 128.5 53t48.5 133t-48.5 133t-128.5 53q-79 0 -127.5 -53t-48.5 -133z"/>
<glyph glyph-name="ntilde" horiz-adv-x="581" unicode="ñ" d="M174 576h-43q18 104 92 104q27 0 73 -23q50 -23 67 -23q37 0 49 50h43q-18 -104 -92 -104q-29 0 -73 23t-67 23q-37 0 -49 -50zM86 468h65q4 -50 4 -80h2q19 40 64.5 66t95.5 26q87 0 132.5 -52t45.5 -141v-287h-68v259q0 79 -28.5 121.5t-98.5 42.5q-59 0 -100.5 -47.5 t-41.5 -135.5v-240h-68v365q0 60 -4 103z"/>
<glyph glyph-name="ograve" horiz-adv-x="611" unicode="ò" d="M285 564l-132 144h91l100 -144h-59zM483 234q0 81 -49 135t-129 54q-79 0 -128 -54t-49 -135q0 -80 49 -134t128 -54q80 0 129 53.5t49 134.5zM555 234q0 -106 -70.5 -176t-179.5 -70q-108 0 -178.5 70t-70.5 176t70.5 176t178.5 70q109 0 179.5 -70t70.5 -176z"/>
<glyph glyph-name="oacute" horiz-adv-x="611" unicode="ó" d="M455 708l-132 -144h-59l100 144h91zM483 234q0 81 -49 135t-129 54q-79 0 -128 -54t-49 -135q0 -80 49 -134t128 -54q80 0 129 53.5t49 134.5zM555 234q0 -106 -70.5 -176t-179.5 -70q-108 0 -178.5 70t-70.5 176t70.5 176t178.5 70q109 0 179.5 -70t70.5 -176z"/>
<glyph glyph-name="ocircumflex" horiz-adv-x="611" unicode="ô" d="M345 708l109 -144h-66l-83 108l-83 -108h-66l109 144h80zM483 234q0 81 -49 135t-129 54q-79 0 -128 -54t-49 -135q0 -80 49 -134t128 -54q80 0 129 53.5t49 134.5zM555 234q0 -106 -70.5 -176t-179.5 -70q-108 0 -178.5 70t-70.5 176t70.5 176t178.5 70q109 0 179.5 -70 t70.5 -176z"/>
<glyph glyph-name="otilde" horiz-adv-x="611" unicode="õ" d="M186 576h-43q18 104 92 104q27 0 73 -23q50 -23 67 -23q37 0 49 50h43q-18 -104 -92 -104q-29 0 -73 23t-67 23q-37 0 -49 -50zM483 234q0 81 -49 135t-129 54q-79 0 -128 -54t-49 -135q0 -80 49 -134t128 -54q80 0 129 53.5t49 134.5zM555 234q0 -106 -70.5 -176 t-179.5 -70q-108 0 -178.5 70t-70.5 176t70.5 176t178.5 70q109 0 179.5 -70t70.5 -176z"/>
<glyph glyph-name="odieresis" horiz-adv-x="611" unicode="ö" d="M350 647q0 20 14.5 35.5t36.5 15.5t36.5 -15.5t14.5 -35.5t-14.5 -35.5t-36.5 -15.5t-36.5 15.5t-14.5 35.5zM158 647q0 20 14.5 35.5t36.5 15.5t36.5 -15.5t14.5 -35.5t-14.5 -35.5t-36.5 -15.5t-36.5 15.5t-14.5 35.5zM483 234q0 81 -49 135t-129 54q-79 0 -128 -54 t-49 -135q0 -80 49 -134t128 -54q80 0 129 53.5t49 134.5zM555 234q0 -106 -70.5 -176t-179.5 -70q-108 0 -178.5 70t-70.5 176t70.5 176t178.5 70q109 0 179.5 -70t70.5 -176z"/>
<glyph glyph-name="divide" horiz-adv-x="666" unicode="÷" d="M387 141q0 -22 -15.5 -38t-38.5 -16t-38.5 16t-15.5 38t15.5 38t38.5 16t38.5 -16t15.5 -38zM387 465q0 -22 -15.5 -38t-38.5 -16t-38.5 16t-15.5 38t15.5 38t38.5 16t38.5 -16t15.5 -38zM588 333v-60h-510v60h510z"/>
<glyph glyph-name="oslash" horiz-adv-x="611" unicode="ø" d="M561 465l-66 -68q60 -68 60 -163q0 -106 -71 -176t-180 -70q-92 0 -157 52l-67 -68l-32 31l66 68q-58 67 -58 163q0 106 70 176t178 70q91 0 159 -52l66 68zM159 116l262 269q-40 40 -116 40q-81 0 -130.5 -54.5t-49.5 -136.5q0 -73 34 -118zM450 351l-262 -269 q49 -39 115 -39q82 0 132.5 54.5t50.5 136.5q0 74 -36 117z"/>
<glyph glyph-name="ugrave" horiz-adv-x="581" unicode="ù" d="M277 564l-132 144h91l100 -144h-59zM495 0h-65q-4 50 -4 80h-2q-19 -40 -64.5 -66t-95.5 -26q-87 0 -132.5 52t-45.5 141v287h68v-259q0 -79 28.5 -121.5t98.5 -42.5q59 0 100.5 47.5t41.5 135.5v240h68v-365q0 -60 4 -103z"/>
<glyph glyph-name="uacute" horiz-adv-x="581" unicode="ú" d="M432 708l-132 -144h-59l100 144h91zM495 0h-65q-4 50 -4 80h-2q-19 -40 -64.5 -66t-95.5 -26q-87 0 -132.5 52t-45.5 141v287h68v-259q0 -79 28.5 -121.5t98.5 -42.5q59 0 100.5 47.5t41.5 135.5v240h68v-365q0 -60 4 -103z"/>
<glyph glyph-name="ucircumflex" horiz-adv-x="581" unicode="û" d="M329 708l109 -144h-66l-83 108l-83 -108h-66l109 144h80zM495 0h-65q-4 50 -4 80h-2q-19 -40 -64.5 -66t-95.5 -26q-87 0 -132.5 52t-45.5 141v287h68v-259q0 -79 28.5 -121.5t98.5 -42.5q59 0 100.5 47.5t41.5 135.5v240h68v-365q0 -60 4 -103z"/>
<glyph glyph-name="udieresis" horiz-adv-x="581" unicode="ü" d="M334 647q0 20 14.5 35.5t36.5 15.5t36.5 -15.5t14.5 -35.5t-14.5 -35.5t-36.5 -15.5t-36.5 15.5t-14.5 35.5zM142 647q0 20 14.5 35.5t36.5 15.5t36.5 -15.5t14.5 -35.5t-14.5 -35.5t-36.5 -15.5t-36.5 15.5t-14.5 35.5zM495 0h-65q-4 50 -4 80h-2q-19 -40 -64.5 -66 t-95.5 -26q-87 0 -132.5 52t-45.5 141v287h68v-259q0 -79 28.5 -121.5t98.5 -42.5q59 0 100.5 47.5t41.5 135.5v240h68v-365q0 -60 4 -103z"/>
<glyph glyph-name="yacute" horiz-adv-x="488" unicode="ý" d="M399 708l-132 -144h-59l100 144h91zM92 468l159 -395h2l145 395h74l-233 -589q-23 -59 -56.5 -89t-90.5 -30q-31 0 -61 6l7 62q24 -8 50 -8q33 0 53.5 20.5t36.5 62.5l38 98l-200 467h76z"/>
<glyph glyph-name="thorn" horiz-adv-x="633" unicode="þ" d="M505 234q0 80 -48.5 133t-128.5 53q-79 0 -127.5 -53t-48.5 -133t48.5 -133t127.5 -53q80 0 128.5 53t48.5 133zM334 -12q-53 0 -99.5 23t-74.5 68h-2v-319h-66v996h66v-369h2q29 45 75.5 69t98.5 24q104 0 173.5 -70t69.5 -176t-69.5 -176t-173.5 -70z"/>
<glyph glyph-name="OE" horiz-adv-x="992" unicode="Œ" d="M463 644q-77 0 -138.5 -24.5t-99.5 -66t-58 -92.5t-20 -107t20 -107t58 -92.5t99.5 -66t138.5 -24.5h65v580h-65zM443 708h490v-64h-333v-244h309v-63h-309v-273h345v-64h-502q-68 0 -133 22.5t-119 65t-87 112t-33 154.5t33 154.5t87 112t119 65t133 22.5z"/>
<glyph glyph-name="oe" horiz-adv-x="994" unicode="œ" d="M550 270h319q-3 68 -43.5 110.5t-111.5 42.5q-66 0 -112.5 -45.5t-51.5 -107.5zM483 234q0 81 -49.5 135t-129.5 54q-79 0 -128.5 -54.5t-49.5 -134.5t49 -134t129 -54t129.5 54t49.5 134zM713 480q107 0 166 -65.5t59 -166.5q0 -20 -1 -32h-390q2 -71 51.5 -120.5 t121.5 -49.5q49 0 89 23.5t61 57.5l51 -40q-78 -99 -202 -99q-67 0 -120 30t-84 84q-32 -54 -86.5 -84t-124.5 -30q-108 0 -178 70t-70 176t70 176t178 70q70 0 124 -30t86 -84q31 53 83 83.5t116 30.5z"/>
<glyph glyph-name="Scaron" horiz-adv-x="564" unicode="Š" d="M435 908l-109 -144h-80l-109 144h66l83 -108l83 108h66zM494 640l-57 -46q-50 71 -146 71q-59 0 -105 -35t-46 -98q0 -26 9.5 -47t20.5 -33t36.5 -25t40 -18t47.5 -16q34 -11 44.5 -14.5t40 -15.5t41 -20.5t32 -25.5t29 -34t16 -42t7.5 -55q0 -99 -69 -151.5t-162 -52.5 q-67 0 -126.5 27t-96.5 78l62 46q25 -40 67 -64.5t95 -24.5q61 0 109 36.5t48 100.5q0 29 -10.5 51.5t-23.5 36.5t-40.5 27.5t-45 19.5t-53.5 17q-42 13 -70.5 26t-58.5 35t-45.5 56.5t-15.5 80.5q0 65 35.5 110.5t85 65t105.5 19.5q67 0 120 -24.5t80 -61.5z"/>
<glyph glyph-name="scaron" horiz-adv-x="444" unicode="š" d="M379 708l-109 -144h-80l-109 144h66l83 -108l83 108h66zM391 396l-52 -39q-15 30 -46 48t-69 18q-41 0 -70 -18.5t-29 -54.5q0 -32 26 -50t86 -30q83 -17 122.5 -50t39.5 -87q0 -74 -51.5 -109.5t-124.5 -35.5q-123 0 -185 91l54 40q19 -32 54.5 -52.5t75.5 -20.5 q48 0 79 19.5t31 62.5q0 35 -32.5 54t-105.5 36q-26 6 -45 13t-41.5 21t-35 37.5t-12.5 54.5q0 67 48.5 101.5t118.5 34.5q50 0 96 -22.5t68 -61.5z"/>
<glyph glyph-name="Ydieresis" horiz-adv-x="602" unicode="Ÿ" d="M348 847q0 20 14.5 35.5t36.5 15.5t36.5 -15.5t14.5 -35.5t-14.5 -35.5t-36.5 -15.5t-36.5 15.5t-14.5 35.5zM156 847q0 20 14.5 35.5t36.5 15.5t36.5 -15.5t14.5 -35.5t-14.5 -35.5t-36.5 -15.5t-36.5 15.5t-14.5 35.5zM337 305v-305h-72v305l-265 403h90l213 -343 l215 343h84z"/>
<glyph glyph-name="circumflex" horiz-adv-x="240" unicode="ˆ" d="M160 708l109 -144h-66l-83 108l-83 -108h-66l109 144h80z"/>
<glyph glyph-name="tilde" horiz-adv-x="240" unicode="˜" d="M1 576h-43q18 104 92 104q27 0 73 -23q50 -23 67 -23q37 0 49 50h43q-18 -104 -92 -104q-29 0 -73 23t-67 23q-37 0 -49 -50z"/>
<glyph glyph-name="uni0394" horiz-adv-x="698" unicode="Δ" d="M587 65l-239 562l-238 -562h477zM673 0h-648v49l290 659h70l288 -659v-49z"/>
<glyph glyph-name="uni03BC" horiz-adv-x="597" unicode="μ" d="M90 468h68v-262q0 -161 124 -161q69 0 107 52t38 128v243h68v-373q0 -23 5.5 -33t22.5 -10q13 0 26 5l3 -56q-23 -7 -45 -7q-73 0 -75 86h-2q-20 -41 -65 -66.5t-94 -25.5q-80 0 -111 48h-2v-276h-68v708z"/>
<glyph glyph-name="pi" horiz-adv-x="631" unicode="π" d="M476 408v-295q0 -61 50 -61q17 0 37 5l3 -56q-28 -7 -50 -7q-65 0 -86 29.5t-21 95.5v289h-183l-62 -408h-68l65 408h-121v60h556v-60h-120z"/>
<glyph glyph-name="endash" horiz-adv-x="400" unicode="–" d="M370 271v-57h-340v57h340z"/>
<glyph glyph-name="emdash" horiz-adv-x="600" unicode="—" d="M570 271v-57h-540v57h540z"/>
<glyph glyph-name="quoteleft" horiz-adv-x="222" unicode="‘" d="M42 473l81 235h57l-67 -235h-71z"/>
<glyph glyph-name="quotesinglbase" horiz-adv-x="222" unicode="‚" d="M180 95l-81 -235h-57l67 235h71z"/>
<glyph glyph-name="quotedblleft" horiz-adv-x="387" unicode="“" d="M207 473l81 235h57l-67 -235h-71zM42 473l81 235h57l-67 -235h-71z"/>
<glyph glyph-name="quotedblright" horiz-adv-x="387" unicode="”" d="M180 708l-81 -235h-57l67 235h71zM345 708l-81 -235h-57l67 235h71z"/>
<glyph glyph-name="dagger" horiz-adv-x="556" unicode="†" d="M311 708v-204h204v-60h-204v-570h-66v570h-204v60h204v204h66z"/>
<glyph glyph-name="daggerdbl" horiz-adv-x="556" unicode="‡" d="M311 708v-192h195v-60h-195v-330h195v-60h-195v-192h-66v192h-195v60h195v330h-195v60h195v192h66z"/>
<glyph glyph-name="ellipsis" horiz-adv-x="1000" unicode="…" d="M887 48q0 -22 -15.5 -38t-38.5 -16t-38.5 16t-15.5 38t15.5 38t38.5 16t38.5 -16t15.5 -38zM554 48q0 -22 -15.5 -38t-38.5 -16t-38.5 16t-15.5 38t15.5 38t38.5 16t38.5 -16t15.5 -38zM221 48q0 -22 -15.5 -38t-38.5 -16t-38.5 16t-15.5 38t15.5 38t38.5 16t38.5 -16 t15.5 -38z"/>
<glyph glyph-name="perthousand" horiz-adv-x="1000" unicode="‰" d="M575 712l-450 -743l-52 27l451 743zM921 142q0 41 -29 70.5t-70 29.5t-70 -29.5t-29 -70.5t29 -70.5t70 -29.5t70 29.5t29 70.5zM975 142q0 -63 -45 -108.5t-108 -45.5t-108 45.5t-45 108.5t45 108.5t108 45.5t108 -45.5t45 -108.5zM571 142q0 41 -29 70.5t-70 29.5 t-70 -29.5t-29 -70.5t29 -70.5t70 -29.5t70 29.5t29 70.5zM625 142q0 -63 -45 -108.5t-108 -45.5t-108 45.5t-45 108.5t45 108.5t108 45.5t108 -45.5t45 -108.5zM277 566q0 41 -29 70.5t-70 29.5t-70 -29.5t-29 -70.5t29 -70.5t70 -29.5t70 29.5t29 70.5zM331 566 q0 -63 -45 -108.5t-108 -45.5t-108 45.5t-45 108.5t45 108.5t108 45.5t108 -45.5t45 -108.5z"/>
<glyph glyph-name="guilsinglleft" horiz-adv-x="315" unicode="‹" d="M131 240l115 -176l-47 -33l-140 209l140 209l47 -33z"/>
<glyph glyph-name="guilsinglright" horiz-adv-x="315" unicode="›" d="M184 240l-115 176l47 33l140 -209l-140 -209l-47 33z"/>
<glyph glyph-name="fraction" horiz-adv-x="100" unicode="⁄" d="M297 712l-450 -743l-52 27l451 743z"/>
<glyph glyph-name="Euro" d="M511 633q-51 30 -127 30q-85 0 -142.5 -51.5t-78.5 -142.5h300l-18 -55h-291q-5 -33 -5 -65q0 -25 4 -57h256l-18 -55h-231q16 -87 78 -139.5t146 -52.5q79 0 136 40l29 -56q-67 -47 -174 -47q-115 0 -191.5 75t-95.5 180h-76l20 55h49q-3 39 -3 56q0 34 4 66h-69l20 55 h57q27 121 107 189t190 68q88 0 149 -32z" unicode="€"/>
<glyph glyph-name="trademark" horiz-adv-x="1000" unicode="™" d="M928 708v-412h-60v346h-2l-139 -346h-39l-139 346h-2v-346h-60v412h93l129 -316l129 316h90zM401 708v-54h-133v-358h-60v358h-136v54h329z"/>
<glyph glyph-name="partialdiff" horiz-adv-x="496" unicode="∂" d="M386 278q-68 91 -155 91q-64 0 -100.5 -46.5t-36.5 -112.5t36.5 -117.5t100.5 -51.5q41 0 72 23.5t47.5 61.5t25 75.5t10.5 76.5zM455 363q0 -50 -4.5 -96t-19.5 -99t-38.5 -91t-65.5 -63.5t-97 -25.5q-90 0 -144.5 66t-54.5 158q0 90 52.5 151.5t141.5 61.5 q97 0 166 -84q0 9 0.5 26t0.5 26q0 46 -9 90.5t-28.5 87t-56 69t-85.5 26.5q-52 0 -112 -46l-36 43q67 58 145 58q68 0 118.5 -33t76.5 -88.5t38 -114t12 -122.5z"/>
<glyph glyph-name="product" horiz-adv-x="711" unicode="∏" d="M641 -214h-66v938h-438v-938h-66v1000h570v-1000z"/>
<glyph glyph-name="summation" horiz-adv-x="604" unicode="∑" d="M578 -214h-553v55l329 448l-315 441v56h527v-62h-442l309 -435l-328 -442h473v-61z"/>
<glyph glyph-name="minus" horiz-adv-x="666" unicode="−" d="M588 333v-60h-510v60h510z"/>
<glyph glyph-name="radical" horiz-adv-x="493" unicode="√" d="M502 786l-210 -1000h-66l-164 340l-46 -22l-24 50l100 48l158 -332l189 916h63z"/>
<glyph glyph-name="infinity" horiz-adv-x="741" unicode="∞" d="M333 249q-3 2 -18 15t-21 18t-20.5 16.5t-24 17t-22.5 12t-25 9.5t-24 3q-37 0 -58.5 -26.5t-21.5 -63.5q0 -39 22.5 -63.5t61.5 -24.5q62 0 151 87zM643 249q0 40 -22 66t-61 26q-9 0 -18.5 -1.5t-19 -6t-17.5 -8.5t-18.5 -11.5t-16.5 -11.5t-17 -14t-15 -13.5 t-15.5 -14t-13.5 -12.5q33 -29 47.5 -41t46.5 -28.5t60 -16.5q37 0 58.5 24.5t21.5 62.5zM700 252q0 -64 -38.5 -106t-101.5 -42q-36 0 -73.5 18.5t-59 36.5t-56.5 52q-9 -7 -33 -28.5t-36.5 -31t-34 -23t-42.5 -19t-44 -5.5q-62 0 -101 41.5t-39 103.5q0 63 38 105.5 t100 42.5q28 0 53.5 -8.5t54.5 -30.5t40.5 -32t43.5 -41q5 5 22.5 21.5t24.5 23t23 20.5t27.5 20t27 14t31 11t31.5 3q63 0 102.5 -41.5t39.5 -104.5z"/>
<glyph glyph-name="approxequal" horiz-adv-x="666" unicode="≈" d="M596 232q-7 -59 -37.5 -98.5t-86.5 -39.5q-49 0 -144 37q-98 36 -133 36q-32 0 -53 -23.5t-26 -56.5h-45q9 60 38 100t85 40q44 0 144 -36q95 -37 136 -37q61 0 78 78h44zM596 402q-6 -58 -37 -97.5t-86 -39.5q-48 0 -145 37q-98 36 -133 36q-32 0 -53 -23.5t-26 -56.5 h-45q8 60 38 99.5t86 39.5q45 0 143 -36q97 -37 136 -37q62 0 79 78h43z"/>
<glyph glyph-name="notequal" horiz-adv-x="666" unicode="≠" d="M584 120h-287l-76 -144l-52 27l62 117h-149v60h181l68 130h-249v60h282l77 147l52 -28l-63 -119h154v-60h-186l-69 -130h255v-60z"/>
<glyph glyph-name="lessequal" horiz-adv-x="666" unicode="≤" d="M584 6h-502v59h502v-59zM584 108l-502 188v65l502 189v-65l-419 -157l419 -155v-65z"/>
<glyph glyph-name="greaterequal" horiz-adv-x="666" unicode="≥" d="M584 6h-502v59h502v-59zM584 296l-502 -188v65l420 155l-420 157v65l502 -189v-65z"/>
<glyph glyph-name="lozenge" horiz-adv-x="593" unicode="◊" d="M433 356l-137 325l-136 -325l136 -325zM498 356l-171 -391h-63l-169 391l169 391h63z"/>
</font>
</defs>
</svg>
