<?xml version="1.0" encoding="UTF-8" standalone="no"?>
<!DOCTYPE svg  PUBLIC '-//W3C//DTD SVG 1.1//EN'  'http://www.w3.org/Graphics/SVG/1.1/DTD/svg11.dtd'>
<svg xmlns="http://www.w3.org/2000/svg">
<defs>
<font id="AvenirNextCyr-MediumItalic" horiz-adv-x="595">
<font-face slope="-12" underline-position="125" font-weight="450" descent="-200" panose-1="2 11 6 3 2 2 2 9 2 4" units-per-em="1000" unicode-range="U+0020-25CA" bbox="-258 -250 1048 951" x-height="474" underline-thickness="50" font-family="AvenirNextCyr" ascent="800" font-style="italic" cap-height="708"/>
<missing-glyph horiz-adv-x="1000"/>
<glyph glyph-name=".notdef" horiz-adv-x="1000"/>
<glyph glyph-name=".null" horiz-adv-x="1000"/>
<glyph glyph-name=".null" horiz-adv-x="1000"/>
<glyph glyph-name="nonmarkingreturn" horiz-adv-x="333"/>
<glyph glyph-name="space" horiz-adv-x="250" unicode=" "/>
<glyph glyph-name="exclam" horiz-adv-x="287" unicode="!" d="M170 61q0 -26 -19 -46t-45 -20q-27 0 -45.5 17t-18.5 45t20 47t46 19q27 0 44.5 -17t17.5 -45zM262 708l-89 -501h-95l89 501h95z"/>
<glyph glyph-name="quotedbl" horiz-adv-x="425" unicode='&quot;' d="M233 708l-44 -249h-81l45 249h80zM393 708l-44 -249h-80l44 249h80z"/>
<glyph glyph-name="numbersign" horiz-adv-x="573" unicode="#" d="M261 426l-45 -143h119l45 143h-119zM53 0l67 211h-96l13 72h105l45 143h-98l12 72h109l67 210h74l-67 -210h118l67 210h74l-67 -210h90l-12 -72h-101l-45 -143h93l-12 -72h-102l-68 -211h-74l68 211h-119l-67 -211h-74z"/>
<glyph glyph-name="dollar" d="M407 198q0 41 -23.5 66.5t-66.5 44.5l-42 -240q58 3 95 39t37 90zM329 639q-54 -3 -91 -34.5t-37 -87.5q0 -39 22 -62.5t66 -40.5zM560 637l-75 -57q-38 56 -109 59l-43 -240q82 -32 126 -75.5t44 -114.5q0 -86 -62.5 -149.5t-179.5 -70.5l-13 -73h-46l13 73 q-63 3 -117.5 30.5t-83.5 75.5l79 54q19 -33 55.5 -55.5t80.5 -24.5l45 255q-167 56 -167 181q0 91 63.5 151t172.5 64l13 72h46l-13 -72q116 -9 171 -83z" unicode="$"/>
<glyph glyph-name="percent" horiz-adv-x="868" unicode="%" d="M743 699l-563 -739l-60 42l564 739zM724 182q0 33 -21 55t-55 22q-44 0 -73 -32t-29 -80q0 -33 20 -54.5t54 -21.5q45 0 74.5 32t29.5 79zM813 196q0 -88 -56.5 -148t-143.5 -60q-68 0 -113 42t-45 107q0 86 57.5 145.5t144.5 59.5q69 0 112.5 -40.5t43.5 -105.5z M326 560q0 33 -21 55t-55 22q-44 0 -73 -32t-29 -80q0 -33 20 -54.5t54 -21.5q45 0 74.5 32t29.5 79zM415 574q0 -88 -56.5 -148t-143.5 -60q-68 0 -113 42t-45 107q0 86 57.5 145.5t144.5 59.5q69 0 112.5 -40.5t43.5 -105.5z"/>
<glyph glyph-name="ampersand" horiz-adv-x="722" unicode="&amp;" d="M406 161l-138 174q-67 -26 -105.5 -63t-38.5 -96q0 -48 34 -77.5t85 -29.5q88 0 163 92zM441 565q0 38 -21.5 61.5t-59.5 23.5q-44 0 -72 -30t-28 -76q0 -62 46 -114q135 54 135 135zM680 379l-163 -211l139 -168h-119l-75 97q-103 -110 -226 -110q-96 0 -153.5 47 t-57.5 136q0 81 56.5 137.5t140.5 89.5q-50 65 -50 141q0 83 53 135.5t134 52.5q76 0 124.5 -41.5t48.5 -114.5q0 -120 -184 -198l114 -142l105 149h113z"/>
<glyph glyph-name="quotesingle" horiz-adv-x="265" unicode="&apos;" d="M108 459l44 249h81l-44 -249h-81z"/>
<glyph glyph-name="parenleft" horiz-adv-x="315" unicode="(" d="M104 172q0 -168 68 -293l-71 -35q-81 137 -81 327q0 151 62 296t174 266l59 -43q-99 -110 -155 -247t-56 -271z"/>
<glyph glyph-name="parenright" horiz-adv-x="315" unicode=")" d="M209 405q0 165 -68 293l71 35q81 -137 81 -327q0 -151 -62 -296t-174 -266l-59 43q99 110 155 247t56 271z"/>
<glyph glyph-name="asterisk" horiz-adv-x="453" unicode="*" d="M304 579l127 41l27 -76l-127 -41l81 -109l-64 -48l-84 113l-84 -113l-64 48l81 109l-127 41l27 76l127 -41v129h80v-129z"/>
<glyph glyph-name="plus" horiz-adv-x="666" unicode="+" d="M374 566v-222h222v-82h-222v-222h-82v222h-222v82h222v222h82z"/>
<glyph glyph-name="comma" horiz-adv-x="260" unicode="," d="M163 116l-127 -249h-79l113 249h93z"/>
<glyph glyph-name="hyphen" horiz-adv-x="320" unicode="-" d="M272 284l-14 -79h-232l14 79h232z"/>
<glyph glyph-name="period" horiz-adv-x="260" unicode="." d="M145 61q0 -27 -18.5 -46.5t-45.5 -19.5t-45 17t-18 45t19.5 47t46.5 19q26 0 43.5 -17t17.5 -45z"/>
<glyph glyph-name="slash" horiz-adv-x="379" unicode="/" d="M447 716l-438 -749l-66 25l440 749z"/>
<glyph glyph-name="zero" d="M355 646q-58 0 -106 -61.5t-73.5 -155t-25.5 -194.5q0 -77 25.5 -124.5t82.5 -47.5t104.5 61t72.5 154.5t25 194.5q0 173 -105 173zM363 726q100 0 148 -68t48 -175q0 -53 -7.5 -108t-22 -112t-39.5 -107t-58 -89.5t-79.5 -62t-101.5 -22.5q-101 0 -149.5 66t-48.5 173 q0 83 17 167t52 162t97.5 127t143.5 49z" unicode="0"/>
<glyph glyph-name="one" d="M449 708l-125 -708h-95l105 593l-155 -113l-45 71l225 157h90z" unicode="1"/>
<glyph glyph-name="two" d="M484 86l-15 -86h-461l16 92l327 279q58 49 83 87t25 83q0 48 -32 76t-84 28q-55 0 -93.5 -32t-54.5 -86l-88 22q28 83 91.5 130t149.5 47q92 0 150 -48.5t58 -129.5q0 -76 -35 -125.5t-119 -119.5l-259 -217h341z" unicode="2"/>
<glyph glyph-name="three" d="M217 331l14 78h33q86 0 131 36t45 104q0 44 -30 70.5t-78 26.5q-91 0 -136 -83l-74 43q74 120 217 120q83 0 139.5 -47t56.5 -128q0 -69 -40 -116t-109 -65v-2q51 -12 83.5 -53t32.5 -96q0 -107 -71 -172t-185 -65q-82 0 -141 40t-81 111l91 30q10 -47 47.5 -73t89.5 -26 q70 0 111 39.5t41 105.5q0 62 -43 92t-113 30h-31z" unicode="3"/>
<glyph glyph-name="four" d="M347 242l65 363h-3l-291 -363h229zM521 708l-83 -466h103l-15 -83h-101l-27 -159h-92l27 159h-327l16 92l375 457h124z" unicode="4"/>
<glyph glyph-name="five" d="M542 708l-16 -84h-275l-39 -187q36 12 83 12q88 0 150 -53.5t62 -146.5q0 -120 -74.5 -193.5t-192.5 -73.5q-80 0 -138.5 38t-80.5 98l87 36q14 -41 49 -65.5t82 -24.5q79 0 124 48t45 123q0 64 -41 101t-105 37q-82 0 -156 -42l75 377h361z" unicode="5"/>
<glyph glyph-name="six" d="M423 233q0 56 -35 92t-89 36q-77 0 -125.5 -48.5t-48.5 -122.5q0 -56 37 -92.5t93 -36.5q76 0 122 48.5t46 123.5zM519 241q0 -112 -73.5 -185.5t-193.5 -73.5q-97 0 -160 58t-63 150q0 98 101 221l241 297h115l-243 -288l1 -3q32 17 71 17q93 0 148.5 -54.5t55.5 -138.5 z" unicode="6"/>
<glyph glyph-name="seven" d="M585 708l-15 -87l-404 -621h-116l418 623h-343l15 85h445z" unicode="7"/>
<glyph glyph-name="eight" d="M423 218q0 51 -33.5 83.5t-86.5 32.5q-71 0 -118 -44t-47 -110q0 -55 34.5 -86.5t88.5 -31.5q75 0 118.5 44t43.5 112zM458 542q0 49 -29.5 76.5t-79.5 27.5q-57 0 -93.5 -38.5t-36.5 -92.5q0 -43 28.5 -72t75.5 -29q57 0 96 38.5t39 89.5zM549 556q0 -71 -41 -118 t-102 -67l1 -2q48 -15 78.5 -55.5t30.5 -93.5q0 -109 -75 -173.5t-184 -64.5q-87 0 -149.5 48t-62.5 141q0 80 50 136t123 71v3q-40 18 -64 53t-24 80q0 95 65.5 153.5t160.5 58.5q83 0 138 -44t55 -126z" unicode="8"/>
<glyph glyph-name="nine" d="M486 518q0 56 -37.5 92.5t-93.5 36.5q-76 0 -122.5 -48.5t-46.5 -123.5q0 -56 35.5 -92t89.5 -36q77 0 126 49t49 122zM581 518q0 -98 -101 -221l-241 -297h-115l243 288l-1 3q-12 -7 -33 -12q-20 -5 -38 -5q-93 0 -148.5 54.5t-55.5 138.5q0 112 73.5 185.5t193.5 73.5 q97 0 160 -58t63 -150z" unicode="9"/>
<glyph glyph-name="colon" horiz-adv-x="300" unicode=":" d="M227 417q0 -27 -18.5 -46.5t-45.5 -19.5t-45 17t-18 45q0 29 19.5 48t46.5 19q26 0 43.5 -17t17.5 -46zM170 61q0 -26 -19 -46t-45 -20q-27 0 -45.5 17t-18.5 45t19.5 47t46.5 19t44.5 -17t17.5 -45z"/>
<glyph glyph-name="semicolon" horiz-adv-x="300" unicode=";" d="M227 417q0 -27 -18.5 -46.5t-45.5 -19.5t-45 17t-18 45q0 29 19.5 48t46.5 19q26 0 43.5 -17t17.5 -46zM180 116l-127 -249h-82l112 249h97z"/>
<glyph glyph-name="less" horiz-adv-x="666" unicode="&lt;" d="M589 564v-85l-385 -176l383 -176v-85l-508 231v60z"/>
<glyph glyph-name="equal" horiz-adv-x="666" unicode="=" d="M70 261h526v-81h-526v81zM70 426h526v-81h-526v81z"/>
<glyph glyph-name="greater" horiz-adv-x="666" unicode="&gt;" d="M79 479v85l508 -231v-60l-508 -231v85l383 176z"/>
<glyph glyph-name="question" horiz-adv-x="500" unicode="?" d="M286 61q0 -26 -19 -46t-45 -20q-27 0 -45 17t-18 45t19.5 47t45.5 19q27 0 44.5 -17t17.5 -45zM286 233l-5 -33h-92l8 49q8 50 30.5 83.5t65.5 66.5l43 34q37 28 56 53.5t19 62.5q0 42 -25.5 65.5t-70.5 23.5q-53 0 -87 -31t-45 -80l-89 16q18 80 80.5 130t147.5 50 q82 0 134.5 -41.5t52.5 -127.5q0 -58 -31 -101t-94 -87q-51 -36 -71 -61t-27 -72z"/>
<glyph glyph-name="at" horiz-adv-x="800" unicode="@" d="M503 411q0 68 -62 68q-52 0 -95 -56t-43 -126q0 -67 60 -67q57 0 98.5 58.5t41.5 122.5zM788 449q0 -120 -64.5 -204.5t-165.5 -84.5q-38 0 -60 16.5t-22 42.5q0 8 1 12h-4q-20 -28 -53.5 -49.5t-74.5 -21.5q-61 0 -94.5 33t-33.5 90t26.5 117t81 104.5t123.5 44.5 q38 0 65.5 -16.5t32.5 -41.5h2l17 43h75l-73 -187q-23 -59 -23 -81q0 -20 8.5 -29t28.5 -9q54 0 92 66t38 147q0 100 -67 157.5t-175 57.5q-152 0 -250 -106t-98 -256q0 -112 73.5 -177.5t196.5 -65.5q146 0 264 99l36 -53q-124 -115 -310 -115q-160 0 -252.5 85.5 t-92.5 223.5q0 180 124 307.5t310 127.5q143 0 230.5 -74t87.5 -203z"/>
<glyph glyph-name="A" horiz-adv-x="681" unicode="A" d="M413 597l-207 -336h267zM155 174l-108 -174h-115l459 708h89l144 -708h-103l-34 174h-332z"/>
<glyph glyph-name="B" horiz-adv-x="633" unicode="B" d="M186 326l-43 -243h129q85 0 139.5 34t54.5 107q0 48 -37 75t-103 27h-140zM239 626l-39 -218h137q59 0 105.5 30.5t46.5 93.5q0 48 -36 71t-95 23h-119zM32 0l125 708h226q84 0 145 -38t61 -117q0 -69 -42 -116t-114 -65v-2q59 -9 95.5 -49.5t36.5 -101.5 q0 -105 -82.5 -162t-219.5 -57h-231z"/>
<glyph glyph-name="C" horiz-adv-x="700" unicode="C" d="M586 166l66 -55q-102 -129 -282 -129q-142 0 -229.5 84t-87.5 220q0 184 122 312t298 128q78 0 143 -30t96 -80l-81 -59q-18 34 -60 59.5t-101 25.5q-134 0 -224.5 -104.5t-90.5 -239.5q0 -99 60 -165t164 -66q125 0 207 99z"/>
<glyph glyph-name="D" horiz-adv-x="757" unicode="D" d="M239 624l-95 -538h145q102 0 177.5 46t111 116t35.5 152q0 98 -63.5 161t-187.5 63h-123zM32 0l125 708h229q62 0 119 -17t105 -51t77 -93t29 -135q0 -185 -122 -298.5t-310 -113.5h-252z"/>
<glyph glyph-name="E" horiz-adv-x="582" unicode="E" d="M186 325l-42 -238h367l-15 -87h-464l125 708h436l-15 -86h-340l-37 -214h324l-15 -83h-324z"/>
<glyph glyph-name="F" horiz-adv-x="553" unicode="F" d="M186 318l-56 -318h-98l125 708h428l-15 -86h-330l-40 -221h309l-14 -83h-309z"/>
<glyph glyph-name="G" horiz-adv-x="755" unicode="G" d="M387 67q99 1 164 38l35 198h-160l16 84h254l-60 -343q-116 -62 -261 -62t-233.5 84t-88.5 220q0 184 122 312t298 128q79 0 144.5 -29t99.5 -81l-81 -59q-22 37 -64 61t-102 24q-134 0 -224.5 -104.5t-90.5 -239.5q0 -101 62 -166t170 -65z"/>
<glyph glyph-name="H" horiz-adv-x="719" unicode="H" d="M32 0l125 708h98l-53 -297h350l53 297h98l-125 -708h-98l57 325h-350l-57 -325h-98z"/>
<glyph glyph-name="I" horiz-adv-x="271" unicode="I" d="M255 708l-125 -708h-98l125 708h98z"/>
<glyph glyph-name="J" horiz-adv-x="491" unicode="J" d="M-17 129l89 26q6 -38 30.5 -62.5t63.5 -24.5q62 0 90 40t40 113l86 487h98l-87 -492q-6 -35 -13.5 -63t-24.5 -62t-40 -56t-60.5 -37.5t-85.5 -15.5q-79 0 -128 41t-58 106z"/>
<glyph glyph-name="K" horiz-adv-x="621" unicode="K" d="M254 708l-56 -316h2l339 316h136l-377 -331l285 -377h-127l-261 366h-2l-64 -366h-97l125 708h97z"/>
<glyph glyph-name="L" horiz-adv-x="511" unicode="L" d="M255 708l-111 -621h317l-14 -87h-415l125 708h98z"/>
<glyph glyph-name="M" horiz-adv-x="903" unicode="M" d="M308 708l115 -546h1l310 546h152l-124 -708h-97l105 591h-3l-341 -591h-62l-131 591h-2l-105 -591h-94l125 708h151z"/>
<glyph glyph-name="N" horiz-adv-x="768" unicode="N" d="M282 708l259 -570h2l100 570h98l-125 -708h-122l-260 582h-2l-103 -582h-97l125 708h125z"/>
<glyph glyph-name="O" horiz-adv-x="831" unicode="O" d="M688 412q0 99 -60.5 164.5t-167.5 65.5q-89 0 -160 -50t-108 -128.5t-37 -166.5q0 -99 60.5 -164.5t167.5 -65.5q135 0 220 103.5t85 241.5zM381 -18q-148 0 -238 83t-90 223q0 183 119 310.5t293 127.5q146 0 235.5 -83t89.5 -222q0 -183 -117 -311t-292 -128z"/>
<glyph glyph-name="P" d="M240 625l-42 -232h112q180 0 180 126q0 106 -144 106h-106zM32 0l125 708h202q109 0 169 -47t60 -131q0 -109 -76.5 -164t-206.5 -55h-121l-55 -311h-97z" unicode="P"/>
<glyph glyph-name="Q" horiz-adv-x="827" unicode="Q" d="M679 414q0 99 -59 163.5t-163 64.5q-132 0 -217.5 -101t-85.5 -232q0 -101 62 -162.5t169 -61.5q121 0 207.5 98t86.5 231zM780 427q0 -127 -55.5 -213.5t-134.5 -128.5v-3h189l-15 -82h-383q-145 0 -236 78.5t-91 218.5q0 180 117 304.5t288 124.5q143 0 232 -82 t89 -217z"/>
<glyph glyph-name="R" horiz-adv-x="612" unicode="R" d="M239 625l-41 -228h109q183 0 183 124q0 104 -147 104h-104zM184 316l-55 -316h-97l125 708h201q107 0 169.5 -46t62.5 -130q0 -88 -53.5 -139.5t-143.5 -66.5l151 -326h-110l-141 316h-109z"/>
<glyph glyph-name="S" horiz-adv-x="569" unicode="S" d="M557 638l-76 -58q-43 64 -131 64q-57 0 -104.5 -32.5t-47.5 -93.5q0 -42 28.5 -66.5t85.5 -46.5q89 -33 137.5 -77.5t48.5 -119.5q0 -99 -72.5 -162.5t-192.5 -63.5q-71 0 -134.5 28.5t-96.5 81.5l82 55q20 -36 61.5 -59t91.5 -23q65 0 111.5 35t46.5 97q0 50 -35 77.5 t-103 52.5q-74 28 -116.5 69t-42.5 113q0 98 73.5 157.5t187.5 59.5q62 0 116 -23.5t82 -64.5z"/>
<glyph glyph-name="T" horiz-adv-x="535" unicode="T" d="M370 622l-110 -622h-98l110 622h-224l15 86h544l-15 -86h-222z"/>
<glyph glyph-name="U" horiz-adv-x="712" unicode="U" d="M317 -18q-120 0 -184.5 61.5t-64.5 156.5q0 30 6 62l78 446h98l-78 -440q-5 -28 -5 -53q0 -65 37 -106.5t116 -41.5q170 0 206 201l77 440h98l-78 -446q-10 -57 -31.5 -104.5t-57 -88.5t-91 -64t-126.5 -23z"/>
<glyph glyph-name="V" horiz-adv-x="628" unicode="V" d="M180 708l80 -581h3l343 581h107l-431 -708h-93l-113 708h104z"/>
<glyph glyph-name="W" horiz-adv-x="982" unicode="W" d="M187 708l46 -566h2l275 566h108l57 -566h2l267 566h104l-344 -708h-102l-61 572h-2l-283 -572h-103l-69 708h103z"/>
<glyph glyph-name="X" horiz-adv-x="622" unicode="X" d="M215 708l117 -267l226 267h121l-302 -342l173 -366h-113l-132 297l-252 -297h-127l334 375l-156 333h111z"/>
<glyph glyph-name="Y" horiz-adv-x="560" unicode="Y" d="M322 306l-54 -306h-98l54 306l-178 402h111l130 -322l259 322h120z"/>
<glyph glyph-name="Z" horiz-adv-x="580" unicode="Z" d="M617 708l-16 -86l-490 -535h403l-15 -87h-532l15 86l493 536h-367l15 86h494z"/>
<glyph glyph-name="bracketleft" horiz-adv-x="315" unicode="[" d="M311 732l-12 -66h-93l-133 -756h93l-12 -66h-177l157 888h177z"/>
<glyph glyph-name="backslash" horiz-adv-x="380" unicode="\" d="M311 -33l-307 749l70 26l308 -751z"/>
<glyph glyph-name="bracketright" horiz-adv-x="315" unicode="]" d="M-3 -156l12 66h93l134 756h-93l11 66h177l-157 -888h-177z"/>
<glyph glyph-name="asciicircum" horiz-adv-x="666" unicode="^" d="M74 309l226 399h66l226 -399h-91l-169 300l-167 -300h-91z"/>
<glyph glyph-name="underscore" horiz-adv-x="500" unicode="_" d="M-76 -125l9 50h500l-9 -50h-500z"/>
<glyph glyph-name="grave" horiz-adv-x="250" unicode="`" d="M156 564l-137 144h110l100 -144h-73z"/>
<glyph glyph-name="a" horiz-adv-x="537" unicode="a" d="M360 228h-15q-236 0 -236 -100q0 -67 87 -67q61 0 104 38t53 94zM370 296q4 25 4 37q0 79 -100 79q-76 0 -142 -52l-38 62q81 65 193 65q75 0 125.5 -34.5t50.5 -105.5q0 -22 -4 -48l-35 -192q-11 -68 -11 -107h-85q0 33 6 66h-2q-65 -76 -168 -76q-58 0 -102.5 30 t-44.5 95q0 181 353 181z"/>
<glyph glyph-name="b" horiz-adv-x="633" unicode="b" d="M477 273q0 60 -35 98.5t-97 38.5q-79 0 -133.5 -61.5t-54.5 -146.5q0 -61 37 -99.5t99 -38.5q82 0 133 60t51 149zM135 80h-2l-14 -80h-89l133 756h93l-65 -358h2q26 39 72.5 64t99.5 25q93 0 150 -56.5t57 -148.5q0 -123 -76.5 -208.5t-192.5 -85.5q-53 0 -99.5 24.5 t-68.5 67.5z"/>
<glyph glyph-name="c" horiz-adv-x="496" unicode="c" d="M491 407l-72 -54q-12 25 -41 41t-63 16q-81 0 -134.5 -61t-53.5 -146q0 -60 35.5 -99t100.5 -39q76 0 130 57l56 -52q-83 -83 -192 -83q-102 0 -163 56.5t-61 148.5q0 122 80 208.5t207 86.5q55 0 101.5 -20t69.5 -60z"/>
<glyph glyph-name="d" horiz-adv-x="628" unicode="d" d="M126 202q0 -60 35 -98.5t97 -38.5q78 0 133 61.5t55 146.5q0 61 -37.5 99.5t-98.5 38.5q-82 0 -133 -60t-51 -149zM30 193q0 123 77 208.5t193 85.5q57 0 100 -24t65 -67h2l63 360h93l-134 -756h-90l13 76h-2q-26 -40 -72.5 -64t-100.5 -24q-93 0 -150 56.5t-57 148.5z "/>
<glyph glyph-name="e" horiz-adv-x="565" unicode="e" d="M132 277h283q2 18 2 30q0 47 -31 77t-86 30q-64 0 -109.5 -41t-58.5 -96zM494 209h-372q-1 -6 -1 -16q0 -56 39.5 -92.5t98.5 -36.5q91 0 149 72l55 -52q-85 -97 -213 -97q-97 0 -158.5 56t-61.5 154q0 120 80 205t197 85q91 0 144 -50t53 -138q0 -47 -10 -90z"/>
<glyph glyph-name="f" horiz-adv-x="309" unicode="f" d="M333 474l-14 -75h-111l-70 -399h-91l70 399h-95l14 75h93l18 100q15 85 62 139.5t134 54.5q33 0 57 -7l-20 -80q-23 7 -44 7q-79 0 -98 -115l-18 -99h113z"/>
<glyph glyph-name="g" horiz-adv-x="630" unicode="g" d="M134 208q0 -59 36 -98t98 -39q79 0 132.5 60t53.5 143q0 60 -37.5 98.5t-98.5 38.5q-82 0 -133 -57t-51 -146zM-11 -150l62 67q26 -35 70 -55.5t93 -20.5q87 0 131 46.5t61 128.5l12 63h-2q-61 -84 -171 -84q-93 0 -149.5 57.5t-56.5 148.5q0 120 76.5 203t192.5 83 q58 0 101 -24t62 -66h3l13 77h90l-79 -451q-10 -56 -27 -99t-48.5 -82.5t-84.5 -60.5t-125 -21q-65 0 -126.5 24t-97.5 66z"/>
<glyph glyph-name="h" horiz-adv-x="581" unicode="h" d="M347 487q75 0 116.5 -40.5t41.5 -105.5q0 -25 -4 -48l-52 -293h-93l46 262q6 27 6 53q0 93 -92 93q-56 0 -97 -43t-54 -114l-44 -251h-93l133 756h93l-62 -354h2q24 38 64 61.5t89 23.5z"/>
<glyph glyph-name="i" horiz-adv-x="259" unicode="i" d="M245 647q0 -25 -17 -43t-42 -18t-42 15.5t-17 41.5t18 44t43 18q24 0 40.5 -16t16.5 -42zM205 474l-84 -474h-92l83 474h93z"/>
<glyph glyph-name="j" horiz-adv-x="259" unicode="j" d="M245 647q0 -25 -17 -43t-42 -18t-42 15.5t-17 41.5t18 44t43 18q24 0 40.5 -16t16.5 -42zM-118 -234l19 79q18 -5 37 -5q39 0 55 25t26 76l94 533h93l-95 -536q-7 -40 -17 -68.5t-29 -55t-51 -40.5t-77 -14q-27 0 -55 6z"/>
<glyph glyph-name="k" horiz-adv-x="504" unicode="k" d="M255 756l-86 -489h3l228 207h123l-256 -220l195 -254h-117l-177 246h-3l-43 -246h-93l133 756h93z"/>
<glyph glyph-name="l" horiz-adv-x="260" unicode="l" d="M256 756l-134 -756h-93l133 756h94z"/>
<glyph glyph-name="m" horiz-adv-x="884" unicode="m" d="M648 487q77 0 119 -40.5t42 -105.5q0 -20 -5 -48l-52 -293h-92l46 262q5 30 5 53q0 94 -91 94q-60 0 -95.5 -44.5t-46.5 -108.5l-45 -256h-93l50 281q5 27 5 44q0 84 -83 84q-52 0 -93 -43.5t-54 -113.5l-44 -252h-93l65 371q10 50 15 103h88l-10 -77h2q58 90 155 90 q52 0 89 -24.5t48 -72.5q62 97 168 97z"/>
<glyph glyph-name="n" horiz-adv-x="581" unicode="n" d="M108 474h88q-6 -55 -10 -77h2q58 90 158 90q76 0 117.5 -40.5t41.5 -105.5q0 -25 -4 -48l-52 -293h-93l46 262q6 27 6 53q0 93 -92 93q-55 0 -96.5 -42.5t-54.5 -113.5l-44 -252h-93l65 371q10 50 15 103z"/>
<glyph glyph-name="o" horiz-adv-x="600" unicode="o" d="M445 273q0 60 -37 98.5t-99 38.5q-80 0 -132.5 -61.5t-52.5 -146.5q0 -60 36.5 -98.5t99.5 -38.5q80 0 132.5 61t52.5 147zM255 -13q-98 0 -161.5 58t-63.5 149q0 121 80 207t205 86q99 0 161.5 -57t62.5 -148q0 -123 -79.5 -209t-204.5 -86z"/>
<glyph glyph-name="p" horiz-adv-x="632" unicode="p" d="M475 272q0 60 -35 98.5t-97 38.5q-78 0 -133 -61.5t-55 -146.5q0 -61 37.5 -99.5t99.5 -38.5q81 0 132 60t51 149zM191 398q26 39 72.5 63.5t100.5 24.5q93 0 150 -56.5t57 -148.5q0 -123 -77 -208.5t-193 -85.5q-118 0 -165 90h-2l-55 -317h-93l126 714h90l-13 -76h2z "/>
<glyph glyph-name="q" horiz-adv-x="626" unicode="q" d="M126 202q0 -60 35 -98.5t97 -38.5q78 0 133 61.5t55 146.5q0 61 -37.5 99.5t-98.5 38.5q-82 0 -133 -60t-51 -149zM30 193q0 123 77 208.5t193 85.5q53 0 98.5 -25t68.5 -68h2l14 80h90l-126 -714h-93l58 316h-2q-26 -40 -72.5 -64t-100.5 -24q-93 0 -150 56.5t-57 148.5 z"/>
<glyph glyph-name="r" horiz-adv-x="343" unicode="r" d="M92 371q10 50 15 103h88l-10 -80h2q56 93 148 93q22 0 37 -4l-16 -87q-20 5 -41 5q-64 0 -102 -43.5t-50 -108.5l-44 -249h-92z"/>
<glyph glyph-name="s" horiz-adv-x="444" unicode="s" d="M419 407l-72 -47q-31 53 -100 53q-39 0 -68.5 -16t-29.5 -50q0 -28 19.5 -41t65.5 -26q71 -21 106 -53.5t35 -87.5q0 -73 -58 -113.5t-137 -40.5q-135 0 -194 93l75 49q16 -30 48 -47.5t71 -17.5q45 0 74.5 18t29.5 52q0 29 -22.5 45.5t-75.5 33.5q-63 20 -95 47.5 t-32 80.5q0 68 57 108t138 40q55 0 99 -21t66 -59z"/>
<glyph glyph-name="t" horiz-adv-x="324" unicode="t" d="M329 474l-14 -76h-117l-45 -249q-3 -16 -3 -30q0 -51 57 -51q29 0 51 11l-7 -74q-31 -13 -75 -13q-57 0 -88.5 25.5t-31.5 76.5q0 26 4 47l46 257h-90l14 76h89l23 136h92l-24 -136h119z"/>
<glyph glyph-name="u" horiz-adv-x="581" unicode="u" d="M440 0h-88l10 77h-2q-57 -90 -158 -90q-75 0 -117 40.5t-42 106.5q0 20 5 47l52 293h92l-46 -261q-5 -32 -5 -54q0 -93 91 -93q56 0 97.5 43t53.5 113l45 252h92l-65 -371q-10 -50 -15 -103z"/>
<glyph glyph-name="v" horiz-adv-x="490" unicode="v" d="M511 474l-284 -474h-99l-96 474h96l66 -374h2l216 374h99z"/>
<glyph glyph-name="w" horiz-adv-x="759" unicode="w" d="M40 474h97l33 -362h2l185 362h93l47 -362h3l180 362h98l-250 -474h-96l-48 359h-2l-187 -359h-96z"/>
<glyph glyph-name="x" horiz-adv-x="489" unicode="x" d="M421 0h-106l-94 185l-170 -185h-117l244 251l-123 223h101l84 -167l152 167h113l-221 -230z"/>
<glyph glyph-name="y" horiz-adv-x="495" unicode="y" d="M139 474l68 -373h2l210 373h100l-347 -586q-39 -66 -76 -97t-94 -31q-31 0 -59 7l13 82q22 -8 44 -8q30 0 51 18.5t46 60.5l47 80l-104 474h99z"/>
<glyph glyph-name="z" horiz-adv-x="461" unicode="z" d="M450 474l-13 -76l-328 -320h279l-13 -78h-396l13 76l327 322h-254l14 76h371z"/>
<glyph glyph-name="braceleft" horiz-adv-x="315" unicode="{" d="M-2 251l14 74q32 0 56.5 22.5t32.5 67.5l34 188q11 65 50 97t90 32h68l-12 -69h-51q-51 0 -64 -72l-32 -183q-10 -57 -46 -85.5t-68 -33.5v-2q26 -3 50 -24t24 -66q0 -14 -3 -32l-31 -180q-3 -15 -3 -30q0 -42 41 -42h51l-12 -69h-68q-44 0 -71.5 24.5t-27.5 74.5 q0 13 3 30l33 184q3 15 3 28q0 33 -17 49.5t-44 16.5z"/>
<glyph glyph-name="bar" horiz-adv-x="222" unicode="|" d="M70 750h82v-1000h-82v1000z"/>
<glyph glyph-name="braceright" horiz-adv-x="315" unicode="}" d="M319 325l-14 -74q-32 0 -56.5 -22.5t-32.5 -67.5l-34 -188q-11 -65 -50 -97t-90 -32h-68l12 69h51q51 0 64 72l32 183q10 57 46 85.5t68 33.5v2q-26 3 -50 24t-24 66q0 14 3 32l31 180q3 15 3 30q0 42 -41 42h-51l12 69h68q44 0 71.5 -24.5t27.5 -74.5q0 -13 -3 -30 l-33 -184q-3 -15 -3 -28q0 -33 17 -49.5t44 -16.5z"/>
<glyph glyph-name="asciitilde" horiz-adv-x="666" unicode="~" d="M340 346q38 -24 57.5 -31.5t41.5 -7.5q50 0 87 68l59 -55q-58 -97 -144 -97q-54 0 -116 38q-37 23 -56.5 30.5t-41.5 7.5q-50 0 -87 -68l-59 55q59 98 144 98q56 0 115 -38z"/>
<glyph glyph-name="uni00A0" horiz-adv-x="250" unicode=" "/>
<glyph glyph-name="exclamdown" horiz-adv-x="287" unicode="¡" d="M94 426q0 27 18.5 46.5t45.5 19.5t45 -17t18 -45t-19.5 -47t-45.5 -19q-27 0 -44.5 17t-17.5 45zM2 -221l88 501h95l-88 -501h-95z"/>
<glyph glyph-name="cent" d="M260 69l60 339q-68 -10 -112 -69t-44 -136q0 -51 24.5 -88t71.5 -46zM246 -9q-81 13 -128.5 67t-47.5 134q0 115 73 199.5t190 94.5l11 63h51l-11 -64q103 -9 145 -78l-72 -54q-11 21 -34.5 36.5t-51.5 19.5l-61 -344q68 3 121 57l55 -52q-82 -82 -190 -83l-11 -65h-51z " unicode="¢"/>
<glyph glyph-name="sterling" d="M441 397l-13 -71h-166l-43 -244h264l-15 -82h-459l15 82h100l42 244h-97l13 71h95l16 88q6 33 16 63.5t29.5 64t45.5 57.5t66.5 40t89.5 16q100 0 155 -58l-58 -66q-35 45 -101 45q-118 0 -149 -168l-14 -82h168z" unicode="£"/>
<glyph glyph-name="currency" horiz-adv-x="890" unicode="¤" d="M446 478q-72 0 -117.5 -49t-45.5 -120q0 -72 45 -121.5t118 -49.5t118.5 49.5t45.5 121.5q0 71 -45.5 120t-118.5 49zM661 465q48 -63 48 -156q0 -95 -51 -161l93 -93q-27 -29 -56 -56q-32 30 -96 94q-64 -47 -153 -47q-86 0 -154 49l-98 -96l-17.5 17.5l-21 21 l-17.5 17.5l95 96q-49 65 -49 158q0 87 46 154l-92 92l57 56l93 -92q67 50 158 50t157 -49q13 14 28.5 29t34 33.5l28.5 28.5l57 -56z"/>
<glyph glyph-name="yen" d="M66 228h171l16 92h-170l11 65h150l-150 323h104l120 -294l217 294h109l-258 -323h142l-11 -65h-172l-17 -92h172l-11 -65h-171l-29 -163h-91l29 163h-171z" unicode="¥"/>
<glyph glyph-name="brokenbar" horiz-adv-x="222" unicode="¦" d="M70 175h82v-350h-82v350zM70 675h82v-350h-82v350z"/>
<glyph glyph-name="section" horiz-adv-x="583" unicode="§" d="M411 277q0 58 -74 92l-72 34q-37 -6 -65 -31.5t-28 -63.5q0 -34 19 -53t60 -37l79 -34q35 9 58 33.5t23 59.5zM551 643l-73 -55q-37 57 -111 57q-51 0 -83 -25t-32 -68q0 -35 23 -55t83 -45q73 -31 108 -66.5t35 -92.5q0 -109 -113 -151q46 -41 46 -96 q0 -88 -62.5 -137.5t-153.5 -49.5q-64 0 -123.5 29.5t-82.5 77.5l79 50q16 -35 52.5 -55.5t73.5 -20.5q51 0 84.5 22.5t33.5 68.5q0 38 -25.5 60.5t-91.5 48.5q-71 28 -104 62.5t-33 90.5q0 54 33.5 94.5t89.5 56.5q-49 32 -49 97q0 82 62 132t153 50q61 0 109 -21.5 t72 -58.5z"/>
<glyph glyph-name="dieresis" horiz-adv-x="250" unicode="¨" d="M341 647q0 -25 -17 -42.5t-42 -17.5t-41.5 15.5t-16.5 41.5t18 43.5t43 17.5t40.5 -15.5t15.5 -42.5zM143 647q0 -25 -16.5 -42.5t-41.5 -17.5q-26 0 -42.5 15.5t-16.5 41.5t18 43.5t43 17.5t40.5 -15.5t15.5 -42.5z"/>
<glyph glyph-name="copyright" horiz-adv-x="800" unicode="©" d="M573 519l-58 -46q-33 44 -98 44q-66 0 -107.5 -44.5t-41.5 -112.5q0 -71 40 -115t106 -44q68 0 105 50l61 -43q-60 -76 -167 -76q-101 0 -165.5 63.5t-64.5 164.5q0 102 66 163.5t168 61.5q45 0 88.5 -17t67.5 -49zM80 353q0 -132 94 -225.5t227 -93.5q132 0 225.5 93.5 t93.5 225.5q0 133 -93.5 227t-225.5 94q-133 0 -227 -94t-94 -227zM20 353q0 157 111.5 267t269.5 110q157 0 268 -110t111 -267q0 -156 -111 -265.5t-268 -109.5q-158 0 -269.5 109.5t-111.5 265.5z"/>
<glyph glyph-name="ordfeminine" horiz-adv-x="380" unicode="ª" d="M283 564h-8q-129 0 -129 -53q0 -37 48 -37q33 0 55.5 20t29.5 52zM353 637q0 -4 -3 -31l-20 -110q-5 -27 -5 -65h-56q0 19 4 39h-2q-35 -46 -94 -46q-39 0 -67 20.5t-28 57.5q0 42 29 66.5t72 33t106 8.5q0 2 1 8t1 9q0 42 -54 42q-43 0 -81 -31l-27 43q53 41 117 41 q49 0 78 -22.5t29 -62.5z"/>
<glyph glyph-name="guillemotleft" horiz-adv-x="507" unicode="«" d="M324 238l85 -173l-65 -40l-110 219l184 216l54 -45zM124 238l85 -173l-66 -40l-110 219l184 216l55 -45z"/>
<glyph glyph-name="logicalnot" horiz-adv-x="666" unicode="¬" d="M596 426v-287h-81v206h-445v81h526z"/>
<glyph glyph-name="uni00AD" horiz-adv-x="320" unicode="­" d="M272 284l-14 -79h-232l14 79h232z"/>
<glyph glyph-name="registered" horiz-adv-x="600" unicode="®" d="M148 493q0 -79 56.5 -135.5t135.5 -56.5t135.5 56.5t56.5 135.5t-56 135.5t-136 56.5t-136 -56.5t-56 -135.5zM112 493q0 94 66.5 160.5t161.5 66.5t161.5 -66.5t66.5 -160.5t-66.5 -159.5t-161.5 -65.5t-161.5 65.5t-66.5 159.5zM467 368h-72l-55 99h-36v-99h-61v256 h110q41 0 69 -19t28 -61q0 -50 -51 -68zM304 511h47q14 0 25.5 9.5t11.5 23.5t-12 22t-25 8h-47v-63z"/>
<glyph glyph-name="macron" horiz-adv-x="250" unicode="¯" d="M335 663l-12 -66h-294l11 66h295z"/>
<glyph glyph-name="degree" horiz-adv-x="400" unicode="°" d="M331 565q0 38 -26.5 65t-64.5 27t-64.5 -27t-26.5 -65q0 -37 26.5 -64t64.5 -27t64.5 27t26.5 64zM395 565q0 -65 -45 -109.5t-110 -44.5t-110 44.5t-45 109.5t45 110t110 45t110 -45t45 -110z"/>
<glyph glyph-name="plusminus" horiz-adv-x="666" unicode="±" d="M70 40v81h526v-81h-526zM70 338v81h223v150h81v-150h222v-81h-222v-147h-81v147h-223z"/>
<glyph glyph-name="twosuperior" horiz-adv-x="385" unicode="²" d="M182 517h190l-13 -67h-280l12 69l186 156q61 51 61 93q0 52 -61 52q-54 0 -75 -64l-67 19q18 52 57 80t89 28q60 0 94.5 -30t34.5 -81q0 -45 -21.5 -74.5t-76.5 -74.5z"/>
<glyph glyph-name="threesuperior" horiz-adv-x="385" unicode="³" d="M226 700q94 0 94 71q0 23 -15 36t-39 13q-47 0 -74 -48l-56 34q45 77 136 77q54 0 87 -31t33 -79q0 -41 -24 -68t-59 -35q30 -9 48 -33t18 -54q0 -67 -43 -103.5t-110 -36.5q-53 0 -89.5 25.5t-51.5 69.5l71 22q14 -52 71 -52q37 0 57.5 18.5t20.5 49.5q0 33 -24 49 t-62 16h-22l11 59h22z"/>
<glyph glyph-name="acute" horiz-adv-x="250" unicode="´" d="M352 708l-162 -144h-74l125 144h111z"/>
<glyph glyph-name="mu" horiz-adv-x="600" unicode="µ" d="M521 71l-7 -71q-24 -8 -57 -8q-39 0 -60.5 20.5t-21.5 54.5q0 2 0.5 5.5t0.5 5.5h-2q-25 -41 -67.5 -66t-88.5 -25q-33 0 -57 12t-32 31h-2l-48 -270h-93l126 714h94l-47 -262q-5 -28 -5 -50q0 -96 89 -96q57 0 99 42t54 112l45 254h94l-66 -372q-1 -3 -1 -10 q0 -24 27 -24q13 0 26 3z"/>
<glyph glyph-name="paragraph" horiz-adv-x="600" unicode="¶" d="M594 708l-147 -834h-78l136 771h-116l-136 -771h-78l80 453q-83 0 -132.5 42.5t-49.5 109.5q0 91 67.5 160t200.5 69h253z"/>
<glyph glyph-name="periodcentered" horiz-adv-x="260" unicode="·" d="M197 306q0 -27 -18.5 -46.5t-45.5 -19.5t-45 17t-18 45t19.5 47t46.5 19q26 0 43.5 -17t17.5 -45z"/>
<glyph glyph-name="cedilla" horiz-adv-x="250" unicode="¸" d="M113 0l-59 -70q10 3 26 3q32 0 57 -17t25 -54q0 -50 -41 -73.5t-91 -23.5q-61 0 -104 23l24 42q34 -17 76 -17q65 0 65 43q0 37 -48 37q-19 0 -42 -7l-17 20l79 94h50z"/>
<glyph glyph-name="onesuperior" horiz-adv-x="385" unicode="¹" d="M339 876l-75 -426h-76l59 333l-80 -59l-36 51l142 101h66z"/>
<glyph glyph-name="ordmasculine" horiz-adv-x="380" unicode="º" d="M321 592q0 32 -19 52t-52 20q-41 0 -68.5 -32.5t-27.5 -76.5q0 -32 19 -52t51 -20q42 0 69.5 32t27.5 77zM390 599q0 -76 -49 -125t-121 -49q-61 0 -98 34.5t-37 87.5q0 75 49 124.5t121 49.5q59 0 97 -34t38 -88z"/>
<glyph glyph-name="guillemotright" horiz-adv-x="507" unicode="»" d="M163 248l-85 173l66 39l110 -218l-185 -217l-54 46zM364 248l-85 173l65 39l110 -218l-184 -217l-54 46z"/>
<glyph glyph-name="onequarter" horiz-adv-x="870" unicode="¼" d="M681 330h-4l-142 -174h114zM781 156l-12 -62h-62l-16 -94h-70l17 94h-190l10 60l222 272h85l-47 -270h63zM317 708l-75 -426h-76l59 333l-80 -59l-36 51l142 101h66zM739 707l-563 -739l-54 33l564 739z"/>
<glyph glyph-name="onehalf" horiz-adv-x="870" unicode="½" d="M581 67h190l-13 -67h-280l12 69l186 156q61 51 61 93q0 52 -61 52q-54 0 -75 -64l-67 19q18 52 57 80t89 28q60 0 94.5 -30t34.5 -81q0 -45 -21.5 -74.5t-76.5 -74.5zM317 708l-75 -426h-76l59 333l-80 -59l-36 51l142 101h66zM739 707l-563 -739l-54 33l564 739z"/>
<glyph glyph-name="threequarters" horiz-adv-x="870" unicode="¾" d="M681 330h-4l-142 -174h114zM781 156l-12 -62h-62l-16 -94h-70l17 94h-190l10 60l222 272h85l-47 -270h63zM363 612q0 -41 -24 -68t-60 -36q30 -8 48.5 -32.5t18.5 -54.5q0 -67 -43 -104t-110 -37q-53 0 -89.5 25.5t-51.5 69.5l70 22q14 -52 71 -52q38 0 59 19t21 50 q0 33 -24.5 49t-62.5 16h-22l10 58h22q95 0 95 72q0 23 -14.5 36t-39.5 13q-47 0 -74 -48l-56 34q46 77 136 77q54 0 87 -31t33 -78zM739 707l-563 -739l-54 33l564 739z"/>
<glyph glyph-name="questiondown" horiz-adv-x="500" unicode="¿" d="M198 427q0 27 18.5 46.5t45.5 19.5t45 -17t18 -46q0 -28 -19.5 -47t-46.5 -19q-26 0 -43.5 17t-17.5 46zM198 255l4 32h92l-8 -49q-8 -49 -31.5 -82t-67.5 -67l-42 -33q-36 -28 -54.5 -53.5t-18.5 -63.5q0 -43 25.5 -66.5t70.5 -23.5q52 0 87 31.5t45 79.5l89 -15 q-18 -80 -80.5 -130t-148.5 -50q-82 0 -134 41.5t-52 126.5q0 57 31.5 100.5t94.5 87.5q51 36 71 61.5t27 72.5z"/>
<glyph glyph-name="Agrave" horiz-adv-x="681" unicode="À" d="M406 764l-137 144h110l100 -144h-73zM413 597l-207 -336h267zM155 174l-108 -174h-115l459 708h89l144 -708h-103l-34 174h-332z"/>
<glyph glyph-name="Aacute" horiz-adv-x="681" unicode="Á" d="M632 908l-162 -144h-74l125 144h111zM413 597l-207 -336h267zM155 174l-108 -174h-115l459 708h89l144 -708h-103l-34 174h-332z"/>
<glyph glyph-name="Acircumflex" horiz-adv-x="681" unicode="Â" d="M523 908l86 -144h-86l-59 99l-94 -99h-91l138 144h106zM413 597l-207 -336h267zM155 174l-108 -174h-115l459 708h89l144 -708h-103l-34 174h-332z"/>
<glyph glyph-name="Atilde" horiz-adv-x="681" unicode="Ã" d="M326 772h-55q40 115 123 115q34 0 72 -21q44 -21 63 -21q35 0 55 47h55q-42 -115 -123 -115q-25 0 -69 20q-42 22 -65 22q-34 0 -56 -47zM413 597l-207 -336h267zM155 174l-108 -174h-115l459 708h89l144 -708h-103l-34 174h-332z"/>
<glyph glyph-name="Adieresis" horiz-adv-x="681" unicode="Ä" d="M418 847q0 -25 -16.5 -42.5t-41.5 -17.5q-26 0 -42.5 15.5t-16.5 41.5t18 43.5t43 17.5q24 0 40 -15.5t16 -42.5zM616 847q0 -25 -17 -42.5t-42 -17.5t-41.5 15.5t-16.5 41.5t18 43.5t43 17.5q24 0 40 -15.5t16 -42.5zM413 597l-207 -336h267zM155 174l-108 -174h-115 l459 708h89l144 -708h-103l-34 174h-332z"/>
<glyph glyph-name="Aring" horiz-adv-x="681" unicode="Å" d="M515 863q0 22 -13.5 36.5t-35.5 14.5q-29 0 -47.5 -21t-18.5 -52q0 -22 13 -36t35 -14q29 0 48 21t19 51zM445 753q-38 0 -62.5 23.5t-24.5 59.5q0 48 31.5 81.5t79.5 33.5q39 0 63 -23t24 -59q0 -49 -31.5 -82.5t-79.5 -33.5zM413 597l-207 -336h267zM155 174l-108 -174 h-115l459 708h89l144 -708h-103l-34 174h-332z"/>
<glyph glyph-name="AE" horiz-adv-x="1006" unicode="Æ" d="M293 275h225l62 347h-12zM919 0h-449l34 193h-273l-153 -193h-115l569 708h485l-15 -86h-327l-38 -214h312l-15 -83h-311l-43 -238h354z"/>
<glyph glyph-name="Ccedilla" horiz-adv-x="700" unicode="Ç" d="M586 166l66 -55q-97 -123 -266 -128l-44 -53q10 3 26 3q32 0 57 -17t25 -54q0 -50 -41 -73.5t-91 -23.5q-61 0 -104 23l24 42q34 -17 76 -17q65 0 65 43q0 37 -48 37q-19 0 -42 -7l-17 20l65 78q-129 10 -206.5 92t-77.5 210q0 184 122 312t298 128q78 0 143 -30t96 -80 l-81 -59q-18 34 -60 59.5t-101 25.5q-134 0 -224.5 -104.5t-90.5 -239.5q0 -99 60 -165t164 -66q125 0 207 99z"/>
<glyph glyph-name="Egrave" horiz-adv-x="582" unicode="È" d="M380 764l-137 144h110l100 -144h-73zM186 325l-42 -238h367l-15 -87h-464l125 708h436l-15 -86h-340l-37 -214h324l-15 -83h-324z"/>
<glyph glyph-name="Eacute" horiz-adv-x="582" unicode="É" d="M547 908l-162 -144h-74l125 144h111zM186 325l-42 -238h367l-15 -87h-464l125 708h436l-15 -86h-340l-37 -214h324l-15 -83h-324z"/>
<glyph glyph-name="Ecircumflex" horiz-adv-x="582" unicode="Ê" d="M460 908l86 -144h-86l-59 99l-94 -99h-91l138 144h106zM186 325l-42 -238h367l-15 -87h-464l125 708h436l-15 -86h-340l-37 -214h324l-15 -83h-324z"/>
<glyph glyph-name="Edieresis" horiz-adv-x="582" unicode="Ë" d="M354 847q0 -25 -16.5 -42.5t-41.5 -17.5q-26 0 -42.5 15.5t-16.5 41.5t18 43.5t43 17.5q24 0 40 -15.5t16 -42.5zM552 847q0 -25 -17 -42.5t-42 -17.5t-41.5 15.5t-16.5 41.5t18 43.5t43 17.5q24 0 40 -15.5t16 -42.5zM186 325l-42 -238h367l-15 -87h-464l125 708h436 l-15 -86h-340l-37 -214h324l-15 -83h-324z"/>
<glyph glyph-name="Igrave" horiz-adv-x="271" unicode="Ì" d="M182 764l-137 144h110l100 -144h-73zM255 708l-125 -708h-98l125 708h98z"/>
<glyph glyph-name="Iacute" horiz-adv-x="271" unicode="Í" d="M400 908l-162 -144h-74l125 144h111zM255 708l-125 -708h-98l125 708h98z"/>
<glyph glyph-name="Icircumflex" horiz-adv-x="271" unicode="Î" d="M291 908l86 -144h-86l-59 99l-94 -99h-91l138 144h106zM255 708l-125 -708h-98l125 708h98z"/>
<glyph glyph-name="Idieresis" horiz-adv-x="271" unicode="Ï" d="M184 847q0 -25 -16.5 -42.5t-41.5 -17.5q-26 0 -42.5 15.5t-16.5 41.5t18 43.5t43 17.5q24 0 40 -15.5t16 -42.5zM382 847q0 -25 -17 -42.5t-42 -17.5t-41.5 15.5t-16.5 41.5t18 43.5t43 17.5q24 0 40 -15.5t16 -42.5zM255 708l-125 -708h-98l125 708h98z"/>
<glyph glyph-name="Eth" horiz-adv-x="757" unicode="Ð" d="M188 336l-44 -250h145q102 0 177.5 46t111 116t35.5 152q0 98 -63.5 161t-187.5 63h-123l-39 -219h230l-14 -69h-228zM104 405l53 303h229q62 0 119 -17t105 -51t77 -93t29 -135q0 -185 -122 -298.5t-310 -113.5h-252l59 336h-66l13 69h66z"/>
<glyph glyph-name="Ntilde" horiz-adv-x="768" unicode="Ñ" d="M339 772h-55q40 115 123 115q33 0 72 -21q44 -21 63 -21q35 0 55 47h55q-42 -115 -123 -115q-25 0 -69 20q-42 22 -65 22q-34 0 -56 -47zM282 708l259 -570h2l100 570h98l-125 -708h-122l-260 582h-2l-103 -582h-97l125 708h125z"/>
<glyph glyph-name="Ograve" horiz-adv-x="831" unicode="Ò" d="M464 764l-137 144h110l100 -144h-73zM688 412q0 99 -60.5 164.5t-167.5 65.5q-89 0 -160 -50t-108 -128.5t-37 -166.5q0 -99 60.5 -164.5t167.5 -65.5q135 0 220 103.5t85 241.5zM381 -18q-148 0 -238 83t-90 223q0 183 119 310.5t293 127.5q146 0 235.5 -83t89.5 -222 q0 -183 -117 -311t-292 -128z"/>
<glyph glyph-name="Oacute" horiz-adv-x="831" unicode="Ó" d="M655 908l-162 -144h-74l125 144h111zM688 412q0 99 -60.5 164.5t-167.5 65.5q-89 0 -160 -50t-108 -128.5t-37 -166.5q0 -99 60.5 -164.5t167.5 -65.5q135 0 220 103.5t85 241.5zM381 -18q-148 0 -238 83t-90 223q0 183 119 310.5t293 127.5q146 0 235.5 -83t89.5 -222 q0 -183 -117 -311t-292 -128z"/>
<glyph glyph-name="Ocircumflex" horiz-adv-x="831" unicode="Ô" d="M577 908l86 -144h-86l-59 99l-94 -99h-91l138 144h106zM688 412q0 99 -60.5 164.5t-167.5 65.5q-89 0 -160 -50t-108 -128.5t-37 -166.5q0 -99 60.5 -164.5t167.5 -65.5q135 0 220 103.5t85 241.5zM381 -18q-148 0 -238 83t-90 223q0 183 119 310.5t293 127.5 q146 0 235.5 -83t89.5 -222q0 -183 -117 -311t-292 -128z"/>
<glyph glyph-name="Otilde" horiz-adv-x="831" unicode="Õ" d="M370 772h-55q40 115 123 115q34 0 72 -21q44 -21 63 -21q35 0 55 47h55q-42 -115 -123 -115q-25 0 -69 20q-42 22 -65 22q-34 0 -56 -47zM688 412q0 99 -60.5 164.5t-167.5 65.5q-89 0 -160 -50t-108 -128.5t-37 -166.5q0 -99 60.5 -164.5t167.5 -65.5q135 0 220 103.5 t85 241.5zM381 -18q-148 0 -238 83t-90 223q0 183 119 310.5t293 127.5q146 0 235.5 -83t89.5 -222q0 -183 -117 -311t-292 -128z"/>
<glyph glyph-name="Odieresis" horiz-adv-x="831" unicode="Ö" d="M463 847q0 -25 -16.5 -42.5t-41.5 -17.5q-26 0 -42.5 15.5t-16.5 41.5t18 43.5t43 17.5t40.5 -15.5t15.5 -42.5zM661 847q0 -25 -17 -42.5t-42 -17.5t-41.5 15.5t-16.5 41.5t18 43.5t43 17.5t40.5 -15.5t15.5 -42.5zM688 412q0 99 -60.5 164.5t-167.5 65.5 q-89 0 -160 -50t-108 -128.5t-37 -166.5q0 -99 60.5 -164.5t167.5 -65.5q135 0 220 103.5t85 241.5zM381 -18q-148 0 -238 83t-90 223q0 183 119 310.5t293 127.5q146 0 235.5 -83t89.5 -222q0 -183 -117 -311t-292 -128z"/>
<glyph glyph-name="multiply" horiz-adv-x="666" unicode="×" d="M162 531l171 -171l170 171l57 -56l-170 -171l172 -173l-59 -58l-171 170l-170 -170l-58 58l172 170l-171 174z"/>
<glyph glyph-name="Oslash" horiz-adv-x="831" unicode="Ø" d="M615 588q-59 54 -155 54q-89 0 -160 -50t-108 -128.5t-37 -166.5q0 -68 28 -118zM650 548l-436 -414q62 -67 169 -67q135 0 220 103.5t85 241.5q0 78 -38 136zM686 656l86 81l36 -39l-84 -80q66 -79 66 -197q0 -183 -117 -311t-292 -128q-149 0 -239 84l-94 -89l-39 38 l97 92q-53 76 -53 181q0 183 119 310.5t293 127.5q132 0 221 -70z"/>
<glyph glyph-name="Ugrave" horiz-adv-x="712" unicode="Ù" d="M402 764l-137 144h110l100 -144h-73zM317 -18q-120 0 -184.5 61.5t-64.5 156.5q0 30 6 62l78 446h98l-78 -440q-5 -28 -5 -53q0 -65 37 -106.5t116 -41.5q170 0 206 201l77 440h98l-78 -446q-10 -57 -31.5 -104.5t-57 -88.5t-91 -64t-126.5 -23z"/>
<glyph glyph-name="Uacute" horiz-adv-x="712" unicode="Ú" d="M605 908l-162 -144h-74l125 144h111zM317 -18q-120 0 -184.5 61.5t-64.5 156.5q0 30 6 62l78 446h98l-78 -440q-5 -28 -5 -53q0 -65 37 -106.5t116 -41.5q170 0 206 201l77 440h98l-78 -446q-10 -57 -31.5 -104.5t-57 -88.5t-91 -64t-126.5 -23z"/>
<glyph glyph-name="Ucircumflex" horiz-adv-x="712" unicode="Û" d="M515 908l86 -144h-86l-59 99l-94 -99h-91l138 144h106zM317 -18q-120 0 -184.5 61.5t-64.5 156.5q0 30 6 62l78 446h98l-78 -440q-5 -28 -5 -53q0 -65 37 -106.5t116 -41.5q170 0 206 201l77 440h98l-78 -446q-10 -57 -31.5 -104.5t-57 -88.5t-91 -64t-126.5 -23z"/>
<glyph glyph-name="Udieresis" horiz-adv-x="712" unicode="Ü" d="M406 847q0 -25 -16.5 -42.5t-41.5 -17.5q-26 0 -42.5 15.5t-16.5 41.5t18 43.5t43 17.5q24 0 40 -15.5t16 -42.5zM604 847q0 -25 -17 -42.5t-42 -17.5t-41.5 15.5t-16.5 41.5t18 43.5t43 17.5q24 0 40 -15.5t16 -42.5zM317 -18q-120 0 -184.5 61.5t-64.5 156.5q0 30 6 62 l78 446h98l-78 -440q-5 -28 -5 -53q0 -65 37 -106.5t116 -41.5q170 0 206 201l77 440h98l-78 -446q-10 -57 -31.5 -104.5t-57 -88.5t-91 -64t-126.5 -23z"/>
<glyph glyph-name="Yacute" horiz-adv-x="560" unicode="Ý" d="M549 908l-162 -144h-74l125 144h111zM322 306l-54 -306h-98l54 306l-178 402h111l130 -322l259 322h120z"/>
<glyph glyph-name="Thorn" d="M215 479l-42 -232h112q86 0 133 32t47 94q0 106 -144 106h-106zM159 165l-29 -165h-97l125 708h97l-26 -146h105q109 0 169 -47t60 -131q0 -107 -77 -163t-206 -56h-121z" unicode="Þ"/>
<glyph glyph-name="germandbls" horiz-adv-x="610" unicode="ß" d="M210 522l-93 -522h-92l93 526q9 49 25 89t44 76t73.5 56.5t104.5 20.5q85 0 139 -47t54 -123q0 -65 -38.5 -109.5t-101.5 -60.5v-2q61 -14 98 -62.5t37 -114.5q0 -116 -78 -188.5t-202 -72.5q-42 0 -77 8l14 78q24 -7 60 -7q80 0 133.5 45.5t53.5 134.5q0 60 -42.5 97.5 t-107.5 37.5h-11l15 81h11q59 0 100.5 32.5t41.5 92.5q0 44 -28 71t-75 27q-123 0 -151 -164z"/>
<glyph glyph-name="agrave" horiz-adv-x="537" unicode="à" d="M280 564l-137 144h110l100 -144h-73zM360 228h-15q-236 0 -236 -100q0 -67 87 -67q61 0 104 38t53 94zM370 296q4 25 4 37q0 79 -100 79q-76 0 -142 -52l-38 62q81 65 193 65q75 0 125.5 -34.5t50.5 -105.5q0 -22 -4 -48l-35 -192q-11 -68 -11 -107h-85q0 33 6 66h-2 q-65 -76 -168 -76q-58 0 -102.5 30t-44.5 95q0 181 353 181z"/>
<glyph glyph-name="aacute" horiz-adv-x="537" unicode="á" d="M486 708l-162 -144h-74l125 144h111zM360 228h-15q-236 0 -236 -100q0 -67 87 -67q61 0 104 38t53 94zM370 296q4 25 4 37q0 79 -100 79q-76 0 -142 -52l-38 62q81 65 193 65q75 0 125.5 -34.5t50.5 -105.5q0 -22 -4 -48l-35 -192q-11 -68 -11 -107h-85q0 33 6 66h-2 q-65 -76 -168 -76q-58 0 -102.5 30t-44.5 95q0 181 353 181z"/>
<glyph glyph-name="acircumflex" horiz-adv-x="537" unicode="â" d="M391 708l86 -144h-86l-59 99l-94 -99h-91l138 144h106zM360 228h-15q-236 0 -236 -100q0 -67 87 -67q61 0 104 38t53 94zM370 296q4 25 4 37q0 79 -100 79q-76 0 -142 -52l-38 62q81 65 193 65q75 0 125.5 -34.5t50.5 -105.5q0 -22 -4 -48l-35 -192q-11 -68 -11 -107h-85 q0 33 6 66h-2q-65 -76 -168 -76q-58 0 -102.5 30t-44.5 95q0 181 353 181z"/>
<glyph glyph-name="atilde" horiz-adv-x="537" unicode="ã" d="M187 572h-55q40 115 123 115q33 0 72 -21q44 -21 63 -21q35 0 55 47h55q-42 -115 -123 -115q-25 0 -69 20q-42 22 -65 22q-34 0 -56 -47zM360 228h-15q-236 0 -236 -100q0 -67 87 -67q61 0 104 38t53 94zM370 296q4 25 4 37q0 79 -100 79q-76 0 -142 -52l-38 62 q81 65 193 65q75 0 125.5 -34.5t50.5 -105.5q0 -22 -4 -48l-35 -192q-11 -68 -11 -107h-85q0 33 6 66h-2q-65 -76 -168 -76q-58 0 -102.5 30t-44.5 95q0 181 353 181z"/>
<glyph glyph-name="adieresis" horiz-adv-x="537" unicode="ä" d="M476 647q0 -25 -17 -42.5t-42 -17.5t-41.5 15.5t-16.5 41.5t18 43.5t43 17.5q24 0 40 -15.5t16 -42.5zM278 647q0 -25 -16.5 -42.5t-41.5 -17.5q-26 0 -42.5 15.5t-16.5 41.5t18 43.5t43 17.5q24 0 40 -15.5t16 -42.5zM360 228h-15q-236 0 -236 -100q0 -67 87 -67 q61 0 104 38t53 94zM370 296q4 25 4 37q0 79 -100 79q-76 0 -142 -52l-38 62q81 65 193 65q75 0 125.5 -34.5t50.5 -105.5q0 -22 -4 -48l-35 -192q-11 -68 -11 -107h-85q0 33 6 66h-2q-65 -76 -168 -76q-58 0 -102.5 30t-44.5 95q0 181 353 181z"/>
<glyph glyph-name="aring" horiz-adv-x="537" unicode="å" d="M378 663q0 22 -13.5 36.5t-35.5 14.5q-29 0 -47.5 -21t-18.5 -52q0 -22 13 -36t35 -14q29 0 48 21t19 51zM308 553q-38 0 -62.5 23.5t-24.5 59.5q0 48 31.5 81.5t79.5 33.5q39 0 63 -23t24 -59q0 -49 -31.5 -82.5t-79.5 -33.5zM360 228h-15q-236 0 -236 -100 q0 -67 87 -67q61 0 104 38t53 94zM370 296q4 25 4 37q0 79 -100 79q-76 0 -142 -52l-38 62q81 65 193 65q75 0 125.5 -34.5t50.5 -105.5q0 -22 -4 -48l-35 -192q-11 -68 -11 -107h-85q0 33 6 66h-2q-65 -76 -168 -76q-58 0 -102.5 30t-44.5 95q0 181 353 181z"/>
<glyph glyph-name="ae" horiz-adv-x="885" unicode="æ" d="M457 277h278q2 18 2 30q0 47 -31.5 77t-86.5 30q-62 0 -106 -41t-56 -96zM360 209h-24q-107 0 -166.5 -17.5t-59.5 -63.5q0 -67 88 -67q65 0 107 35.5t52 94.5zM446 400q28 38 76.5 62.5t103.5 24.5q91 0 144.5 -50t53.5 -138q0 -49 -11 -90h-366q-2 -12 -2 -16 q0 -56 38 -92.5t96 -36.5q89 0 149 72l55 -52q-86 -97 -214 -97q-63 0 -112.5 29.5t-69.5 78.5q-61 -105 -205 -105q-41 0 -76 10.5t-62 40t-27 75.5q0 36 14 63t41 44t58 28.5t74.5 16.5t80.5 7t86 2q8 38 8 55q0 80 -99 80q-77 0 -143 -52l-38 62q81 65 193 65 q126 0 154 -87z"/>
<glyph glyph-name="ccedilla" horiz-adv-x="496" unicode="ç" d="M491 407l-72 -54q-12 25 -41 41t-63 16q-81 0 -134.5 -61t-53.5 -146q0 -60 35.5 -99t100.5 -39q76 0 130 57l56 -52q-80 -80 -185 -83l-48 -57q10 3 26 3q32 0 57 -17t25 -54q0 -50 -41 -73.5t-91 -23.5q-61 0 -104 23l24 42q34 -17 76 -17q65 0 65 43q0 37 -48 37 q-19 0 -42 -7l-17 20l70 84q-85 10 -134 64.5t-49 137.5q0 122 80 208.5t207 86.5q55 0 101.5 -20t69.5 -60z"/>
<glyph glyph-name="egrave" horiz-adv-x="565" unicode="è" d="M303 564l-137 144h110l100 -144h-73zM132 277h283q2 18 2 30q0 47 -31 77t-86 30q-64 0 -109.5 -41t-58.5 -96zM494 209h-372q-1 -6 -1 -16q0 -56 39.5 -92.5t98.5 -36.5q91 0 149 72l55 -52q-85 -97 -213 -97q-97 0 -158.5 56t-61.5 154q0 120 80 205t197 85 q91 0 144 -50t53 -138q0 -47 -10 -90z"/>
<glyph glyph-name="eacute" horiz-adv-x="565" unicode="é" d="M492 708l-162 -144h-74l125 144h111zM132 277h283q2 18 2 30q0 47 -31 77t-86 30q-64 0 -109.5 -41t-58.5 -96zM494 209h-372q-1 -6 -1 -16q0 -56 39.5 -92.5t98.5 -36.5q91 0 149 72l55 -52q-85 -97 -213 -97q-97 0 -158.5 56t-61.5 154q0 120 80 205t197 85 q91 0 144 -50t53 -138q0 -47 -10 -90z"/>
<glyph glyph-name="ecircumflex" horiz-adv-x="565" unicode="ê" d="M413 708l86 -144h-86l-59 99l-94 -99h-91l138 144h106zM132 277h283q2 18 2 30q0 47 -31 77t-86 30q-64 0 -109.5 -41t-58.5 -96zM494 209h-372q-1 -6 -1 -16q0 -56 39.5 -92.5t98.5 -36.5q91 0 149 72l55 -52q-85 -97 -213 -97q-97 0 -158.5 56t-61.5 154q0 120 80 205 t197 85q91 0 144 -50t53 -138q0 -47 -10 -90z"/>
<glyph glyph-name="edieresis" horiz-adv-x="565" unicode="ë" d="M500 647q0 -25 -17 -42.5t-42 -17.5t-41.5 15.5t-16.5 41.5t18 43.5t43 17.5q24 0 40 -15.5t16 -42.5zM302 647q0 -25 -16.5 -42.5t-41.5 -17.5q-26 0 -42.5 15.5t-16.5 41.5t18 43.5t43 17.5q24 0 40 -15.5t16 -42.5zM132 277h283q2 18 2 30q0 47 -31 77t-86 30 q-64 0 -109.5 -41t-58.5 -96zM494 209h-372q-1 -6 -1 -16q0 -56 39.5 -92.5t98.5 -36.5q91 0 149 72l55 -52q-85 -97 -213 -97q-97 0 -158.5 56t-61.5 154q0 120 80 205t197 85q91 0 144 -50t53 -138q0 -47 -10 -90z"/>
<glyph glyph-name="igrave" horiz-adv-x="259" unicode="ì" d="M138 564l-137 144h110l100 -144h-73zM205 474l-84 -474h-92l83 474h93z"/>
<glyph glyph-name="iacute" horiz-adv-x="259" unicode="í" d="M351 707l-162 -144h-74l125 144h111zM205 474l-84 -474h-92l83 474h93z"/>
<glyph glyph-name="icircumflex" horiz-adv-x="259" unicode="î" d="M251 708l86 -144h-86l-59 99l-94 -99h-91l138 144h106zM205 474l-84 -474h-92l83 474h93z"/>
<glyph glyph-name="idieresis" horiz-adv-x="259" unicode="ï" d="M346 647q0 -25 -17 -42.5t-42 -17.5t-41.5 15.5t-16.5 41.5t18 43.5t43 17.5q24 0 40 -15.5t16 -42.5zM148 647q0 -25 -16.5 -42.5t-41.5 -17.5q-26 0 -42.5 15.5t-16.5 41.5t18 43.5t43 17.5q24 0 40 -15.5t16 -42.5zM205 474l-84 -474h-92l83 474h93z"/>
<glyph glyph-name="eth" horiz-adv-x="600" unicode="ð" d="M449 273q0 60 -37 98.5t-99 38.5q-79 0 -131.5 -61.5t-52.5 -146.5q0 -61 36.5 -99t98.5 -38q81 0 133 61t52 147zM315 487q83 0 129 -46l3 2q-38 108 -110 178l-119 -54l-40 47l120 53q-25 28 -77 70l79 45q46 -38 80 -78l117 53l43 -45l-119 -54q126 -146 126 -340 q0 -63 -16.5 -120t-49.5 -105t-90.5 -77t-131.5 -29q-98 0 -161 58t-63 149q0 119 78.5 206t201.5 87z"/>
<glyph glyph-name="ntilde" horiz-adv-x="581" unicode="ñ" d="M215 572h-55q40 115 123 115q33 0 72 -21q44 -21 63 -21q35 0 55 47h55q-42 -115 -123 -115q-25 0 -69 20q-42 22 -65 22q-34 0 -56 -47zM108 474h88q-6 -55 -10 -77h2q58 90 158 90q76 0 117.5 -40.5t41.5 -105.5q0 -25 -4 -48l-52 -293h-93l46 262q6 27 6 53 q0 93 -92 93q-55 0 -96.5 -42.5t-54.5 -113.5l-44 -252h-93l65 371q10 50 15 103z"/>
<glyph glyph-name="ograve" horiz-adv-x="600" unicode="ò" d="M313 564l-137 144h110l100 -144h-73zM445 273q0 60 -37 98.5t-99 38.5q-80 0 -132.5 -61.5t-52.5 -146.5q0 -60 36.5 -98.5t99.5 -38.5q80 0 132.5 61t52.5 147zM255 -13q-98 0 -161.5 58t-63.5 149q0 121 80 207t205 86q99 0 161.5 -57t62.5 -148q0 -123 -79.5 -209 t-204.5 -86z"/>
<glyph glyph-name="oacute" horiz-adv-x="600" unicode="ó" d="M511 708l-162 -144h-74l125 144h111zM445 273q0 60 -37 98.5t-99 38.5q-80 0 -132.5 -61.5t-52.5 -146.5q0 -60 36.5 -98.5t99.5 -38.5q80 0 132.5 61t52.5 147zM255 -13q-98 0 -161.5 58t-63.5 149q0 121 80 207t205 86q99 0 161.5 -57t62.5 -148q0 -123 -79.5 -209 t-204.5 -86z"/>
<glyph glyph-name="ocircumflex" horiz-adv-x="600" unicode="ô" d="M429 708l86 -144h-86l-59 99l-94 -99h-91l138 144h106zM445 273q0 60 -37 98.5t-99 38.5q-80 0 -132.5 -61.5t-52.5 -146.5q0 -60 36.5 -98.5t99.5 -38.5q80 0 132.5 61t52.5 147zM255 -13q-98 0 -161.5 58t-63.5 149q0 121 80 207t205 86q99 0 161.5 -57t62.5 -148 q0 -123 -79.5 -209t-204.5 -86z"/>
<glyph glyph-name="otilde" horiz-adv-x="600" unicode="õ" d="M220 572h-55q40 115 123 115q34 0 72 -21q44 -21 63 -21q35 0 55 47h55q-42 -115 -123 -115q-25 0 -69 20q-42 22 -65 22q-34 0 -56 -47zM445 273q0 60 -37 98.5t-99 38.5q-80 0 -132.5 -61.5t-52.5 -146.5q0 -60 36.5 -98.5t99.5 -38.5q80 0 132.5 61t52.5 147zM255 -13 q-98 0 -161.5 58t-63.5 149q0 121 80 207t205 86q99 0 161.5 -57t62.5 -148q0 -123 -79.5 -209t-204.5 -86z"/>
<glyph glyph-name="odieresis" horiz-adv-x="600" unicode="ö" d="M510 647q0 -25 -17 -42.5t-42 -17.5t-41.5 15.5t-16.5 41.5t18 43.5t43 17.5q24 0 40 -15.5t16 -42.5zM312 647q0 -25 -16.5 -42.5t-41.5 -17.5q-26 0 -42.5 15.5t-16.5 41.5t18 43.5t43 17.5q24 0 40 -15.5t16 -42.5zM445 273q0 60 -37 98.5t-99 38.5 q-80 0 -132.5 -61.5t-52.5 -146.5q0 -60 36.5 -98.5t99.5 -38.5q80 0 132.5 61t52.5 147zM255 -13q-98 0 -161.5 58t-63.5 149q0 121 80 207t205 86q99 0 161.5 -57t62.5 -148q0 -123 -79.5 -209t-204.5 -86z"/>
<glyph glyph-name="divide" horiz-adv-x="666" unicode="÷" d="M398 469q0 -27 -19 -46t-46 -19t-46 19t-19 46q0 26 19 45.5t46 19.5t46 -19.5t19 -45.5zM398 132q0 -27 -19 -46t-46 -19t-46 19t-19 46q0 26 19 45.5t46 19.5t46 -19.5t19 -45.5zM596 344v-82h-526v82h526z"/>
<glyph glyph-name="oslash" horiz-adv-x="600" unicode="ø" d="M394 384q-36 26 -85 26q-80 0 -132.5 -61.5t-52.5 -146.5q0 -37 13 -63zM428 343l-259 -248q36 -30 91 -30q80 0 132.5 61t52.5 147q0 39 -17 70zM497 408q42 -53 42 -126q0 -123 -79.5 -209t-204.5 -86q-88 0 -150 48l-60 -58l-39 38l62 59q-38 51 -38 120q0 121 80 207 t205 86q84 0 143 -42l57 54l36 -39z"/>
<glyph glyph-name="ugrave" horiz-adv-x="581" unicode="ù" d="M299 564l-137 144h110l100 -144h-73zM440 0h-88l10 77h-2q-57 -90 -158 -90q-75 0 -117 40.5t-42 106.5q0 20 5 47l52 293h92l-46 -261q-5 -32 -5 -54q0 -93 91 -93q56 0 97.5 43t53.5 113l45 252h92l-65 -371q-10 -50 -15 -103z"/>
<glyph glyph-name="uacute" horiz-adv-x="581" unicode="ú" d="M506 708l-162 -144h-74l125 144h111zM440 0h-88l10 77h-2q-57 -90 -158 -90q-75 0 -117 40.5t-42 106.5q0 20 5 47l52 293h92l-46 -261q-5 -32 -5 -54q0 -93 91 -93q56 0 97.5 43t53.5 113l45 252h92l-65 -371q-10 -50 -15 -103z"/>
<glyph glyph-name="ucircumflex" horiz-adv-x="581" unicode="û" d="M404 708l86 -144h-86l-59 99l-94 -99h-91l138 144h106zM440 0h-88l10 77h-2q-57 -90 -158 -90q-75 0 -117 40.5t-42 106.5q0 20 5 47l52 293h92l-46 -261q-5 -32 -5 -54q0 -93 91 -93q56 0 97.5 43t53.5 113l45 252h92l-65 -371q-10 -50 -15 -103z"/>
<glyph glyph-name="udieresis" horiz-adv-x="581" unicode="ü" d="M297 647q0 -25 -16.5 -42.5t-41.5 -17.5q-26 0 -42.5 15.5t-16.5 41.5t18 43.5t43 17.5t40.5 -15.5t15.5 -42.5zM495 647q0 -25 -17 -42.5t-42 -17.5t-41.5 15.5t-16.5 41.5t18 43.5t43 17.5t40.5 -15.5t15.5 -42.5zM440 0h-88l10 77h-2q-57 -90 -158 -90 q-75 0 -117 40.5t-42 106.5q0 20 5 47l52 293h92l-46 -261q-5 -32 -5 -54q0 -93 91 -93q56 0 97.5 43t53.5 113l45 252h92l-65 -371q-10 -50 -15 -103z"/>
<glyph glyph-name="yacute" horiz-adv-x="495" unicode="ý" d="M470 708l-162 -144h-74l125 144h111zM139 474l68 -373h2l210 373h100l-347 -586q-39 -66 -76 -97t-94 -31q-31 0 -59 7l13 82q22 -8 44 -8q30 0 51 18.5t46 60.5l47 80l-104 474h99z"/>
<glyph glyph-name="thorn" horiz-adv-x="633" unicode="þ" d="M475 272q0 60 -35 98.5t-97 38.5q-78 0 -133 -61.5t-55 -146.5q0 -61 37.5 -99.5t99.5 -38.5q81 0 132 60t51 149zM192 398q25 39 71.5 63.5t100.5 24.5q93 0 150 -56.5t57 -148.5q0 -123 -77 -208.5t-193 -85.5q-118 0 -165 90h-2l-55 -317h-93l175 996h93l-64 -358h2z "/>
<glyph glyph-name="OE" horiz-adv-x="988" unicode="Œ" d="M562 624h-82q-77 0 -140 -26.5t-102.5 -70.5t-61 -100t-21.5 -117q0 -99 63.5 -162t187.5 -63h61zM999 708l-15 -85h-327l-38 -215h312l-15 -82h-311l-43 -239h355l-15 -87h-519q-62 0 -119 17t-105 51t-77 93t-29 135q0 185 122 298.5t310 113.5h514z"/>
<glyph glyph-name="oe" horiz-adv-x="971" unicode="œ" d="M823 307q-1 47 -32 77.5t-85 30.5q-64 0 -110 -41.5t-59 -97.5h284q2 20 2 31zM445 273q0 60 -37 99t-99 39q-79 0 -132 -61.5t-53 -147.5q0 -61 36.5 -99.5t98.5 -38.5q80 0 133 61.5t53 147.5zM910 299q0 -48 -11 -89h-371q-2 -7 -2 -17q0 -56 39.5 -93t98.5 -37 q89 0 150 73l55 -51q-86 -98 -214 -98q-137 0 -190 106q-72 -106 -212 -106q-98 0 -160.5 57.5t-62.5 148.5q0 121 81.5 207.5t204.5 86.5q67 0 115.5 -28.5t72.5 -79.5q33 50 89 79t119 29q91 0 144.5 -50t53.5 -138z"/>
<glyph glyph-name="Scaron" horiz-adv-x="569" unicode="Š" d="M549 908l-137 -144h-106l-86 144h87l58 -99l94 99h90zM557 638l-76 -58q-43 64 -131 64q-57 0 -104.5 -32.5t-47.5 -93.5q0 -42 28.5 -66.5t85.5 -46.5q89 -33 137.5 -77.5t48.5 -119.5q0 -99 -72.5 -162.5t-192.5 -63.5q-71 0 -134.5 28.5t-96.5 81.5l82 55 q20 -36 61.5 -59t91.5 -23q65 0 111.5 35t46.5 97q0 50 -35 77.5t-103 52.5q-74 28 -116.5 69t-42.5 113q0 98 73.5 157.5t187.5 59.5q62 0 116 -23.5t82 -64.5z"/>
<glyph glyph-name="scaron" horiz-adv-x="444" unicode="š" d="M456 708l-137 -144h-106l-86 144h87l58 -99l94 99h90zM419 407l-72 -47q-31 53 -100 53q-39 0 -68.5 -16t-29.5 -50q0 -28 19.5 -41t65.5 -26q71 -21 106 -53.5t35 -87.5q0 -73 -58 -113.5t-137 -40.5q-135 0 -194 93l75 49q16 -30 48 -47.5t71 -17.5q45 0 74.5 18 t29.5 52q0 29 -22.5 45.5t-75.5 33.5q-63 20 -95 47.5t-32 80.5q0 68 57 108t138 40q55 0 99 -21t66 -59z"/>
<glyph glyph-name="Ydieresis" horiz-adv-x="560" unicode="Ÿ" d="M326 847q0 -25 -16.5 -42.5t-41.5 -17.5q-26 0 -42.5 15.5t-16.5 41.5t18 43.5t43 17.5q24 0 40 -15.5t16 -42.5zM524 847q0 -25 -17 -42.5t-42 -17.5t-41.5 15.5t-16.5 41.5t18 43.5t43 17.5q24 0 40 -15.5t16 -42.5zM322 306l-54 -306h-98l54 306l-178 402h111 l130 -322l259 322h120z"/>
<glyph glyph-name="circumflex" horiz-adv-x="250" unicode="ˆ" d="M249 708l86 -144h-86l-59 99l-94 -99h-91l138 144h106z"/>
<glyph glyph-name="tilde" horiz-adv-x="250" unicode="˜" d="M54 572h-55q40 115 123 115q34 0 72 -21q44 -21 63 -21q35 0 55 47h55q-42 -115 -123 -115q-25 0 -69 20q-42 22 -65 22q-34 0 -56 -47z"/>
<glyph glyph-name="uni0394" horiz-adv-x="685" unicode="Δ" d="M416 597l-317 -510h413zM-41 0l16 69l419 639h89l135 -639l-16 -69h-643z"/>
<glyph glyph-name="uni03BC" horiz-adv-x="600" unicode="μ" d="M521 71l-7 -71q-24 -8 -57 -8q-39 0 -60.5 20.5t-21.5 54.5q0 2 0.5 5.5t0.5 5.5h-2q-25 -41 -67.5 -66t-88.5 -25q-33 0 -57 12t-32 31h-2l-48 -270h-93l126 714h94l-47 -262q-5 -28 -5 -50q0 -96 89 -96q57 0 99 42t54 112l45 254h94l-66 -372q-1 -3 -1 -10 q0 -24 27 -24q13 0 26 3z"/>
<glyph glyph-name="pi" horiz-adv-x="673" unicode="π" d="M401 175l39 218h-161l-134 -393h-90l136 393h-117l14 81h570l-14 -81h-115l-42 -232q-5 -27 -5 -44q0 -49 55 -49q17 0 29 3l-7 -73q-18 -6 -51 -6q-55 0 -86 26.5t-31 73.5q0 29 10 83z"/>
<glyph glyph-name="endash" horiz-adv-x="400" unicode="–" d="M377 282l-14 -75h-340l14 75h340z"/>
<glyph glyph-name="emdash" horiz-adv-x="600" unicode="—" d="M577 282l-14 -75h-540l14 75h540z"/>
<glyph glyph-name="quoteleft" horiz-adv-x="245" unicode="‘" d="M69 459l127 249h78l-113 -249h-92z"/>
<glyph glyph-name="quotesinglbase" horiz-adv-x="245" unicode="‚" d="M170 116l-128 -249h-77l112 249h93z"/>
<glyph glyph-name="quotedblleft" horiz-adv-x="424" unicode="“" d="M273 708l-112 -249h-92l127 249h77zM453 708l-112 -249h-93l127 249h78z"/>
<glyph glyph-name="quotedblright" horiz-adv-x="424" unicode="”" d="M274 708l-127 -249h-78l113 249h92zM453 708l-127 -249h-78l113 249h92z"/>
<glyph glyph-name="dagger" horiz-adv-x="574" unicode="†" d="M402 708l-36 -203h202l-14 -78h-202l-97 -553h-89l97 553h-201l14 78h201l36 203h89z"/>
<glyph glyph-name="daggerdbl" horiz-adv-x="574" unicode="‡" d="M402 708l-33 -188h194l-14 -78h-194l-53 -301h194l-13 -78h-194l-34 -189h-89l33 189h-193l13 78h194l53 301h-194l14 78h193l34 188h89z"/>
<glyph glyph-name="ellipsis" horiz-adv-x="1000" unicode="…" d="M856 61q0 -26 -19 -46t-45 -20q-27 0 -45.5 17t-18.5 45t19.5 47t46.5 19t44.5 -17t17.5 -45zM522 61q0 -26 -19 -46t-45 -20q-27 0 -45.5 17t-18.5 45t19.5 47t46.5 19t44.5 -17t17.5 -45zM188 61q0 -26 -19 -46t-45 -20q-27 0 -45.5 17t-18.5 45t19.5 47t46.5 19 t44.5 -17t17.5 -45z"/>
<glyph glyph-name="perthousand" horiz-adv-x="1041" unicode="‰" d="M629 699l-524 -739l-57 39l526 739zM932 164q0 29 -18.5 49t-49.5 20q-40 0 -66 -29t-26 -72q0 -29 18.5 -48.5t48.5 -19.5q41 0 67 28.5t26 71.5zM1012 176q0 -79 -51 -132.5t-128 -53.5q-62 0 -102 37.5t-40 95.5q0 78 51.5 131t129.5 53q62 0 101 -36.5t39 -94.5z M578 164q0 29 -18.5 49t-49.5 20q-40 0 -66 -29t-26 -72q0 -29 18.5 -48.5t48.5 -19.5q41 0 67 28.5t26 71.5zM658 176q0 -79 -51 -132.5t-128 -53.5q-62 0 -102 37.5t-40 95.5q0 78 51.5 131t129.5 53q62 0 101 -36.5t39 -94.5zM282 578q0 29 -18.5 49t-49.5 20 q-40 0 -66 -29t-26 -72q0 -29 18.5 -48.5t48.5 -19.5q41 0 67 28.5t26 71.5zM362 590q0 -79 -51 -132.5t-128 -53.5q-62 0 -102 37.5t-40 95.5q0 78 51.5 131t129.5 53q62 0 101 -36.5t39 -94.5z"/>
<glyph glyph-name="guilsinglleft" horiz-adv-x="306" unicode="‹" d="M124 242l85 -173l-67 -43l-109 218l184 216l54 -43z"/>
<glyph glyph-name="guilsinglright" horiz-adv-x="306" unicode="›" d="M162 248l-85 173l66 39l110 -218l-185 -217l-54 46z"/>
<glyph glyph-name="fraction" horiz-adv-x="100" unicode="⁄" d="M359 707l-563 -739l-54 33l564 739z"/>
<glyph glyph-name="Euro" d="M574 614q-44 29 -119 29q-74 0 -133.5 -45.5t-92.5 -119.5h288l-35 -71h-279q-19 -55 -19 -107h253l-34 -71h-220q2 -73 53 -119t135 -46q68 0 132 38l21 -75q-71 -45 -166 -45q-125 0 -194.5 71t-73.5 176h-83l36 71h47q2 46 20 107h-70l37 71h55q42 109 130.5 178.5 t202.5 69.5q94 0 148 -33z" unicode="€"/>
<glyph glyph-name="trademark" horiz-adv-x="1000" unicode="™" d="M1009 708v-412h-82v307h-2l-119 -307h-55l-120 307h-2v-307h-81v412h118l113 -292l113 292h117zM465 708v-72h-127v-340h-81v340h-129v72h337z"/>
<glyph glyph-name="partialdiff" horiz-adv-x="523" unicode="∂" d="M391 271q-23 42 -60.5 66t-81.5 24q-62 0 -96.5 -44t-34.5 -108q0 -62 33 -108.5t94 -46.5q49 0 83.5 37.5t48 84t14.5 95.5zM481 360q0 -52 -5.5 -99.5t-21 -99t-41 -88.5t-69.5 -61t-101 -24q-94 0 -151 65t-57 160q0 93 55.5 154.5t147.5 61.5q89 0 156 -70 q0 6 0.5 20t0.5 21q0 43 -8 84t-26 80t-52.5 63t-80.5 24q-57 0 -116 -47l-47 55q78 62 159 62q71 0 123.5 -32.5t80 -87t40.5 -114.5t13 -127z"/>
<glyph glyph-name="product" horiz-adv-x="726" unicode="∏" d="M660 -214h-90v917h-413v-917h-91v1000h594v-1000z"/>
<glyph glyph-name="summation" horiz-adv-x="626" unicode="∑" d="M601 -214h-576v72l316 433l-303 422v73h551v-83h-432l292 -412l-311 -423h463v-82z"/>
<glyph glyph-name="minus" horiz-adv-x="666" unicode="−" d="M596 344v-82h-526v82h526z"/>
<glyph glyph-name="radical" horiz-adv-x="515" unicode="√" d="M526 786l-211 -1000h-86l-158 328l-48 -23l-33 70l124 58l144 -302l178 869h90z"/>
<glyph glyph-name="infinity" horiz-adv-x="778" unicode="∞" d="M754 263q0 -75 -43.5 -124.5t-117.5 -49.5q-54 0 -96.5 28t-88.5 79q-33 -35 -53.5 -54t-55.5 -35.5t-74 -16.5q-74 0 -119 48.5t-45 123.5q0 73 43.5 122t116.5 49q56 0 98.5 -29.5t88.5 -84.5q30 36 52.5 57t58.5 39.5t75 18.5q72 0 116 -49t44 -122zM361 259 q-28 26 -44.5 40.5t-47 31.5t-55.5 17q-35 0 -56.5 -26t-21.5 -62q0 -38 22 -61.5t60 -23.5q61 0 143 84zM681 260q0 38 -22 63.5t-60 25.5q-25 0 -54.5 -17t-45.5 -31.5t-43 -41.5q26 -25 43.5 -40t46.5 -29.5t56 -14.5q37 0 58 24t21 61z"/>
<glyph glyph-name="approxequal" horiz-adv-x="666" unicode="≈" d="M599 240q-7 -67 -40.5 -111t-96.5 -44q-44 0 -140 36q-99 35 -125 35q-29 0 -47.5 -22t-23.5 -52h-59q8 66 41 111t95 45q47 0 136 -35q97 -35 132 -35q57 0 70 72h58zM599 440q-7 -67 -40.5 -111t-96.5 -44q-44 0 -140 36q-99 35 -125 35q-29 0 -47.5 -22t-23.5 -52h-59 q8 66 41 111t95 45q47 0 136 -35q97 -35 132 -35q57 0 70 72h58z"/>
<glyph glyph-name="notequal" horiz-adv-x="666" unicode="≠" d="M552 108h-286l-77 -149l-73 38l58 111h-134v84h177l63 123h-240v84h284l77 149l74 -37l-59 -112h136v-84h-179l-64 -123h243v-84z"/>
<glyph glyph-name="lessequal" horiz-adv-x="666" unicode="≤" d="M589 8h-512v84h512v-84zM589 130l-512 179v86l512 183v-89l-397 -137l397 -134v-88z"/>
<glyph glyph-name="greaterequal" horiz-adv-x="666" unicode="≥" d="M589 8h-512v84h512v-84zM589 309l-512 -179v88l397 134l-397 137v89l512 -183v-86z"/>
<glyph glyph-name="lozenge" horiz-adv-x="593" unicode="◊" d="M424 356l-128 305l-127 -305l127 -305zM511 356l-174 -391h-82l-173 391l173 391h82z"/>
</font>
</defs>
</svg>
