<?xml version="1.0" encoding="UTF-8" standalone="no"?>
<!DOCTYPE svg  PUBLIC '-//W3C//DTD SVG 1.1//EN'  'http://www.w3.org/Graphics/SVG/1.1/DTD/svg11.dtd'>
<svg xmlns="http://www.w3.org/2000/svg">
<defs>
<font id="AvenirNextCyr-Medium" horiz-adv-x="595">
<font-face underline-position="125" font-weight="450" descent="-200" panose-1="2 11 6 3 2 2 2 2 2 4" units-per-em="1000" unicode-range="U+0020-25CA" bbox="-210 -250 1015 951" x-height="474" underline-thickness="50" font-family="AvenirNextCyr" ascent="800" cap-height="708"/>
<missing-glyph horiz-adv-x="1000"/>
<glyph glyph-name=".notdef" horiz-adv-x="1000"/>
<glyph glyph-name=".null" horiz-adv-x="1000"/>
<glyph glyph-name=".null" horiz-adv-x="1000"/>
<glyph glyph-name="nonmarkingreturn" horiz-adv-x="333"/>
<glyph glyph-name="space" horiz-adv-x="250" unicode=" "/>
<glyph glyph-name="exclam" horiz-adv-x="334" unicode="!" d="M234 60q0 -27 -19.5 -46.5t-47.5 -19.5t-47.5 19.5t-19.5 45.5q0 27 19.5 46.5t47.5 19.5t47.5 -19t19.5 -46zM216 708v-501h-99v501h99z"/>
<glyph glyph-name="quotedbl" horiz-adv-x="423" unicode='&quot;' d="M251 458v250h82v-250h-82zM90 458v250h82v-250h-82z"/>
<glyph glyph-name="numbersign" horiz-adv-x="574" unicode="#" d="M241 425l-20 -141h118l19 141h-117zM107 0l30 211h-96v73h106l19 141h-98v73h109l29 210h75l-30 -210h118l29 210h75l-30 -210h90v-73h-100l-20 -141h93v-73h-102l-30 -211h-75l30 211h-118l-30 -211h-74z"/>
<glyph glyph-name="dollar" d="M264 418v223q-45 -3 -75.5 -32.5t-30.5 -77.5q0 -82 106 -113zM315 309v-240q47 2 79.5 33t32.5 87q0 83 -112 120zM264 69v254q-44 13 -76 27.5t-62.5 37.5t-46.5 57.5t-16 79.5q0 84 58.5 136.5t142.5 57.5v70h51v-69q54 -1 107.5 -20.5t89.5 -55.5l-68 -63 q-46 58 -129 60v-238q46 -15 77 -30t64 -39t50 -60.5t17 -83.5q0 -91 -60 -145t-148 -56v-72h-51v72q-137 3 -223 99l73 62q26 -36 69 -58t81 -23z" unicode="$"/>
<glyph glyph-name="percent" horiz-adv-x="870" unicode="%" d="M686 707l-433 -739l-68 33l434 739zM312 543q0 39 -27.5 66.5t-66.5 27.5t-66.5 -27.5t-27.5 -66.5t27.5 -66.5t66.5 -27.5t66.5 27.5t27.5 66.5zM41 543q0 73 51.5 125t125.5 52t125.5 -52t51.5 -125t-51.5 -125t-125.5 -52t-125.5 52t-51.5 125zM746 165 q0 39 -27.5 66.5t-66.5 27.5t-66.5 -27.5t-27.5 -66.5t27.5 -66.5t66.5 -27.5t66.5 27.5t27.5 66.5zM475 165q0 73 51.5 125t125.5 52t125.5 -52t51.5 -125t-51.5 -125t-125.5 -52t-125.5 52t-51.5 125z"/>
<glyph glyph-name="ampersand" horiz-adv-x="723" unicode="&amp;" d="M430 156l-168 176q-114 -48 -114 -142q0 -54 39.5 -88.5t92.5 -34.5q90 0 150 89zM407 558q0 38 -25.5 64t-65.5 26q-41 0 -68 -26t-27 -68q0 -61 70 -123q116 51 116 127zM686 378l-136 -211l162 -167h-131l-88 93q-84 -106 -215 -106q-97 0 -163.5 53.5t-66.5 147.5 q0 132 159 205q-81 85 -81 162q0 81 55 126t134 45q78 0 130.5 -44t52.5 -122q0 -115 -152 -187l141 -145l89 150h110z"/>
<glyph glyph-name="quotesingle" horiz-adv-x="262" unicode="&apos;" d="M90 458v250h82v-250h-82z"/>
<glyph glyph-name="parenleft" horiz-adv-x="315" unicode="(" d="M119 288q0 -107 34.5 -212t94.5 -189l-68 -44q-68 91 -107 207t-39 238t39 238t107 207l68 -44q-60 -84 -94.5 -189t-34.5 -212z"/>
<glyph glyph-name="parenright" horiz-adv-x="315" unicode=")" d="M196 288q0 107 -34.5 212t-94.5 189l68 44q68 -91 107 -207t39 -238t-39 -238t-107 -207l-68 44q60 84 94.5 189t34.5 212z"/>
<glyph glyph-name="asterisk" horiz-adv-x="454" unicode="*" d="M262 579l127 41l27 -76l-127 -41l81 -109l-64 -48l-84 113l-84 -113l-64 48l81 109l-127 41l27 76l127 -41v129h80v-129z"/>
<glyph glyph-name="plus" horiz-adv-x="666" unicode="+" d="M374 566v-222h222v-82h-222v-222h-82v222h-222v82h222v222h82z"/>
<glyph glyph-name="comma" horiz-adv-x="260" unicode="," d="M197 117l-83 -250h-80l69 250h94z"/>
<glyph glyph-name="hyphen" horiz-adv-x="320" unicode="-" d="M276 284v-80h-232v80h232z"/>
<glyph glyph-name="period" horiz-adv-x="260" unicode="." d="M197 60q0 -27 -19.5 -46.5t-47.5 -19.5t-47.5 19.5t-19.5 45.5q0 27 19.5 46.5t47.5 19.5t47.5 -19t19.5 -46z"/>
<glyph glyph-name="slash" horiz-adv-x="380" unicode="/" d="M376 716l-307 -749l-71 24l307 751z"/>
<glyph glyph-name="zero" d="M298 645q-42 0 -71.5 -28t-44 -74t-21 -92.5t-6.5 -96.5q0 -51 6.5 -97t21 -92t44 -73.5t71.5 -27.5q41 0 70.5 27.5t44 73.5t21 92.5t6.5 96.5t-6.5 96.5t-21 92.5t-44 74t-70.5 28zM298 726q81 0 136.5 -51t80 -132.5t24.5 -188.5q0 -165 -60.5 -268.5t-180.5 -103.5 q-121 0 -181.5 103.5t-60.5 268.5q0 107 24.5 188.5t80.5 132.5t137 51z" unicode="0"/>
<glyph glyph-name="one" d="M379 708v-708h-97v590l-134 -112l-57 67l201 163h87z" unicode="1"/>
<glyph glyph-name="two" d="M522 87v-87h-462v93l282 280q78 80 78 150q0 54 -36 88t-90 34q-53 0 -88.5 -34t-44.5 -89l-95 16q13 82 76 135t153 53q94 0 159 -53t65 -148q0 -62 -29 -110.5t-85 -103.5l-230 -224h347z" unicode="2"/>
<glyph glyph-name="three" d="M213 330v80h31q69 0 113.5 27.5t44.5 90.5q0 52 -36.5 84.5t-88.5 32.5q-90 0 -124 -87l-88 31q26 64 83.5 100.5t132.5 36.5q93 0 155.5 -51t62.5 -141q0 -59 -35 -103t-90 -58v-2q64 -13 104 -59.5t40 -113.5q0 -101 -70 -158.5t-167 -57.5q-86 0 -149 39t-92 117 l90 30q16 -47 55.5 -75.5t93.5 -28.5q58 0 100 35.5t42 99.5q0 68 -52.5 99.5t-125.5 31.5h-30z" unicode="3"/>
<glyph glyph-name="four" d="M357 242v355h-2l-224 -355h226zM451 708v-466h102v-83h-102v-159h-94v159h-326v88l301 461h119z" unicode="4"/>
<glyph glyph-name="five" d="M490 708v-86h-292l-6 -186q38 13 91 13q104 0 170.5 -61t66.5 -162q0 -109 -70 -176.5t-177 -67.5q-81 0 -139 38t-87 104l88 35q17 -43 54 -69t84 -26q63 0 105.5 42.5t42.5 109.5q0 76 -47.5 115.5t-118.5 39.5q-82 0 -157 -39l10 376h382z" unicode="5"/>
<glyph glyph-name="six" d="M150 214q0 -63 41 -106.5t106 -43.5t105.5 42.5t40.5 108.5q0 65 -40 106.5t-105 41.5q-66 0 -107 -41.5t-41 -107.5zM421 708l-190 -285l1 -2q32 19 88 19q94 0 157.5 -63t63.5 -159q0 -105 -69.5 -170.5t-174.5 -65.5q-106 0 -175.5 66t-69.5 167q0 92 69 201l185 292 h115z" unicode="6"/>
<glyph glyph-name="seven" d="M515 708v-88l-284 -620h-111l295 622h-351v86h451z" unicode="7"/>
<glyph glyph-name="eight" d="M159 198q0 -60 38.5 -97.5t100.5 -37.5q60 0 99 37.5t39 97.5q0 58 -39 96t-99 38q-61 0 -100 -37.5t-39 -96.5zM182 530q0 -49 33 -82t83 -33q48 0 82 33.5t34 81.5q0 50 -34 83t-82 33q-50 0 -83 -32.5t-33 -83.5zM401 373q58 -15 96 -64t38 -116q0 -96 -68.5 -153.5 t-168.5 -57.5q-101 0 -169.5 57t-68.5 154q0 68 38 116t96 64v2q-49 17 -79 59t-30 99q0 86 61.5 139.5t151.5 53.5t151 -52.5t61 -138.5q0 -57 -30 -100.5t-79 -59.5v-2z" unicode="8"/>
<glyph glyph-name="nine" d="M446 494q0 64 -41 107.5t-106 43.5t-106 -43t-41 -109q0 -65 40.5 -106.5t105.5 -41.5q66 0 107 41.5t41 107.5zM175 0l190 286l-1 1q-15 -9 -41 -14q-27 -5 -48 -5q-94 0 -157.5 63t-63.5 159q0 105 69.5 170.5t175.5 65.5q105 0 174.5 -66.5t69.5 -166.5 q0 -91 -68 -201l-185 -292h-115z" unicode="9"/>
<glyph glyph-name="colon" horiz-adv-x="300" unicode=":" d="M217 60q0 -27 -19.5 -46.5t-47.5 -19.5t-47.5 19.5t-19.5 45.5q0 27 19.5 46.5t47.5 19.5t47.5 -19t19.5 -46zM217 415q0 -27 -19.5 -46.5t-47.5 -19.5t-47.5 19t-19.5 46t19.5 46.5t47.5 19.5t47.5 -19t19.5 -46z"/>
<glyph glyph-name="semicolon" horiz-adv-x="300" unicode=";" d="M206 117l-83 -250h-80l69 250h94zM217 415q0 -27 -19.5 -46.5t-47.5 -19.5t-47.5 19t-19.5 46t19.5 46.5t47.5 19.5t47.5 -19t19.5 -46z"/>
<glyph glyph-name="less" horiz-adv-x="666" unicode="&lt;" d="M589 564v-85l-385 -176l383 -176v-85l-508 231v60z"/>
<glyph glyph-name="equal" horiz-adv-x="666" unicode="=" d="M70 261h526v-81h-526v81zM70 426h526v-81h-526v81z"/>
<glyph glyph-name="greater" horiz-adv-x="666" unicode="&gt;" d="M79 479v85l508 -231v-60l-508 -231v85l383 176z"/>
<glyph glyph-name="question" horiz-adv-x="500" unicode="?" d="M326 60q0 -27 -19.5 -46.5t-47.5 -19.5t-47.5 19.5t-19.5 45.5q0 27 19.5 46.5t47.5 19.5t47.5 -19t19.5 -46zM301 236v-35h-94v48q0 49 17.5 81.5t55.5 67.5l37 35q51 44 51 99q0 48 -30.5 76.5t-78.5 28.5t-79 -31.5t-36 -78.5l-96 11q13 85 72 135t145 50 q87 0 145 -49t58 -136q0 -58 -22.5 -93t-73.5 -78q-43 -37 -57 -60.5t-14 -70.5z"/>
<glyph glyph-name="at" horiz-adv-x="800" unicode="@" d="M682 155l46 -53q-114 -120 -313 -120q-171 0 -276.5 103.5t-105.5 267.5q0 159 111.5 266t270.5 107q70 0 132.5 -20.5t112.5 -59t79.5 -101t29.5 -140.5q0 -115 -57 -180t-139 -65q-40 0 -63.5 20t-23.5 50h-5q-14 -27 -47 -48.5t-76 -21.5q-67 0 -105.5 45t-38.5 118 q0 89 56 157.5t142 68.5q37 0 64.5 -16t36.5 -41h2l9 42h76l-39 -188q-10 -45 -10 -71q0 -45 40 -45q44 0 72 47t28 120q0 122 -76.5 189.5t-200.5 67.5q-130 0 -212 -86t-82 -217q0 -135 84 -216t219 -81q152 0 259 101zM412 478q-50 0 -80 -49.5t-30 -108.5 q0 -34 16.5 -61.5t55.5 -27.5q38 0 65 26.5t37 59t10 65.5q0 96 -74 96z"/>
<glyph glyph-name="A" horiz-adv-x="711" unicode="A" d="M354 593l-133 -332h265zM186 174l-71 -174h-110l307 708h90l304 -708h-112l-72 174h-336z"/>
<glyph glyph-name="B" horiz-adv-x="642" unicode="B" d="M185 325v-241h124q47 0 84 10t64.5 38.5t27.5 73.5q0 119 -167 119h-133zM185 625v-216h129q61 0 100 27.5t39 82.5q0 106 -155 106h-113zM86 0v708h244q92 0 157 -43t65 -136q0 -57 -33.5 -98t-90.5 -56v-2q70 -8 113.5 -54t43.5 -118q0 -98 -74.5 -149.5t-191.5 -51.5 h-233z"/>
<glyph glyph-name="C" horiz-adv-x="708" unicode="C" d="M614 164l79 -54q-94 -128 -270 -128q-163 0 -268 105t-105 268q0 164 107 267.5t270 103.5q76 0 146 -29t108 -81l-78 -60q-26 37 -74 60t-102 23q-120 0 -194.5 -82t-74.5 -202q0 -122 73 -203.5t193 -81.5q125 0 190 94z"/>
<glyph glyph-name="D" horiz-adv-x="761" unicode="D" d="M185 622v-535h124q131 0 213.5 71.5t82.5 195.5q0 128 -82 198t-214 70h-124zM86 0v708h243q71 0 136.5 -20.5t121.5 -61.5t90 -111.5t34 -160.5q0 -87 -34 -157t-89.5 -111.5t-122 -63.5t-136.5 -22h-243z"/>
<glyph glyph-name="E" horiz-adv-x="601" unicode="E" d="M185 324v-236h370v-88h-469v708h454v-87h-355v-212h334v-85h-334z"/>
<glyph glyph-name="F" horiz-adv-x="568" unicode="F" d="M185 316v-316h-99v708h442v-87h-343v-220h321v-85h-321z"/>
<glyph glyph-name="G" horiz-adv-x="778" unicode="G" d="M689 634l-69 -72q-70 77 -192 77q-121 0 -195.5 -82t-74.5 -202q0 -122 74.5 -203t198.5 -81q100 0 165 35v197h-157v84h255v-343q-115 -62 -266 -62q-166 0 -272 104.5t-106 268.5t107 267.5t270 103.5q167 0 262 -92z"/>
<glyph glyph-name="H" horiz-adv-x="729" unicode="H" d="M86 0v708h99v-296h358v296h100v-708h-100v324h-358v-324h-99z"/>
<glyph glyph-name="I" horiz-adv-x="271" unicode="I" d="M185 708v-708h-99v708h99z"/>
<glyph glyph-name="J" horiz-adv-x="495" unicode="J" d="M15 132l92 26q8 -39 35.5 -63.5t66.5 -24.5q107 0 107 151v487h99v-491q0 -32 -5 -62t-18.5 -62.5t-35 -56t-58 -39t-84.5 -15.5q-79 0 -131 41t-68 109z"/>
<glyph glyph-name="K" horiz-adv-x="659" unicode="K" d="M185 708v-312h2l316 312h137l-344 -324l365 -384h-142l-332 366h-2v-366h-99v708h99z"/>
<glyph glyph-name="L" horiz-adv-x="511" unicode="L" d="M185 708v-620h316v-88h-415v708h99z"/>
<glyph glyph-name="M" horiz-adv-x="903" unicode="M" d="M240 708l212 -544h2l209 544h154v-708h-99v592h-2l-235 -592h-63l-234 592h-2v-592h-96v708h154z"/>
<glyph glyph-name="N" horiz-adv-x="772" unicode="N" d="M215 708l370 -566h2v566h99v-708h-125l-374 578h-2v-578h-99v708h129z"/>
<glyph glyph-name="O" horiz-adv-x="849" unicode="O" d="M693 355q0 120 -74 202t-195 82q-119 0 -193 -82t-74 -202q0 -121 74 -202.5t193 -81.5q121 0 195 81.5t74 202.5zM800 355q0 -163 -106.5 -268t-269.5 -105q-162 0 -268 105t-106 268q0 164 105.5 267.5t268.5 103.5t269.5 -103.5t106.5 -267.5z"/>
<glyph glyph-name="P" d="M185 624v-229h105q165 0 165 116q0 113 -163 113h-107zM86 0v708h216q119 0 186 -48.5t67 -148.5q0 -102 -70.5 -151t-187.5 -49h-112v-311h-99z" unicode="P"/>
<glyph glyph-name="Q" horiz-adv-x="846" unicode="Q" d="M157 363q0 -119 72 -197.5t189 -78.5q115 0 188 79t73 197q0 117 -71.5 196.5t-188.5 79.5t-189.5 -80t-72.5 -196zM834 83v-83h-416q-163 0 -265.5 99.5t-102.5 263.5q0 159 104.5 261t264.5 102q158 0 262 -102t104 -261q0 -92 -39.5 -164t-106.5 -114v-2h195z"/>
<glyph glyph-name="R" horiz-adv-x="614" unicode="R" d="M185 624v-226h114q166 0 166 114q0 112 -159 112h-121zM185 315v-315h-99v708h227q112 0 182 -47t70 -149q0 -76 -47 -125t-125 -62l198 -325h-120l-180 315h-106z"/>
<glyph glyph-name="S" horiz-adv-x="569" unicode="S" d="M508 645l-70 -68q-22 30 -58.5 48t-79.5 18q-54 0 -96 -29.5t-42 -85.5q0 -28 10 -47.5t34 -34t43 -22t58 -20.5q39 -12 59.5 -19.5t53.5 -25.5t50.5 -37.5t31 -51.5t13.5 -73q0 -104 -71.5 -159.5t-173.5 -55.5q-69 0 -131.5 26.5t-101.5 76.5l77 65q25 -37 67.5 -60 t90.5 -23q56 0 99 31.5t43 89.5q0 25 -10 45t-22 32t-39 24.5t-43.5 18.5t-53.5 17q-40 13 -67.5 25.5t-57 35t-44.5 57.5t-15 81q0 67 37 114.5t90.5 67.5t115.5 20q61 0 115.5 -22t87.5 -59z"/>
<glyph glyph-name="T" horiz-adv-x="569" unicode="T" d="M334 621v-621h-99v621h-227v87h553v-87h-227z"/>
<glyph glyph-name="U" horiz-adv-x="712" unicode="U" d="M356 -18q-133 0 -204 81.5t-71 198.5v446h99v-440q0 -83 42.5 -140t133.5 -57t133.5 57t42.5 140v440h99v-446q0 -117 -71 -198.5t-204 -81.5z"/>
<glyph glyph-name="V" horiz-adv-x="642" unicode="V" d="M108 708l213 -580h3l213 580h107l-278 -708h-92l-276 708h110z"/>
<glyph glyph-name="W" horiz-adv-x="988" unicode="W" d="M117 708l156 -564h2l166 564h109l165 -564h2l156 564h105l-208 -708h-103l-172 569h-2l-172 -569h-103l-208 708h107z"/>
<glyph glyph-name="X" horiz-adv-x="668" unicode="X" d="M164 708l170 -264l168 264h116l-226 -335l257 -373h-125l-194 298l-190 -298h-122l253 375l-228 333h121z"/>
<glyph glyph-name="Y" horiz-adv-x="624" unicode="Y" d="M362 306v-306h-100v306l-265 402h122l196 -320l197 320h115z"/>
<glyph glyph-name="Z" horiz-adv-x="592" unicode="Z" d="M553 708v-87l-400 -533h406v-88h-526v87l399 534h-391v87h512z"/>
<glyph glyph-name="bracketleft" horiz-adv-x="315" unicode="[" d="M236 732v-66h-93v-756h93v-66h-177v888h177z"/>
<glyph glyph-name="backslash" horiz-adv-x="380" unicode="\" d="M311 -33l-307 749l70 26l308 -751z"/>
<glyph glyph-name="bracketright" horiz-adv-x="315" unicode="]" d="M79 -156v66h93v756h-93v66h177v-888h-177z"/>
<glyph glyph-name="asciicircum" horiz-adv-x="666" unicode="^" d="M74 309l226 399h66l226 -399h-91l-169 300l-167 -300h-91z"/>
<glyph glyph-name="underscore" horiz-adv-x="500" unicode="_" d="M0 -138v63h500v-63h-500z"/>
<glyph glyph-name="grave" horiz-adv-x="250" unicode="`" d="M102 564l-136 144h113l100 -144h-77z"/>
<glyph glyph-name="a" horiz-adv-x="542" unicode="a" d="M376 226h-23q-211 0 -211 -90q0 -39 28 -56.5t69 -17.5q64 0 100.5 38.5t36.5 100.5v25zM376 294v13q0 51 -31.5 77.5t-85.5 26.5q-80 0 -135 -55l-50 60q74 71 194 71q98 0 148 -51.5t50 -134.5v-207q0 -62 7 -94h-85q-8 34 -8 68h-3q-53 -80 -159 -80q-30 0 -59 8 t-55 24t-42 45.5t-16 68.5q0 41 19.5 71.5t49.5 47t76.5 26t88 12.5t96.5 3z"/>
<glyph glyph-name="b" horiz-adv-x="636" unicode="b" d="M489 238q0 71 -42 121t-116 50q-70 0 -115 -51t-45 -121t45 -120.5t115 -50.5q74 0 116 50.5t42 121.5zM176 75h-2v-75h-91v756h94v-353h3q26 37 70 60.5t99 23.5q104 0 170.5 -71.5t66.5 -177.5q0 -107 -66 -179t-173 -72q-51 0 -97.5 23t-73.5 65z"/>
<glyph glyph-name="c" horiz-adv-x="494" unicode="c" d="M481 409l-68 -55q-15 24 -45.5 39t-63.5 15q-71 0 -113 -50t-42 -121t42.5 -121t113.5 -50q73 0 114 52l63 -57q-64 -74 -177 -74q-111 0 -183 69t-72 181q0 111 71.5 180.5t181.5 69.5q52 0 101 -20.5t77 -57.5z"/>
<glyph glyph-name="d" horiz-adv-x="635" unicode="d" d="M147 238q0 -71 41.5 -121.5t115.5 -50.5q70 0 115 50.5t45 120.5t-45 121t-115 51q-74 0 -115.5 -50t-41.5 -121zM459 75q-26 -42 -72.5 -65t-98.5 -23q-107 0 -173 72t-66 179t66.5 178t171.5 71q55 0 98.5 -23.5t70.5 -60.5h2v353h94v-756h-91v75h-2z"/>
<glyph glyph-name="e" horiz-adv-x="573" unicode="e" d="M523 241q0 -21 -1 -32h-376q2 -61 47 -102.5t107 -41.5q89 0 138 72l66 -53q-75 -97 -204 -97q-109 0 -179.5 69t-70.5 180q0 110 70 180.5t175 70.5t166.5 -66.5t61.5 -179.5zM146 279h282q-2 59 -36 96.5t-97 37.5q-60 0 -102 -39t-47 -95z"/>
<glyph glyph-name="f" horiz-adv-x="310" unicode="f" d="M304 474v-77h-110v-397h-94v397h-94v77h94v99q0 89 43 142t134 53q34 0 59 -7l-11 -81q-24 7 -47 7q-84 0 -84 -114v-99h110z"/>
<glyph glyph-name="g" horiz-adv-x="632" unicode="g" d="M147 242q0 -69 43 -118t114 -49q72 0 116.5 47.5t44.5 119.5q0 69 -45.5 118t-115.5 49q-72 0 -114.5 -48t-42.5 -119zM58 -154l60 73q31 -35 78 -56t95 -21q167 0 167 175v61h-2q-26 -39 -71 -60.5t-96 -21.5q-107 0 -173 70t-66 174q0 105 66 176t172 71q53 0 99 -23 t72 -66h2v76h91v-450q0 -54 -13.5 -99.5t-43 -83.5t-82 -59.5t-123.5 -21.5q-62 0 -125 23t-107 63z"/>
<glyph glyph-name="h" horiz-adv-x="584" unicode="h" d="M177 402h2q17 36 58.5 60.5t91.5 24.5q87 0 132 -54t45 -139v-294h-94v262q0 145 -107 145q-56 0 -92 -43t-36 -113v-251h-94v756h94v-354z"/>
<glyph glyph-name="i" horiz-adv-x="259" unicode="i" d="M192 645q0 -25 -18.5 -42.5t-44.5 -17.5t-44 17.5t-18 42.5t18 43t44 18t44.5 -17.5t18.5 -43.5zM176 474v-474h-94v474h94z"/>
<glyph glyph-name="j" horiz-adv-x="260" unicode="j" d="M193 645q0 -25 -18.5 -42.5t-44.5 -17.5t-44.5 17.5t-18.5 42.5t18.5 43t44.5 18t44.5 -17.5t18.5 -43.5zM-31 -234l10 80q20 -5 38 -5q39 0 52.5 26t13.5 75v532h94v-535q0 -179 -154 -179q-24 0 -54 6z"/>
<glyph glyph-name="k" horiz-adv-x="527" unicode="k" d="M177 756v-488h3l199 206h126l-222 -215l241 -259h-130l-214 246h-3v-246h-94v756h94z"/>
<glyph glyph-name="l" horiz-adv-x="260" unicode="l" d="M177 756v-756h-94v756h94z"/>
<glyph glyph-name="m" horiz-adv-x="887" unicode="m" d="M173 396q19 40 59 65.5t92 25.5q106 0 147 -95q24 45 67 70t94 25q87 0 132 -54t45 -139v-294h-94v263q0 145 -105 145q-60 0 -90 -45t-30 -107v-256h-94v282q0 126 -100 126q-52 0 -86.5 -43t-34.5 -113v-252h-94v372q0 61 -4 102h89q4 -48 4 -78h3z"/>
<glyph glyph-name="n" horiz-adv-x="582" unicode="n" d="M77 474h89q4 -48 4 -78h3q18 39 61 65t93 26q87 0 132 -54t45 -139v-294h-94v263q0 145 -108 145q-56 0 -91.5 -43t-35.5 -113v-252h-94v372q0 61 -4 102z"/>
<glyph glyph-name="o" horiz-adv-x="610" unicode="o" d="M463 238q0 71 -42.5 121t-115.5 50t-115.5 -50t-42.5 -121t42.5 -121.5t115.5 -50.5t115.5 50.5t42.5 121.5zM561 238q0 -109 -73.5 -180t-182.5 -71t-182 71t-73 180t72.5 179t182.5 70t183 -70t73 -179z"/>
<glyph glyph-name="p" horiz-adv-x="634" unicode="p" d="M487 238q0 71 -42 121t-116 50q-70 0 -115 -51t-45 -121t45 -120.5t115 -50.5q74 0 116 50.5t42 121.5zM175 71v-311h-94v714h92v-74h3q24 39 69 63t102 24q104 0 170.5 -71.5t66.5 -177.5q0 -107 -66 -179t-173 -72q-51 0 -96 22.5t-71 61.5h-3z"/>
<glyph glyph-name="q" horiz-adv-x="633" unicode="q" d="M147 238q0 -71 41.5 -121.5t115.5 -50.5q70 0 115 50.5t45 120.5t-45 121t-115 51q-74 0 -115.5 -50t-41.5 -121zM458 71h-2q-26 -39 -71.5 -61.5t-96.5 -22.5q-107 0 -173 72t-66 179t66.5 178t171.5 71q56 0 101 -24t70 -63h3v74h91v-714h-94v311z"/>
<glyph glyph-name="r" horiz-adv-x="362" unicode="r" d="M81 372q0 61 -4 102h89q4 -48 4 -80h3q20 42 59 67.5t86 25.5q22 0 37 -4l-4 -87q-20 5 -43 5q-64 0 -98.5 -44t-34.5 -108v-249h-94v372z"/>
<glyph glyph-name="s" horiz-adv-x="444" unicode="s" d="M402 409l-65 -55q-16 26 -45.5 42.5t-64.5 16.5q-36 0 -62 -15.5t-26 -46.5q0 -28 25 -43t83 -28q159 -35 159 -140q0 -78 -54.5 -115.5t-134.5 -37.5q-56 0 -107 22t-84 63l67 57q19 -29 53.5 -47.5t72.5 -18.5q40 0 67 16.5t27 52.5q0 31 -28.5 47t-95.5 32 q-28 7 -49 15t-43 22.5t-34 38t-12 55.5q0 72 52.5 108.5t126.5 36.5q52 0 99.5 -20.5t72.5 -57.5z"/>
<glyph glyph-name="t" horiz-adv-x="329" unicode="t" d="M313 474v-77h-126v-247q0 -43 16 -61.5t51 -18.5q31 0 55 12l3 -77q-36 -13 -80 -13q-67 0 -102.5 37.5t-35.5 110.5v257h-91v77h91v136h93v-136h126z"/>
<glyph glyph-name="u" horiz-adv-x="582" unicode="u" d="M504 0h-89q-4 48 -4 78h-2q-19 -39 -62 -65t-93 -26q-87 0 -132 54t-45 139v294h94v-262q0 -146 108 -146q57 0 92 43t35 113v252h94v-372q0 -61 4 -102z"/>
<glyph glyph-name="v" horiz-adv-x="504" unicode="v" d="M494 474l-190 -474h-102l-193 474h104l139 -373h2l140 373h100z"/>
<glyph glyph-name="w" horiz-adv-x="773" unicode="w" d="M14 474h102l107 -362h2l113 362h99l115 -362h2l107 362h99l-157 -474h-98l-117 356h-2l-116 -356h-98z"/>
<glyph glyph-name="x" horiz-adv-x="511" unicode="x" d="M7 0l190 249l-173 225h116l116 -163l117 163h110l-171 -224l191 -250h-117l-132 185l-134 -185h-113z"/>
<glyph glyph-name="y" horiz-adv-x="504" unicode="y" d="M114 474l147 -372h2l131 372h100l-230 -586q-25 -65 -61.5 -96.5t-102.5 -31.5q-33 0 -62 7l9 83q24 -8 47 -8q34 0 53 18.5t35 60.5l30 79l-203 474h105z"/>
<glyph glyph-name="z" horiz-adv-x="462" unicode="z" d="M419 474v-77l-270 -318h281v-79h-397v77l268 320h-255v77h373z"/>
<glyph glyph-name="braceleft" horiz-adv-x="315" unicode="{" d="M5 251v74q32 0 53 22.5t21 67.5v188q0 65 33.5 97t84.5 32h68v-69h-51q-51 0 -51 -72v-183q0 -57 -31 -85.5t-62 -33.5v-2q13 -1 26.5 -7t29.5 -19t26.5 -38t10.5 -58v-180q0 -72 51 -72h51v-69h-68q-51 0 -84.5 32t-33.5 97v184q0 47 -21 70.5t-53 23.5z"/>
<glyph glyph-name="bar" horiz-adv-x="222" unicode="|" d="M70 750h82v-1000h-82v1000z"/>
<glyph glyph-name="braceright" horiz-adv-x="315" unicode="}" d="M310 251q-32 0 -53 -23.5t-21 -70.5v-184q0 -65 -33.5 -97t-84.5 -32h-68v69h52q50 0 50 72v180q0 62 31 90.5t63 31.5v2q-32 5 -63 33.5t-31 85.5v183q0 72 -50 72h-52v69h68q51 0 84.5 -32t33.5 -97v-188q0 -45 21 -67.5t53 -22.5v-74z"/>
<glyph glyph-name="asciitilde" horiz-adv-x="666" unicode="~" d="M340 346q38 -24 57.5 -31.5t41.5 -7.5q50 0 87 68l59 -55q-58 -97 -144 -97q-54 0 -116 38q-37 23 -56.5 30.5t-41.5 7.5q-50 0 -87 -68l-59 55q59 98 144 98q56 0 115 -38z"/>
<glyph glyph-name="uni00A0" horiz-adv-x="250" unicode=" "/>
<glyph glyph-name="exclamdown" horiz-adv-x="334" unicode="¡" d="M234 427q0 -27 -19.5 -46t-47.5 -19t-47.5 19.5t-19.5 46.5q0 26 19.5 45.5t47.5 19.5t47.5 -19.5t19.5 -46.5zM216 -221h-99v501h99v-501z"/>
<glyph glyph-name="cent" d="M350 404v-334q63 1 102 53l64 -60q-61 -70 -166 -75v-66h-51v67q-99 10 -157.5 79t-58.5 170t58 168t158 79v65h51v-64q107 -5 166 -75l-66 -60q-40 50 -100 53zM299 71v332q-58 -11 -90.5 -56.5t-32.5 -109.5q0 -63 33 -108.5t90 -57.5z" unicode="¢"/>
<glyph glyph-name="sterling" d="M434 397v-72h-166v-241h263v-84h-461v84h100v241h-97v72h97v88q0 34 7 66.5t24 64.5t42.5 56t65.5 39t90 15q102 0 165 -60l-59 -67q-41 46 -108 46q-38 0 -65 -16t-40 -43t-18.5 -53t-5.5 -54v-82h166z" unicode="£"/>
<glyph glyph-name="currency" horiz-adv-x="890" unicode="¤" d="M446 478q-72 0 -117.5 -49t-45.5 -120q0 -72 45 -121.5t118 -49.5t118.5 49.5t45.5 121.5q0 71 -45.5 120t-118.5 49zM661 465q48 -63 48 -156q0 -95 -51 -161l93 -93q-27 -29 -56 -56q-32 30 -96 94q-64 -47 -153 -47q-86 0 -154 49l-98 -96l-17.5 17.5l-21 21 l-17.5 17.5l95 96q-49 65 -49 158q0 87 46 154l-92 92l57 56l93 -92q67 50 158 50t157 -49q13 14 28.5 29t34 33.5l28.5 28.5l57 -56z"/>
<glyph glyph-name="yen" d="M80 228h170v91h-170v66h145l-212 323h115l174 -294l170 294h110l-208 -323h141v-66h-170v-91h170v-66h-170v-162h-95v162h-170v66z" unicode="¥"/>
<glyph glyph-name="brokenbar" horiz-adv-x="222" unicode="¦" d="M70 175h82v-350h-82v350zM70 675h82v-350h-82v350z"/>
<glyph glyph-name="section" d="M334 369l-75 33q-74 -20 -74 -80q0 -18 6.5 -32t23.5 -26t27.5 -17.5t37.5 -18.5l84 -36q24 8 41.5 29t17.5 49q0 20 -7 35.5t-21.5 27.5t-27 19t-33.5 17zM502 636l-71 -52q-15 28 -44.5 46t-66.5 18q-41 0 -70 -20.5t-29 -57.5q0 -38 29.5 -62t98.5 -52q82 -34 124 -72 t42 -101q0 -43 -24 -78.5t-61 -51.5q61 -41 61 -120q0 -83 -60 -127.5t-143 -44.5q-68 0 -125.5 29t-87.5 85l83 46q16 -38 52 -58t78 -20q40 0 72.5 20.5t32.5 63.5q0 40 -29 61.5t-115 58.5q-40 18 -62 29.5t-47 30.5t-36 44t-11 57q0 49 28 85t72 54q-69 44 -69 117 q0 77 58 119.5t137 42.5q61 0 109.5 -24t73.5 -66z" unicode="§"/>
<glyph glyph-name="dieresis" horiz-adv-x="250" unicode="¨" d="M160 645q0 25 18 43t44 18t44 -17.5t18 -43.5q0 -25 -18 -42.5t-44 -17.5t-44 18t-18 42zM-34 645q0 25 18 43t44 18t44 -17.5t18 -43.5q0 -25 -18 -42.5t-44 -17.5t-44 18t-18 42z"/>
<glyph glyph-name="copyright" horiz-adv-x="800" unicode="©" d="M573 519l-58 -46q-33 44 -98 44q-66 0 -107.5 -44.5t-41.5 -112.5q0 -71 40 -115t106 -44q68 0 105 50l61 -43q-60 -76 -167 -76q-101 0 -165.5 63.5t-64.5 164.5q0 102 66 163.5t168 61.5q45 0 88.5 -17t67.5 -49zM80 353q0 -132 94 -225.5t227 -93.5q132 0 225.5 93.5 t93.5 225.5q0 133 -93.5 227t-225.5 94q-133 0 -227 -94t-94 -227zM20 353q0 157 111.5 267t269.5 110q157 0 268 -110t111 -267q0 -156 -111 -265.5t-268 -109.5q-158 0 -269.5 109.5t-111.5 265.5z"/>
<glyph glyph-name="ordfeminine" horiz-adv-x="380" unicode="ª" d="M246 550v10h-16q-108 0 -108 -47q0 -36 50 -36q36 0 55 19.5t19 53.5zM247 431v37h-1q-26 -44 -89 -44q-41 0 -73.5 21t-32.5 67q0 96 195 96v7q0 25 -18.5 38.5t-46.5 13.5q-44 0 -78 -32l-36 43q48 45 120 45q70 0 98.5 -34.5t28.5 -85.5v-172h-67z"/>
<glyph glyph-name="guillemotleft" horiz-adv-x="500" unicode="«" d="M450 419l-115 -175l115 -175l-61 -43l-146 218l146 217zM247 419l-115 -175l116 -175l-62 -43l-146 218l146 217z"/>
<glyph glyph-name="logicalnot" horiz-adv-x="666" unicode="¬" d="M596 426v-287h-81v206h-445v81h526z"/>
<glyph glyph-name="uni00AD" horiz-adv-x="320" unicode="­" d="M276 284v-80h-232v80h232z"/>
<glyph glyph-name="registered" horiz-adv-x="600" unicode="®" d="M108 493q0 -79 56.5 -135.5t135.5 -56.5t135.5 56.5t56.5 135.5t-56 135.5t-136 56.5t-136 -56.5t-56 -135.5zM72 493q0 94 66.5 160.5t161.5 66.5t161.5 -66.5t66.5 -160.5t-66.5 -159.5t-161.5 -65.5t-161.5 65.5t-66.5 159.5zM427 368h-72l-55 99h-36v-99h-61v256h110 q41 0 69 -19t28 -61q0 -50 -51 -68zM264 511h47q14 0 25.5 9.5t11.5 23.5t-12 22t-25 8h-47v-63z"/>
<glyph glyph-name="macron" horiz-adv-x="250" unicode="¯" d="M273 664v-67h-296v67h296z"/>
<glyph glyph-name="degree" horiz-adv-x="400" unicode="°" d="M291 565q0 38 -26.5 65t-64.5 27t-64.5 -27t-26.5 -65q0 -37 26.5 -64t64.5 -27t64.5 27t26.5 64zM355 565q0 -65 -45 -109.5t-110 -44.5t-110 44.5t-45 109.5t45 110t110 45t110 -45t45 -110z"/>
<glyph glyph-name="plusminus" horiz-adv-x="666" unicode="±" d="M70 40v81h526v-81h-526zM70 338v81h223v150h81v-150h222v-81h-222v-147h-81v147h-223z"/>
<glyph glyph-name="twosuperior" horiz-adv-x="385" unicode="²" d="M333 519v-69h-283v67l164 165q40 42 40 78q0 25 -17 40t-43 15q-27 0 -45 -18.5t-23 -49.5l-74 10q8 55 47.5 90.5t94.5 35.5q58 0 98 -32t40 -91q0 -38 -18 -67t-52 -62l-114 -112h185z"/>
<glyph glyph-name="threesuperior" horiz-adv-x="385" unicode="³" d="M143 639v62h27q80 0 80 63q0 23 -18 38t-43 15q-46 0 -66 -51l-68 23q18 44 54.5 69t81.5 25q59 0 97 -30t38 -86q0 -32 -17.5 -56.5t-44.5 -36.5q32 -10 52.5 -37.5t20.5 -63.5q0 -62 -43 -96t-103 -34q-114 0 -151 105l71 22q20 -60 78 -60q30 0 51.5 16.5t21.5 48.5 q0 34 -27 49t-65 15h-27z"/>
<glyph glyph-name="acute" horiz-adv-x="250" unicode="´" d="M284 708l-136 -144h-77l100 144h113z"/>
<glyph glyph-name="mu" horiz-adv-x="603" unicode="µ" d="M562 73l6 -75q-30 -6 -58 -6q-90 0 -95 86h-2q-19 -39 -56.5 -65t-82.5 -26q-74 0 -97 40h-2v-267h-94v714h94v-262q0 -146 108 -146q57 0 92 43t35 113v252h94v-369q0 -35 32 -35q12 0 26 3z"/>
<glyph glyph-name="paragraph" horiz-adv-x="600" unicode="¶" d="M523 708v-834h-78v771h-115v-771h-79v453q-93 0 -152.5 52.5t-59.5 131.5q0 97 61.5 147t169.5 50h253z"/>
<glyph glyph-name="periodcentered" horiz-adv-x="260" unicode="·" d="M198 303q0 -27 -19.5 -46.5t-47.5 -19.5t-48 19.5t-20 45.5q0 27 19.5 47t48.5 20q28 0 47.5 -19.5t19.5 -46.5z"/>
<glyph glyph-name="cedilla" horiz-adv-x="250" unicode="¸" d="M167 0l-46 -69q9 2 27 2q39 0 66.5 -18.5t27.5 -59.5q0 -48 -38 -69t-89 -21q-57 0 -103 23l20 42q37 -17 77 -17q22 0 41.5 9.5t19.5 32.5q0 38 -54 38q-18 0 -41 -7l-20 20l62 94h50z"/>
<glyph glyph-name="onesuperior" horiz-adv-x="385" unicode="¹" d="M247 876v-426h-78v332l-68 -59l-46 51l125 102h67z"/>
<glyph glyph-name="ordmasculine" horiz-adv-x="380" unicode="º" d="M267 574q0 35 -20.5 58.5t-56.5 23.5t-56 -23.5t-20 -58.5q0 -34 20 -58t56 -24t56.5 24t20.5 58zM342 574q0 -64 -43 -106t-109 -42t-109 42t-43 106q0 65 43 106.5t109 41.5t109 -41.5t43 -106.5z"/>
<glyph glyph-name="guillemotright" horiz-adv-x="500" unicode="»" d="M50 419l61 42l146 -217l-146 -218l-61 43l115 175zM253 419l61 42l146 -217l-146 -218l-62 43l116 175z"/>
<glyph glyph-name="onequarter" horiz-adv-x="870" unicode="¼" d="M677 708l-450 -743l-58 31l451 743zM247 708v-426h-78v332l-68 -59l-46 51l125 102h67zM675 332h-3l-109 -174h112v174zM746 426v-268h59v-67h-59v-91h-71v91h-189v64l177 271h83z"/>
<glyph glyph-name="onehalf" horiz-adv-x="870" unicode="½" d="M677 708l-450 -743l-58 31l451 743zM811 69v-69h-283v67l164 165q40 42 40 78q0 25 -17 40t-43 15q-27 0 -45 -18.5t-23 -49.5l-74 10q8 55 47.5 90.5t94.5 35.5q58 0 98 -32t40 -91q0 -38 -18 -67t-52 -62l-114 -112h185zM247 708v-426h-78v332l-68 -59l-46 51l125 102 h67z"/>
<glyph glyph-name="threequarters" horiz-adv-x="870" unicode="¾" d="M143 476v62h27q80 0 80 63q0 23 -18 38t-43 15q-46 0 -66 -51l-68 23q18 44 54.5 69t81.5 25q59 0 97 -30t38 -86q0 -32 -17.5 -56.5t-44.5 -36.5q32 -10 52.5 -37.5t20.5 -63.5q0 -62 -43 -96t-103 -34q-114 0 -151 105l71 22q20 -60 78 -60q30 0 51.5 16.5t21.5 48.5 q0 34 -27 49t-65 15h-27zM677 708l-450 -743l-58 31l451 743zM675 332h-3l-109 -174h112v174zM746 426v-268h59v-67h-59v-91h-71v91h-189v64l177 271h83z"/>
<glyph glyph-name="questiondown" horiz-adv-x="500" unicode="¿" d="M180 427q0 27 19.5 46.5t47.5 19.5t47.5 -19.5t19.5 -45.5q0 -27 -19.5 -46.5t-47.5 -19.5t-47.5 19t-19.5 46zM205 251v35h94v-48q0 -49 -17.5 -81.5t-55.5 -67.5l-37 -35q-51 -44 -51 -99q0 -48 30.5 -76.5t78.5 -28.5t79 31.5t36 78.5l96 -11q-13 -85 -72 -135 t-145 -50q-87 0 -145 49t-58 136q0 58 22.5 93t73.5 78q43 37 57 60.5t14 70.5z"/>
<glyph glyph-name="Agrave" horiz-adv-x="711" unicode="À" d="M320 764l-137 144h114l100 -144h-77zM354 593l-133 -332h265zM186 174l-71 -174h-110l307 708h90l304 -708h-112l-72 174h-336z"/>
<glyph glyph-name="Aacute" horiz-adv-x="711" unicode="Á" d="M535 908l-137 -144h-76l99 144h114zM354 593l-133 -332h265zM186 174l-71 -174h-110l307 708h90l304 -708h-112l-72 174h-336z"/>
<glyph glyph-name="Acircumflex" horiz-adv-x="711" unicode="Â" d="M413 908l112 -144h-91l-75 99l-76 -99h-90l112 144h108zM354 593l-133 -332h265zM186 174l-71 -174h-110l307 708h90l304 -708h-112l-72 174h-336z"/>
<glyph glyph-name="Atilde" horiz-adv-x="711" unicode="Ã" d="M240 772h-55q20 116 102 116q33 0 75 -20q48 -22 67 -22q34 0 48 46h54q-20 -116 -102 -116q-31 0 -77 21q-42 21 -65 21q-35 0 -47 -46zM354 593l-133 -332h265zM186 174l-71 -174h-110l307 708h90l304 -708h-112l-72 174h-336z"/>
<glyph glyph-name="Adieresis" horiz-adv-x="711" unicode="Ä" d="M392 845q0 25 18 43t44 18t44 -17.5t18 -43.5q0 -25 -18 -42.5t-44 -17.5t-44 18t-18 42zM198 845q0 25 18 43t44 18t44 -17.5t18 -43.5q0 -25 -18 -42.5t-44 -17.5t-44 18t-18 42zM354 593l-133 -332h265zM186 174l-71 -174h-110l307 708h90l304 -708h-112l-72 174h-336 z"/>
<glyph glyph-name="Aring" horiz-adv-x="711" unicode="Å" d="M418 853q0 25 -17.5 41.5t-42.5 16.5t-42 -17t-17 -42q0 -24 17 -40.5t42 -16.5t42.5 16.5t17.5 41.5zM459 853q0 -42 -29.5 -70.5t-71.5 -28.5t-71 28t-29 70t29 70.5t71 28.5t71.5 -28t29.5 -70zM354 593l-133 -332h265zM186 174l-71 -174h-110l307 708h90l304 -708 h-112l-72 174h-336z"/>
<glyph glyph-name="AE" horiz-adv-x="1015" unicode="Æ" d="M293 278h231v343h-14zM623 324v-236h346v-88h-445v192h-283l-121 -192h-118l457 708h495v-87h-331v-212h310v-85h-310z"/>
<glyph glyph-name="Ccedilla" horiz-adv-x="708" unicode="Ç" d="M614 164l79 -54q-89 -121 -256 -127l-34 -52q9 2 27 2q39 0 66.5 -18.5t27.5 -59.5q0 -48 -38 -69t-89 -21q-57 0 -103 23l20 42q37 -17 77 -17q22 0 41.5 9.5t19.5 32.5q0 38 -54 38q-18 0 -41 -7l-20 20l51 78q-150 12 -244 114.5t-94 256.5q0 164 107 267.5t270 103.5 q76 0 146 -29t108 -81l-78 -60q-26 37 -74 60t-102 23q-120 0 -194.5 -82t-74.5 -202q0 -122 73 -203.5t193 -81.5q125 0 190 94z"/>
<glyph glyph-name="Egrave" horiz-adv-x="601" unicode="È" d="M313 764l-137 144h114l100 -144h-77zM185 324v-236h370v-88h-469v708h454v-87h-355v-212h334v-85h-334z"/>
<glyph glyph-name="Eacute" horiz-adv-x="601" unicode="É" d="M475 908l-137 -144h-76l99 144h114zM185 324v-236h370v-88h-469v708h454v-87h-355v-212h334v-85h-334z"/>
<glyph glyph-name="Ecircumflex" horiz-adv-x="601" unicode="Ê" d="M372 908l112 -144h-91l-75 99l-76 -99h-90l112 144h108zM185 324v-236h370v-88h-469v708h454v-87h-355v-212h334v-85h-334z"/>
<glyph glyph-name="Edieresis" horiz-adv-x="601" unicode="Ë" d="M352 845q0 25 18 43t44 18t44 -17.5t18 -43.5q0 -25 -18 -42.5t-44 -17.5t-44 18t-18 42zM158 845q0 25 18 43t44 18t44 -17.5t18 -43.5q0 -25 -18 -42.5t-44 -17.5t-44 18t-18 42zM185 324v-236h370v-88h-469v708h454v-87h-355v-212h334v-85h-334z"/>
<glyph glyph-name="Igrave" horiz-adv-x="271" unicode="Ì" d="M109 764l-137 144h114l100 -144h-77zM185 708v-708h-99v708h99z"/>
<glyph glyph-name="Iacute" horiz-adv-x="271" unicode="Í" d="M298 908l-137 -144h-76l99 144h114zM185 708v-708h-99v708h99z"/>
<glyph glyph-name="Icircumflex" horiz-adv-x="271" unicode="Î" d="M188 908l112 -144h-91l-75 99l-76 -99h-90l112 144h108zM185 708v-708h-99v708h99z"/>
<glyph glyph-name="Idieresis" horiz-adv-x="271" unicode="Ï" d="M171 845q0 25 18 43t44 18t44 -17.5t18 -43.5q0 -25 -18 -42.5t-44 -17.5t-44 18t-18 42zM-23 845q0 25 18 43t44 18t44 -17.5t18 -43.5q0 -25 -18 -42.5t-44 -17.5t-44 18t-18 42zM185 708v-708h-99v708h99z"/>
<glyph glyph-name="Eth" horiz-adv-x="761" unicode="Ð" d="M182 335v-245h117q139 0 220 72t81 192q0 121 -77 192.5t-214 71.5h-127v-213h237v-70h-237zM82 0v335h-69v70h69v303h258q69 0 133.5 -22.5t117 -65t84 -111.5t31.5 -155t-33.5 -155.5t-88.5 -111.5t-120 -64.5t-132 -22.5h-250z"/>
<glyph glyph-name="Ntilde" horiz-adv-x="772" unicode="Ñ" d="M266 772h-55q20 116 102 116q33 0 75 -20q48 -22 67 -22q34 0 48 46h54q-20 -116 -102 -116q-31 0 -77 21q-42 21 -65 21q-35 0 -47 -46zM215 708l370 -566h2v566h99v-708h-125l-374 578h-2v-578h-99v708h129z"/>
<glyph glyph-name="Ograve" horiz-adv-x="849" unicode="Ò" d="M409 764l-137 144h114l100 -144h-77zM693 355q0 120 -74 202t-195 82q-119 0 -193 -82t-74 -202q0 -121 74 -202.5t193 -81.5q121 0 195 81.5t74 202.5zM800 355q0 -163 -106.5 -268t-269.5 -105q-162 0 -268 105t-106 268q0 164 105.5 267.5t268.5 103.5t269.5 -103.5 t106.5 -267.5z"/>
<glyph glyph-name="Oacute" horiz-adv-x="849" unicode="Ó" d="M584 908l-137 -144h-76l99 144h114zM693 355q0 120 -74 202t-195 82q-119 0 -193 -82t-74 -202q0 -121 74 -202.5t193 -81.5q121 0 195 81.5t74 202.5zM800 355q0 -163 -106.5 -268t-269.5 -105q-162 0 -268 105t-106 268q0 164 105.5 267.5t268.5 103.5t269.5 -103.5 t106.5 -267.5z"/>
<glyph glyph-name="Ocircumflex" horiz-adv-x="849" unicode="Ô" d="M478 908l112 -144h-91l-75 99l-76 -99h-90l112 144h108zM693 355q0 120 -74 202t-195 82q-119 0 -193 -82t-74 -202q0 -121 74 -202.5t193 -81.5q121 0 195 81.5t74 202.5zM800 355q0 -163 -106.5 -268t-269.5 -105q-162 0 -268 105t-106 268q0 164 105.5 267.5 t268.5 103.5t269.5 -103.5t106.5 -267.5z"/>
<glyph glyph-name="Otilde" horiz-adv-x="849" unicode="Õ" d="M306 772h-55q20 116 102 116q33 0 75 -20q48 -22 67 -22q34 0 48 46h54q-20 -116 -102 -116q-31 0 -77 21q-42 21 -65 21q-35 0 -47 -46zM693 355q0 120 -74 202t-195 82q-119 0 -193 -82t-74 -202q0 -121 74 -202.5t193 -81.5q121 0 195 81.5t74 202.5zM800 355 q0 -163 -106.5 -268t-269.5 -105q-162 0 -268 105t-106 268q0 164 105.5 267.5t268.5 103.5t269.5 -103.5t106.5 -267.5z"/>
<glyph glyph-name="Odieresis" horiz-adv-x="849" unicode="Ö" d="M459 845q0 25 18 43t44 18t44 -17.5t18 -43.5q0 -25 -18 -42.5t-44 -17.5t-44 18t-18 42zM265 845q0 25 18 43t44 18t44 -17.5t18 -43.5q0 -25 -18 -42.5t-44 -17.5t-44 18t-18 42zM693 355q0 120 -74 202t-195 82q-119 0 -193 -82t-74 -202q0 -121 74 -202.5t193 -81.5 q121 0 195 81.5t74 202.5zM800 355q0 -163 -106.5 -268t-269.5 -105q-162 0 -268 105t-106 268q0 164 105.5 267.5t268.5 103.5t269.5 -103.5t106.5 -267.5z"/>
<glyph glyph-name="multiply" horiz-adv-x="666" unicode="×" d="M162 531l171 -171l170 171l57 -56l-170 -171l172 -173l-59 -58l-171 170l-170 -170l-58 58l172 170l-171 174z"/>
<glyph glyph-name="Oslash" horiz-adv-x="849" unicode="Ø" d="M634 544l-383 -414q69 -61 173 -61q122 0 197 82t75 204q0 113 -62 189zM211 174l381 411q-64 55 -168 55q-122 0 -196 -82t-74 -203q0 -109 57 -181zM778 703l-79 -86q101 -103 101 -262q0 -162 -106.5 -266.5t-269.5 -106.5q-140 0 -238 79l-81 -87l-43 39l81 88 q-93 99 -93 254q0 164 105.5 267.5t268.5 103.5q134 0 230 -71l81 87z"/>
<glyph glyph-name="Ugrave" horiz-adv-x="712" unicode="Ù" d="M323 764l-137 144h114l100 -144h-77zM356 -18q-133 0 -204 81.5t-71 198.5v446h99v-440q0 -83 42.5 -140t133.5 -57t133.5 57t42.5 140v440h99v-446q0 -117 -71 -198.5t-204 -81.5z"/>
<glyph glyph-name="Uacute" horiz-adv-x="712" unicode="Ú" d="M508 908l-137 -144h-76l99 144h114zM356 -18q-133 0 -204 81.5t-71 198.5v446h99v-440q0 -83 42.5 -140t133.5 -57t133.5 57t42.5 140v440h99v-446q0 -117 -71 -198.5t-204 -81.5z"/>
<glyph glyph-name="Ucircumflex" horiz-adv-x="712" unicode="Û" d="M408 908l112 -144h-91l-75 99l-76 -99h-90l112 144h108zM356 -18q-133 0 -204 81.5t-71 198.5v446h99v-440q0 -83 42.5 -140t133.5 -57t133.5 57t42.5 140v440h99v-446q0 -117 -71 -198.5t-204 -81.5z"/>
<glyph glyph-name="Udieresis" horiz-adv-x="712" unicode="Ü" d="M391 845q0 25 18 43t44 18t44 -17.5t18 -43.5q0 -25 -18 -42.5t-44 -17.5t-44 18t-18 42zM197 845q0 25 18 43t44 18t44 -17.5t18 -43.5q0 -25 -18 -42.5t-44 -17.5t-44 18t-18 42zM356 -18q-133 0 -204 81.5t-71 198.5v446h99v-440q0 -83 42.5 -140t133.5 -57t133.5 57 t42.5 140v440h99v-446q0 -117 -71 -198.5t-204 -81.5z"/>
<glyph glyph-name="Yacute" horiz-adv-x="624" unicode="Ý" d="M482 908l-137 -144h-76l99 144h114zM362 306v-306h-100v306l-265 402h122l196 -320l197 320h115z"/>
<glyph glyph-name="Thorn" d="M185 477v-227h102q165 0 165 114q0 113 -163 113h-104zM86 0v708h99v-146h117q118 0 185.5 -50t67.5 -147q0 -103 -70 -151.5t-188 -48.5h-112v-165h-99z" unicode="Þ"/>
<glyph glyph-name="germandbls" horiz-adv-x="612" unicode="ß" d="M174 521v-521h-94v525q0 48 12 89.5t37.5 77t71 56t106.5 20.5q87 0 145 -52t58 -134q0 -55 -29.5 -96t-81.5 -58v-2q76 -11 121.5 -66.5t45.5 -137.5q0 -105 -66 -169.5t-177 -64.5q-34 0 -71 8v79q26 -7 59 -7q72 0 115 42.5t43 115.5q0 76 -47.5 115.5t-125.5 39.5 h-11v82h11q54 0 87 28.5t33 81.5q0 49 -31 80.5t-82 31.5q-38 0 -64.5 -15t-40 -41t-19 -52t-5.5 -56z"/>
<glyph glyph-name="agrave" horiz-adv-x="542" unicode="à" d="M256 564l-136 144h113l100 -144h-77zM376 226h-23q-211 0 -211 -90q0 -39 28 -56.5t69 -17.5q64 0 100.5 38.5t36.5 100.5v25zM376 294v13q0 51 -31.5 77.5t-85.5 26.5q-80 0 -135 -55l-50 60q74 71 194 71q98 0 148 -51.5t50 -134.5v-207q0 -62 7 -94h-85q-8 34 -8 68 h-3q-53 -80 -159 -80q-30 0 -59 8t-55 24t-42 45.5t-16 68.5q0 41 19.5 71.5t49.5 47t76.5 26t88 12.5t96.5 3z"/>
<glyph glyph-name="aacute" horiz-adv-x="542" unicode="á" d="M440 708l-136 -144h-77l100 144h113zM376 226h-23q-211 0 -211 -90q0 -39 28 -56.5t69 -17.5q64 0 100.5 38.5t36.5 100.5v25zM376 294v13q0 51 -31.5 77.5t-85.5 26.5q-80 0 -135 -55l-50 60q74 71 194 71q98 0 148 -51.5t50 -134.5v-207q0 -62 7 -94h-85q-8 34 -8 68 h-3q-53 -80 -159 -80q-30 0 -59 8t-55 24t-42 45.5t-16 68.5q0 41 19.5 71.5t49.5 47t76.5 26t88 12.5t96.5 3z"/>
<glyph glyph-name="acircumflex" horiz-adv-x="542" unicode="â" d="M322 708l112 -144h-91l-75 99l-76 -99h-90l112 144h108zM376 226h-23q-211 0 -211 -90q0 -39 28 -56.5t69 -17.5q64 0 100.5 38.5t36.5 100.5v25zM376 294v13q0 51 -31.5 77.5t-85.5 26.5q-80 0 -135 -55l-50 60q74 71 194 71q98 0 148 -51.5t50 -134.5v-207q0 -62 7 -94 h-85q-8 34 -8 68h-3q-53 -80 -159 -80q-30 0 -59 8t-55 24t-42 45.5t-16 68.5q0 41 19.5 71.5t49.5 47t76.5 26t88 12.5t96.5 3z"/>
<glyph glyph-name="atilde" horiz-adv-x="542" unicode="ã" d="M150 572h-55q20 116 102 116q33 0 75 -20q48 -22 67 -22q34 0 48 46h54q-20 -116 -102 -116q-31 0 -77 21q-42 21 -65 21q-35 0 -47 -46zM376 226h-23q-211 0 -211 -90q0 -39 28 -56.5t69 -17.5q64 0 100.5 38.5t36.5 100.5v25zM376 294v13q0 51 -31.5 77.5t-85.5 26.5 q-80 0 -135 -55l-50 60q74 71 194 71q98 0 148 -51.5t50 -134.5v-207q0 -62 7 -94h-85q-8 34 -8 68h-3q-53 -80 -159 -80q-30 0 -59 8t-55 24t-42 45.5t-16 68.5q0 41 19.5 71.5t49.5 47t76.5 26t88 12.5t96.5 3z"/>
<glyph glyph-name="adieresis" horiz-adv-x="542" unicode="ä" d="M304 645q0 25 18 43t44 18t44 -17.5t18 -43.5q0 -25 -18 -42.5t-44 -17.5t-44 18t-18 42zM110 645q0 25 18 43t44 18t44 -17.5t18 -43.5q0 -25 -18 -42.5t-44 -17.5t-44 18t-18 42zM376 226h-23q-211 0 -211 -90q0 -39 28 -56.5t69 -17.5q64 0 100.5 38.5t36.5 100.5v25z M376 294v13q0 51 -31.5 77.5t-85.5 26.5q-80 0 -135 -55l-50 60q74 71 194 71q98 0 148 -51.5t50 -134.5v-207q0 -62 7 -94h-85q-8 34 -8 68h-3q-53 -80 -159 -80q-30 0 -59 8t-55 24t-42 45.5t-16 68.5q0 41 19.5 71.5t49.5 47t76.5 26t88 12.5t96.5 3z"/>
<glyph glyph-name="aring" horiz-adv-x="542" unicode="å" d="M327 653q0 24 -17.5 40t-41.5 16t-41 -16t-17 -40t17 -40.5t41 -16.5t41.5 16.5t17.5 40.5zM369 653q0 -42 -29.5 -70.5t-71.5 -28.5t-71 28t-29 70t29 70.5t71 28.5t71.5 -28t29.5 -70zM376 226h-23q-211 0 -211 -90q0 -39 28 -56.5t69 -17.5q64 0 100.5 38.5 t36.5 100.5v25zM376 294v13q0 51 -31.5 77.5t-85.5 26.5q-80 0 -135 -55l-50 60q74 71 194 71q98 0 148 -51.5t50 -134.5v-207q0 -62 7 -94h-85q-8 34 -8 68h-3q-53 -80 -159 -80q-30 0 -59 8t-55 24t-42 45.5t-16 68.5q0 41 19.5 71.5t49.5 47t76.5 26t88 12.5t96.5 3z"/>
<glyph glyph-name="ae" horiz-adv-x="877" unicode="æ" d="M419 85q-52 -97 -201 -97q-68 0 -120 31.5t-52 101.5q0 41 16.5 70t42.5 46t71 26.5t90 12.5t110 3v11q0 121 -117 121q-80 0 -135 -55l-50 60q74 71 194 71q128 0 166 -88q63 88 173 88q102 0 161.5 -66.5t59.5 -179.5q0 -21 -1 -32h-364q2 -61 45.5 -102.5t103.5 -41.5 q85 0 134 72l63 -53q-72 -97 -197 -97q-63 0 -114 26t-79 72zM462 279h272q0 58 -34 96t-94 38q-57 0 -99 -39t-45 -95zM374 209h-24q-49 0 -82.5 -2.5t-64.5 -10t-46 -23.5t-15 -40q0 -72 98 -72q65 0 99.5 33t34.5 90v25z"/>
<glyph glyph-name="ccedilla" horiz-adv-x="494" unicode="ç" d="M481 409l-68 -55q-15 24 -45.5 39t-63.5 15q-71 0 -113 -50t-42 -121t42.5 -121t113.5 -50q73 0 114 52l63 -57q-60 -70 -165 -74l-37 -56q9 2 27 2q39 0 66.5 -18.5t27.5 -59.5q0 -48 -38 -69t-89 -21q-57 0 -103 23l20 42q37 -17 77 -17q22 0 41.5 9.5t19.5 32.5 q0 38 -54 38q-18 0 -41 -7l-20 20l55 83q-97 11 -158 78.5t-61 169.5q0 111 71.5 180.5t181.5 69.5q52 0 101 -20.5t77 -57.5z"/>
<glyph glyph-name="egrave" horiz-adv-x="573" unicode="è" d="M270 564l-136 144h113l100 -144h-77zM523 241q0 -21 -1 -32h-376q2 -61 47 -102.5t107 -41.5q89 0 138 72l66 -53q-75 -97 -204 -97q-109 0 -179.5 69t-70.5 180q0 110 70 180.5t175 70.5t166.5 -66.5t61.5 -179.5zM146 279h282q-2 59 -36 96.5t-97 37.5q-60 0 -102 -39 t-47 -95z"/>
<glyph glyph-name="eacute" horiz-adv-x="573" unicode="é" d="M458 708l-136 -144h-77l100 144h113zM523 241q0 -21 -1 -32h-376q2 -61 47 -102.5t107 -41.5q89 0 138 72l66 -53q-75 -97 -204 -97q-109 0 -179.5 69t-70.5 180q0 110 70 180.5t175 70.5t166.5 -66.5t61.5 -179.5zM146 279h282q-2 59 -36 96.5t-97 37.5q-60 0 -102 -39 t-47 -95z"/>
<glyph glyph-name="ecircumflex" horiz-adv-x="573" unicode="ê" d="M355 708l112 -144h-91l-75 99l-76 -99h-90l112 144h108zM523 241q0 -21 -1 -32h-376q2 -61 47 -102.5t107 -41.5q89 0 138 72l66 -53q-75 -97 -204 -97q-109 0 -179.5 69t-70.5 180q0 110 70 180.5t175 70.5t166.5 -66.5t61.5 -179.5zM146 279h282q-2 59 -36 96.5 t-97 37.5q-60 0 -102 -39t-47 -95z"/>
<glyph glyph-name="edieresis" horiz-adv-x="573" unicode="ë" d="M335 645q0 25 18 43t44 18t44 -17.5t18 -43.5q0 -25 -18 -42.5t-44 -17.5t-44 18t-18 42zM141 645q0 25 18 43t44 18t44 -17.5t18 -43.5q0 -25 -18 -42.5t-44 -17.5t-44 18t-18 42zM523 241q0 -21 -1 -32h-376q2 -61 47 -102.5t107 -41.5q89 0 138 72l66 -53 q-75 -97 -204 -97q-109 0 -179.5 69t-70.5 180q0 110 70 180.5t175 70.5t166.5 -66.5t61.5 -179.5zM146 279h282q-2 59 -36 96.5t-97 37.5q-60 0 -102 -39t-47 -95z"/>
<glyph glyph-name="igrave" horiz-adv-x="259" unicode="ì" d="M100 564l-136 144h113l100 -144h-77zM176 474v-474h-94v474h94z"/>
<glyph glyph-name="iacute" horiz-adv-x="259" unicode="í" d="M295 708l-136 -144h-77l100 144h113zM176 474v-474h-94v474h94z"/>
<glyph glyph-name="icircumflex" horiz-adv-x="259" unicode="î" d="M184 708l112 -144h-91l-75 99l-76 -99h-90l112 144h108zM176 474v-474h-94v474h94z"/>
<glyph glyph-name="idieresis" horiz-adv-x="259" unicode="ï" d="M165 645q0 25 18 43t44 18t44 -17.5t18 -43.5q0 -25 -18 -42.5t-44 -17.5t-44 18t-18 42zM-29 645q0 25 18 43t44 18t44 -17.5t18 -43.5q0 -25 -18 -42.5t-44 -17.5t-44 18t-18 42zM176 474v-474h-94v474h94z"/>
<glyph glyph-name="eth" horiz-adv-x="610" unicode="ð" d="M142 237q0 -71 43 -120.5t116 -49.5t115.5 49.5t42.5 120.5t-42.5 120.5t-115.5 49.5t-116 -49.5t-43 -120.5zM481 713l-110 -54q83 -84 134 -186t51 -211q0 -116 -65 -195.5t-190 -79.5q-111 0 -183 70.5t-72 179.5t72 179.5t179 70.5q75 0 130 -49l2 2 q-59 111 -141 180l-110 -53l-48 47l110 53q-26 25 -89 70l77 47q59 -45 93 -78l108 53z"/>
<glyph glyph-name="ntilde" horiz-adv-x="582" unicode="ñ" d="M176 572h-55q20 116 102 116q33 0 75 -20q48 -22 67 -22q34 0 48 46h54q-20 -116 -102 -116q-31 0 -77 21q-42 21 -65 21q-35 0 -47 -46zM77 474h89q4 -48 4 -78h3q18 39 61 65t93 26q87 0 132 -54t45 -139v-294h-94v263q0 145 -108 145q-56 0 -91.5 -43t-35.5 -113v-252 h-94v372q0 61 -4 102z"/>
<glyph glyph-name="ograve" horiz-adv-x="610" unicode="ò" d="M283 564l-136 144h113l100 -144h-77zM463 238q0 71 -42.5 121t-115.5 50t-115.5 -50t-42.5 -121t42.5 -121.5t115.5 -50.5t115.5 50.5t42.5 121.5zM561 238q0 -109 -73.5 -180t-182.5 -71t-182 71t-73 180t72.5 179t182.5 70t183 -70t73 -179z"/>
<glyph glyph-name="oacute" horiz-adv-x="610" unicode="ó" d="M461 708l-136 -144h-77l100 144h113zM463 238q0 71 -42.5 121t-115.5 50t-115.5 -50t-42.5 -121t42.5 -121.5t115.5 -50.5t115.5 50.5t42.5 121.5zM561 238q0 -109 -73.5 -180t-182.5 -71t-182 71t-73 180t72.5 179t182.5 70t183 -70t73 -179z"/>
<glyph glyph-name="ocircumflex" horiz-adv-x="610" unicode="ô" d="M360 708l112 -144h-91l-75 99l-76 -99h-90l112 144h108zM463 238q0 71 -42.5 121t-115.5 50t-115.5 -50t-42.5 -121t42.5 -121.5t115.5 -50.5t115.5 50.5t42.5 121.5zM561 238q0 -109 -73.5 -180t-182.5 -71t-182 71t-73 180t72.5 179t182.5 70t183 -70t73 -179z"/>
<glyph glyph-name="otilde" horiz-adv-x="610" unicode="õ" d="M188 572h-55q20 116 102 116q33 0 75 -20q48 -22 67 -22q34 0 48 46h54q-20 -116 -102 -116q-31 0 -77 21q-42 21 -65 21q-35 0 -47 -46zM463 238q0 71 -42.5 121t-115.5 50t-115.5 -50t-42.5 -121t42.5 -121.5t115.5 -50.5t115.5 50.5t42.5 121.5zM561 238 q0 -109 -73.5 -180t-182.5 -71t-182 71t-73 180t72.5 179t182.5 70t183 -70t73 -179z"/>
<glyph glyph-name="odieresis" horiz-adv-x="610" unicode="ö" d="M341 645q0 25 18 43t44 18t44 -17.5t18 -43.5q0 -25 -18 -42.5t-44 -17.5t-44 18t-18 42zM147 645q0 25 18 43t44 18t44 -17.5t18 -43.5q0 -25 -18 -42.5t-44 -17.5t-44 18t-18 42zM463 238q0 71 -42.5 121t-115.5 50t-115.5 -50t-42.5 -121t42.5 -121.5t115.5 -50.5 t115.5 50.5t42.5 121.5zM561 238q0 -109 -73.5 -180t-182.5 -71t-182 71t-73 180t72.5 179t182.5 70t183 -70t73 -179z"/>
<glyph glyph-name="divide" horiz-adv-x="666" unicode="÷" d="M398 469q0 -27 -19 -46t-46 -19t-46 19t-19 46q0 26 19 45.5t46 19.5t46 -19.5t19 -45.5zM398 132q0 -27 -19 -46t-46 -19t-46 19t-19 46q0 26 19 45.5t46 19.5t46 -19.5t19 -45.5zM596 344v-82h-526v82h526z"/>
<glyph glyph-name="oslash" horiz-adv-x="610" unicode="ø" d="M438 338l-235 -240q41 -35 101 -35q76 0 119.5 51.5t43.5 123.5q0 62 -29 100zM172 136l234 241q-38 35 -101 35q-74 0 -117.5 -51.5t-43.5 -123.5q0 -64 28 -101zM568 471l-67 -70q60 -68 60 -164q0 -109 -73 -179.5t-183 -70.5q-92 0 -159 51l-68 -69l-36 36l66 68 q-58 67 -58 164q0 109 73 179.5t182 70.5q93 0 158 -51l68 70z"/>
<glyph glyph-name="ugrave" horiz-adv-x="582" unicode="ù" d="M267 564l-136 144h113l100 -144h-77zM504 0h-89q-4 48 -4 78h-2q-19 -39 -62 -65t-93 -26q-87 0 -132 54t-45 139v294h94v-262q0 -146 108 -146q57 0 92 43t35 113v252h94v-372q0 -61 4 -102z"/>
<glyph glyph-name="uacute" horiz-adv-x="582" unicode="ú" d="M452 708l-136 -144h-77l100 144h113zM504 0h-89q-4 48 -4 78h-2q-19 -39 -62 -65t-93 -26q-87 0 -132 54t-45 139v294h94v-262q0 -146 108 -146q57 0 92 43t35 113v252h94v-372q0 -61 4 -102z"/>
<glyph glyph-name="ucircumflex" horiz-adv-x="582" unicode="û" d="M345 708l112 -144h-91l-75 99l-76 -99h-90l112 144h108zM504 0h-89q-4 48 -4 78h-2q-19 -39 -62 -65t-93 -26q-87 0 -132 54t-45 139v294h94v-262q0 -146 108 -146q57 0 92 43t35 113v252h94v-372q0 -61 4 -102z"/>
<glyph glyph-name="udieresis" horiz-adv-x="582" unicode="ü" d="M325 645q0 25 18 43t44 18t44 -17.5t18 -43.5q0 -25 -18 -42.5t-44 -17.5t-44 18t-18 42zM131 645q0 25 18 43t44 18t44 -17.5t18 -43.5q0 -25 -18 -42.5t-44 -17.5t-44 18t-18 42zM504 0h-89q-4 48 -4 78h-2q-19 -39 -62 -65t-93 -26q-87 0 -132 54t-45 139v294h94v-262 q0 -146 108 -146q57 0 92 43t35 113v252h94v-372q0 -61 4 -102z"/>
<glyph glyph-name="yacute" horiz-adv-x="504" unicode="ý" d="M422 708l-136 -144h-77l100 144h113zM114 474l147 -372h2l131 372h100l-230 -586q-25 -65 -61.5 -96.5t-102.5 -31.5q-33 0 -62 7l9 83q24 -8 47 -8q34 0 53 18.5t35 60.5l30 79l-203 474h105z"/>
<glyph glyph-name="thorn" horiz-adv-x="636" unicode="þ" d="M487 238q0 71 -42 121t-116 50q-70 0 -115 -51t-45 -121t45 -120.5t115 -50.5q74 0 116 50.5t42 121.5zM175 71v-311h-93v996h93v-356h3q23 39 67.5 63t101.5 24q104 0 170.5 -71.5t66.5 -177.5q0 -107 -66 -179t-173 -72q-51 0 -96 22.5t-71 61.5h-3z"/>
<glyph glyph-name="OE" horiz-adv-x="1003" unicode="Œ" d="M452 621q-133 0 -214.5 -69.5t-81.5 -197.5q0 -124 82.5 -195t213.5 -71h60v533h-60zM432 708h510v-87h-331v-212h310v-85h-310v-236h346v-88h-525q-70 0 -136.5 22t-122 63.5t-89.5 111.5t-34 157q0 90 34 160.5t90 111.5t121.5 61.5t136.5 20.5z"/>
<glyph glyph-name="oe" horiz-adv-x="975" unicode="œ" d="M549 279h283q-2 59 -36.5 96.5t-97.5 37.5q-60 0 -102 -39t-47 -95zM463 238q0 71 -42.5 121t-115.5 50t-116 -50t-43 -121t43 -121.5t116 -50.5t115.5 50.5t42.5 121.5zM698 487q106 0 167 -66.5t61 -179.5q0 -21 -1 -32h-377q4 -61 48.5 -102.5t106.5 -41.5 q91 0 138 72l65 -53q-75 -97 -204 -97q-65 0 -116.5 27t-82.5 75q-31 -47 -83.5 -74.5t-117.5 -27.5q-109 0 -180.5 71t-71.5 180t71.5 179t180.5 70q65 0 118 -27.5t84 -75.5q32 47 82 75t112 28z"/>
<glyph glyph-name="Scaron" horiz-adv-x="569" unicode="Š" d="M463 908l-112 -144h-107l-111 144h90l76 -99l76 99h88zM508 645l-70 -68q-22 30 -58.5 48t-79.5 18q-54 0 -96 -29.5t-42 -85.5q0 -28 10 -47.5t34 -34t43 -22t58 -20.5q39 -12 59.5 -19.5t53.5 -25.5t50.5 -37.5t31 -51.5t13.5 -73q0 -104 -71.5 -159.5t-173.5 -55.5 q-69 0 -131.5 26.5t-101.5 76.5l77 65q25 -37 67.5 -60t90.5 -23q56 0 99 31.5t43 89.5q0 25 -10 45t-22 32t-39 24.5t-43.5 18.5t-53.5 17q-40 13 -67.5 25.5t-57 35t-44.5 57.5t-15 81q0 67 37 114.5t90.5 67.5t115.5 20q61 0 115.5 -22t87.5 -59z"/>
<glyph glyph-name="scaron" horiz-adv-x="444" unicode="š" d="M396 708l-112 -144h-107l-111 144h90l76 -99l76 99h88zM402 409l-65 -55q-16 26 -45.5 42.5t-64.5 16.5q-36 0 -62 -15.5t-26 -46.5q0 -28 25 -43t83 -28q159 -35 159 -140q0 -78 -54.5 -115.5t-134.5 -37.5q-56 0 -107 22t-84 63l67 57q19 -29 53.5 -47.5t72.5 -18.5 q40 0 67 16.5t27 52.5q0 31 -28.5 47t-95.5 32q-28 7 -49 15t-43 22.5t-34 38t-12 55.5q0 72 52.5 108.5t126.5 36.5q52 0 99.5 -20.5t72.5 -57.5z"/>
<glyph glyph-name="Ydieresis" horiz-adv-x="624" unicode="Ÿ" d="M350 845q0 25 18 43t44 18t44 -17.5t18 -43.5q0 -25 -18 -42.5t-44 -17.5t-44 18t-18 42zM156 845q0 25 18 43t44 18t44 -17.5t18 -43.5q0 -25 -18 -42.5t-44 -17.5t-44 18t-18 42zM362 306v-306h-100v306l-265 402h122l196 -320l197 320h115z"/>
<glyph glyph-name="circumflex" horiz-adv-x="250" unicode="ˆ" d="M179 708l112 -144h-91l-75 99l-76 -99h-90l112 144h108z"/>
<glyph glyph-name="tilde" horiz-adv-x="250" unicode="˜" d="M7 572h-55q20 116 102 116q33 0 75 -20q48 -22 67 -22q34 0 48 46h54q-20 -116 -102 -116q-31 0 -77 21q-42 21 -65 21q-35 0 -47 -46z"/>
<glyph glyph-name="uni0394" horiz-adv-x="706" unicode="Δ" d="M560 88l-209 505l-208 -505h417zM681 0h-656v65l284 643h90l282 -643v-65z"/>
<glyph glyph-name="uni03BC" horiz-adv-x="603" unicode="μ" d="M562 73l6 -75q-30 -6 -58 -6q-90 0 -95 86h-2q-19 -39 -56.5 -65t-82.5 -26q-74 0 -97 40h-2v-267h-94v714h94v-262q0 -146 108 -146q57 0 92 43t35 113v252h94v-369q0 -35 32 -35q12 0 26 3z"/>
<glyph glyph-name="pi" horiz-adv-x="637" unicode="π" d="M391 131v262h-156l-59 -393h-87l63 393h-117v81h557v-81h-111v-275q0 -48 45 -48q19 0 31 3l6 -75q-27 -6 -52 -6q-66 0 -93 31t-27 108z"/>
<glyph glyph-name="endash" horiz-adv-x="400" unicode="–" d="M370 282v-75h-340v75h340z"/>
<glyph glyph-name="emdash" horiz-adv-x="600" unicode="—" d="M570 282v-75h-540v75h540z"/>
<glyph glyph-name="quoteleft" horiz-adv-x="246" unicode="‘" d="M42 458l83 250h79l-68 -250h-94z"/>
<glyph glyph-name="quotesinglbase" horiz-adv-x="246" unicode="‚" d="M204 117l-83 -250h-79l69 250h93z"/>
<glyph glyph-name="quotedblleft" horiz-adv-x="426" unicode="“" d="M222 458l83 250h79l-68 -250h-94zM42 458l83 250h79l-68 -250h-94z"/>
<glyph glyph-name="quotedblright" horiz-adv-x="426" unicode="”" d="M204 708l-83 -250h-79l69 250h93zM384 708l-83 -250h-79l69 250h93z"/>
<glyph glyph-name="dagger" horiz-adv-x="575" unicode="†" d="M332 708v-203h202v-79h-202v-552h-90v552h-201v79h201v203h90z"/>
<glyph glyph-name="daggerdbl" horiz-adv-x="575" unicode="‡" d="M332 708v-188h194v-79h-194v-300h194v-78h-194v-189h-90v189h-194v78h194v300h-194v79h194v188h90z"/>
<glyph glyph-name="ellipsis" horiz-adv-x="1000" unicode="…" d="M753 70q0 32 23.5 55t56.5 23t56.5 -22t23.5 -54t-23.5 -55t-56.5 -23q-32 0 -56 22t-24 54zM420 70q0 32 23.5 55t56.5 23t56.5 -22t23.5 -54t-23.5 -55t-56.5 -23q-32 0 -56 22t-24 54zM87 70q0 32 23.5 55t56.5 23t56.5 -22t23.5 -54t-23.5 -55t-56.5 -23 q-32 0 -56 22t-24 54z"/>
<glyph glyph-name="perthousand" horiz-adv-x="1048" unicode="‰" d="M612 707l-469 -739l-56 32l470 739zM940 148q0 35 -25 59.5t-60 24.5t-59.5 -24.5t-24.5 -59.5t24.5 -60t59.5 -25t60 25t25 60zM696 148q0 66 46.5 112.5t112.5 46.5q67 0 113.5 -46.5t46.5 -112.5t-46.5 -112.5t-113.5 -46.5q-66 0 -112.5 46.5t-46.5 112.5zM588 148 q0 35 -25 59.5t-60 24.5t-59.5 -24.5t-24.5 -59.5t24.5 -60t59.5 -25t60 25t25 60zM344 148q0 66 46.5 112.5t112.5 46.5q67 0 113.5 -46.5t46.5 -112.5t-46.5 -112.5t-113.5 -46.5q-66 0 -112.5 46.5t-46.5 112.5zM283 563q0 35 -25 59.5t-60 24.5t-59.5 -24.5t-24.5 -59.5 t24.5 -60t59.5 -25t60 25t25 60zM39 563q0 66 46.5 112.5t112.5 46.5q67 0 113.5 -46.5t46.5 -112.5t-46.5 -112.5t-113.5 -46.5q-66 0 -112.5 46.5t-46.5 112.5z"/>
<glyph glyph-name="guilsinglleft" horiz-adv-x="298" unicode="‹" d="M133 244l115 -175l-62 -43l-146 218l146 217l62 -42z"/>
<glyph glyph-name="guilsinglright" horiz-adv-x="298" unicode="›" d="M166 243l-116 176l62 42l146 -218l-146 -217l-61 43z"/>
<glyph glyph-name="fraction" horiz-adv-x="100" unicode="⁄" d="M288 707l-432 -739l-66 33l434 739z"/>
<glyph glyph-name="Euro" d="M527 613q-50 29 -128 29q-74 0 -129.5 -44t-75.5 -120h294l-23 -71h-285q-4 -23 -4 -57q0 -28 3 -50h256l-23 -71h-222q14 -72 71.5 -117t136.5 -45q78 0 134 36l35 -76q-67 -45 -175 -45q-122 0 -199 70.5t-99 176.5h-80l24 71h47q-2 28 -2 50q0 34 3 57h-70l25 71h56 q28 115 110.5 181.5t196.5 66.5q93 0 154 -33z" unicode="€"/>
<glyph glyph-name="trademark" horiz-adv-x="1000" unicode="™" d="M937 708v-412h-82v307h-2l-119 -307h-55l-120 307h-2v-307h-81v412h118l113 -292l113 292h117zM393 708v-72h-127v-340h-81v340h-129v72h337z"/>
<glyph glyph-name="partialdiff" horiz-adv-x="523" unicode="∂" d="M391 271q-23 42 -60.5 66t-81.5 24q-62 0 -96.5 -44t-34.5 -108q0 -62 33 -108.5t94 -46.5q49 0 83.5 37.5t48 84t14.5 95.5zM481 360q0 -52 -5.5 -99.5t-21 -99t-41 -88.5t-69.5 -61t-101 -24q-94 0 -151 65t-57 160q0 93 55.5 154.5t147.5 61.5q89 0 156 -70 q0 6 0.5 20t0.5 21q0 43 -8 84t-26 80t-52.5 63t-80.5 24q-57 0 -116 -47l-47 55q78 62 159 62q71 0 123.5 -32.5t80 -87t40.5 -114.5t13 -127z"/>
<glyph glyph-name="product" horiz-adv-x="726" unicode="∏" d="M660 -214h-90v917h-413v-917h-91v1000h594v-1000z"/>
<glyph glyph-name="summation" horiz-adv-x="626" unicode="∑" d="M601 -214h-576v72l316 433l-303 422v73h551v-83h-432l292 -412l-311 -423h463v-82z"/>
<glyph glyph-name="minus" horiz-adv-x="666" unicode="−" d="M596 344v-82h-526v82h526z"/>
<glyph glyph-name="radical" horiz-adv-x="515" unicode="√" d="M526 786l-211 -1000h-86l-158 328l-48 -23l-33 70l124 58l144 -302l178 869h90z"/>
<glyph glyph-name="infinity" horiz-adv-x="778" unicode="∞" d="M754 263q0 -75 -43.5 -124.5t-117.5 -49.5q-54 0 -96.5 28t-88.5 79q-33 -35 -53.5 -54t-55.5 -35.5t-74 -16.5q-74 0 -119 48.5t-45 123.5q0 73 43.5 122t116.5 49q56 0 98.5 -29.5t88.5 -84.5q30 36 52.5 57t58.5 39.5t75 18.5q72 0 116 -49t44 -122zM361 259 q-28 26 -44.5 40.5t-47 31.5t-55.5 17q-35 0 -56.5 -26t-21.5 -62q0 -38 22 -61.5t60 -23.5q61 0 143 84zM681 260q0 38 -22 63.5t-60 25.5q-25 0 -54.5 -17t-45.5 -31.5t-43 -41.5q26 -25 43.5 -40t46.5 -29.5t56 -14.5q37 0 58 24t21 61z"/>
<glyph glyph-name="approxequal" horiz-adv-x="666" unicode="≈" d="M599 240q-7 -67 -40.5 -111t-96.5 -44q-44 0 -140 36q-99 35 -125 35q-29 0 -47.5 -22t-23.5 -52h-59q8 66 41 111t95 45q47 0 136 -35q97 -35 132 -35q57 0 70 72h58zM599 440q-7 -67 -40.5 -111t-96.5 -44q-44 0 -140 36q-99 35 -125 35q-29 0 -47.5 -22t-23.5 -52h-59 q8 66 41 111t95 45q47 0 136 -35q97 -35 132 -35q57 0 70 72h58z"/>
<glyph glyph-name="notequal" horiz-adv-x="666" unicode="≠" d="M552 108h-286l-77 -149l-73 38l58 111h-134v84h177l63 123h-240v84h284l77 149l74 -37l-59 -112h136v-84h-179l-64 -123h243v-84z"/>
<glyph glyph-name="lessequal" horiz-adv-x="666" unicode="≤" d="M589 8h-512v84h512v-84zM589 130l-512 179v86l512 183v-89l-397 -137l397 -134v-88z"/>
<glyph glyph-name="greaterequal" horiz-adv-x="666" unicode="≥" d="M589 8h-512v84h512v-84zM589 309l-512 -179v88l397 134l-397 137v89l512 -183v-86z"/>
<glyph glyph-name="lozenge" horiz-adv-x="593" unicode="◊" d="M424 356l-128 305l-127 -305l127 -305zM511 356l-174 -391h-82l-173 391l173 391h82z"/>
</font>
</defs>
</svg>
