<?xml version="1.0" encoding="UTF-8" standalone="no"?>
<!DOCTYPE svg  PUBLIC '-//W3C//DTD SVG 1.1//EN'  'http://www.w3.org/Graphics/SVG/1.1/DTD/svg11.dtd'>
<svg xmlns="http://www.w3.org/2000/svg">
<defs>
<font id="AvenirNextCyr-Light" horiz-adv-x="574">
<font-face underline-position="125" font-weight="300" descent="-200" panose-1="2 11 4 3 2 2 2 2 2 4" units-per-em="1000" unicode-range="U+0020-25CA" bbox="-202 -250 972 945" x-height="466" underline-thickness="50" font-family="AvenirNextCyr" ascent="800" cap-height="708"/>
<missing-glyph horiz-adv-x="1000"/>
<glyph glyph-name=".notdef" horiz-adv-x="1000"/>
<glyph glyph-name=".null" horiz-adv-x="1000"/>
<glyph glyph-name=".null" horiz-adv-x="1000"/>
<glyph glyph-name="nonmarkingreturn" horiz-adv-x="333"/>
<glyph glyph-name="space" horiz-adv-x="250" unicode=" "/>
<glyph glyph-name="exclam" horiz-adv-x="312" unicode="!" d="M201 39q0 -18 -13 -31.5t-32 -13.5t-32 13.5t-13 31.5q0 19 13 32.5t32 13.5t32 -13.5t13 -32.5zM185 708v-515h-57v515h57z"/>
<glyph glyph-name="quotedbl" horiz-adv-x="405" unicode='&quot;' d="M250 475v233h49v-233h-49zM106 475v233h48v-233h-48z"/>
<glyph glyph-name="numbersign" horiz-adv-x="554" unicode="#" d="M216 441l-23 -172h144l23 172h-144zM108 0l30 222h-105v47h111l24 172h-109v47h116l29 220h48l-29 -220h144l30 220h48l-29 -220h96v-47h-103l-23 -172h100v-47h-107l-30 -222h-48l30 222h-145l-30 -222h-48z"/>
<glyph glyph-name="dollar" d="M261 34v304q-42 13 -72 27t-59.5 36t-45 55.5t-15.5 76.5q0 82 54.5 132t137.5 55v72h40v-72q117 -2 183 -80l-36 -34q-58 69 -147 69v-293q37 -13 62 -23.5t54 -28t46.5 -38t29 -50t11.5 -66.5q0 -83 -57.5 -134.5t-145.5 -53.5v-72h-40v72q-125 3 -203 102l40 31 q33 -43 77 -64.5t86 -22.5zM301 328v-294q60 3 103 39.5t43 106.5q0 101 -146 148zM261 396v279q-58 -3 -97.5 -40.5t-39.5 -97.5q0 -102 137 -141z" unicode="$"/>
<glyph glyph-name="percent" horiz-adv-x="829" unicode="%" d="M657 716l-447 -746l-41 22l448 746zM738 159q0 52 -35.5 87.5t-86.5 35.5q-50 0 -85.5 -35.5t-35.5 -87.5t35.5 -87t85.5 -35q51 0 86.5 35t35.5 87zM787 159q0 -71 -50 -120.5t-121 -49.5t-120.5 49.5t-49.5 120.5t49.5 120.5t120.5 49.5t121 -49.5t50 -120.5zM334 548 q0 52 -35.5 87.5t-85.5 35.5q-51 0 -86.5 -35.5t-35.5 -87.5t35.5 -87t86.5 -35q50 0 85.5 35t35.5 87zM383 548q0 -71 -49.5 -120.5t-120.5 -49.5q-72 0 -121.5 49.5t-49.5 120.5q0 72 49.5 121.5t121.5 49.5q71 0 120.5 -49.5t49.5 -121.5z"/>
<glyph glyph-name="ampersand" horiz-adv-x="704" unicode="&amp;" d="M454 148l-198 209q-141 -66 -141 -175q0 -65 46 -106.5t113 -41.5q108 0 180 114zM413 571q0 47 -31 77.5t-77 30.5q-49 0 -81.5 -32t-32.5 -84q0 -67 81 -146q67 33 104 67.5t37 86.5zM652 379l-128 -221l151 -158h-78l-105 111q-86 -125 -221 -125q-92 0 -152.5 52.5 t-60.5 144.5q0 74 43 124t122 87q-88 93 -88 169q0 75 48.5 119t121.5 44q70 0 117 -42t47 -111q0 -64 -43 -107t-121 -83l180 -188l103 184h64z"/>
<glyph glyph-name="quotesingle" horiz-adv-x="260" unicode="&apos;" d="M106 475v233h48v-233h-48z"/>
<glyph glyph-name="parenleft" horiz-adv-x="300" unicode="(" d="M97 288q0 -111 35.5 -221.5t95.5 -198.5l-43 -26q-140 204 -140 446q0 123 38 241t102 205l43 -26q-59 -83 -95 -195.5t-36 -224.5z"/>
<glyph glyph-name="parenright" horiz-adv-x="300" unicode=")" d="M202 288q0 112 -36 224.5t-95 195.5l43 26q64 -87 102.5 -205t38.5 -241t-38.5 -241t-102.5 -205l-43 26q59 83 95 195.5t36 224.5z"/>
<glyph glyph-name="asterisk" horiz-adv-x="444" unicode="*" d="M246 708v-151l147 47l16 -45l-148 -46l94 -127l-38 -29l-95 130l-95 -130l-38 29l94 127l-148 46l16 45l147 -47v151h48z"/>
<glyph glyph-name="plus" horiz-adv-x="666" unicode="+" d="M358 554v-227h223v-47h-223v-227h-49v227h-224v47h224v227h49z"/>
<glyph glyph-name="comma" horiz-adv-x="254" unicode="," d="M174 94l-76 -233h-45l64 233h57z"/>
<glyph glyph-name="hyphen" horiz-adv-x="314" unicode="-" d="M262 269v-46h-210v46h210z"/>
<glyph glyph-name="period" horiz-adv-x="254" unicode="." d="M172 40q0 -19 -13 -32.5t-32 -13.5t-32 13.5t-13 32.5q0 18 13 31.5t32 13.5t32 -13.5t13 -31.5z"/>
<glyph glyph-name="slash" horiz-adv-x="370" unicode="/" d="M360 711l-303 -728l-47 15l305 729z"/>
<glyph glyph-name="zero" d="M287 675q-50 0 -86 -31t-53.5 -82t-24.5 -102t-7 -107t7 -106t24.5 -101.5t53.5 -82t86 -30.5t85.5 30.5t53 81.5t25 102t7.5 106q0 56 -7.5 107t-25 102t-53 82t-85.5 31zM287 724q52 0 92 -22t65 -57t41.5 -84.5t23 -100t6.5 -107.5q0 -71 -11 -133t-35.5 -117t-71 -87 t-110.5 -32t-110.5 32t-71 87t-35.5 116.5t-11 133.5t11 134t35.5 117.5t71 87.5t110.5 32z" unicode="0"/>
<glyph glyph-name="one" d="M344 708v-708h-57v638l-130 -111l-34 40l170 141h51z" unicode="1"/>
<glyph glyph-name="two" d="M491 51v-51h-436v60l277 292q96 101 96 181q0 64 -42 103.5t-104 39.5q-56 0 -97 -34t-55 -91l-56 12q17 72 73.5 116.5t134.5 44.5q87 0 145.5 -50.5t58.5 -137.5q0 -62 -30 -111.5t-92 -114.5l-248 -259h375z" unicode="2"/>
<glyph glyph-name="three" d="M215 347v49h29q73 0 120.5 34.5t47.5 105.5q0 62 -41.5 101t-102.5 39q-86 0 -139 -80l-43 28q63 100 184 100q84 0 141 -49.5t57 -135.5q0 -62 -35 -107t-95 -58v-2q70 -14 111 -62t41 -117q0 -93 -61.5 -151t-158.5 -58q-148 0 -213 132l47 24q52 -107 166 -107 q70 0 116.5 44t46.5 116q0 78 -56 116t-133 38h-29z" unicode="3"/>
<glyph glyph-name="four" d="M368 225v419h-2l-265 -419h267zM424 708v-483h108v-50h-108v-175h-56v175h-326v57l306 476h76z" unicode="4"/>
<glyph glyph-name="five" d="M466 708v-51h-296l-6 -236q43 19 105 19q100 0 163 -62t63 -160q0 -104 -65 -169t-164 -65q-138 0 -202 116l47 27q54 -94 152 -94q73 0 123.5 50t50.5 130q0 81 -51 130.5t-133 49.5q-72 0 -143 -38l7 353h349z" unicode="5"/>
<glyph glyph-name="six" d="M120 204q0 -74 47 -123t120 -49t120 49t47 123t-46 122.5t-119 48.5q-74 0 -121.5 -49t-47.5 -122zM383 708l-203 -324l2 -2q41 39 117 39q91 0 151.5 -61t60.5 -156q0 -97 -63 -158.5t-161 -61.5t-160.5 61.5t-62.5 158.5q0 87 62 190l191 314h66z" unicode="6"/>
<glyph glyph-name="seven" d="M486 708v-54l-288 -654h-64l295 657h-352v51h409z" unicode="7"/>
<glyph glyph-name="eight" d="M122 192q0 -69 46 -114.5t119 -45.5t119 45.5t46 114.5t-46.5 114t-118.5 45t-118.5 -45t-46.5 -114zM148 537q0 -58 40 -97t99 -39t99 39t40 97q0 60 -39.5 99.5t-99.5 39.5t-99.5 -39.5t-39.5 -99.5zM370 376q64 -19 101.5 -70t37.5 -119q0 -91 -64.5 -147t-157.5 -56 t-157.5 56t-64.5 147q0 68 37.5 119.5t101.5 69.5v2q-51 18 -81.5 63t-30.5 99q0 82 56.5 133t138.5 51t138.5 -51t56.5 -133q0 -54 -30.5 -99t-81.5 -63v-2z" unicode="8"/>
<glyph glyph-name="nine" d="M455 505q0 74 -47 122.5t-120 48.5t-120 -48.5t-47 -122.5t46 -122t120 -48t121 48.5t47 121.5zM192 0l204 326l-2 2q-41 -39 -118 -39q-91 0 -151.5 60.5t-60.5 155.5q0 96 63.5 157.5t161.5 61.5t160 -61t62 -158q0 -89 -61 -189l-192 -316h-66z" unicode="9"/>
<glyph glyph-name="colon" horiz-adv-x="294" unicode=":" d="M192 40q0 -19 -13 -32.5t-32 -13.5t-32 13.5t-13 32.5q0 18 13 31.5t32 13.5t32 -13.5t13 -31.5zM192 424q0 -18 -13 -31.5t-32 -13.5t-32 13.5t-13 31.5t13 32t32 14t32 -14t13 -32z"/>
<glyph glyph-name="semicolon" horiz-adv-x="294" unicode=";" d="M188 94l-76 -233h-47l64 233h59zM192 424q0 -18 -13 -31.5t-32 -13.5t-32 13.5t-13 31.5t13 32t32 14t32 -14t13 -32z"/>
<glyph glyph-name="less" horiz-adv-x="666" unicode="&lt;" d="M581 557v-49l-436 -205l436 -205v-49l-496 234v40z"/>
<glyph glyph-name="equal" horiz-adv-x="666" unicode="=" d="M85 249h496v-48h-496v48zM85 405h496v-47h-496v47z"/>
<glyph glyph-name="greater" horiz-adv-x="666" unicode="&gt;" d="M85 508v49l496 -234v-40l-496 -234v49l436 205z"/>
<glyph glyph-name="question" horiz-adv-x="479" unicode="?" d="M289 39q0 -18 -12.5 -31.5t-31.5 -13.5q-20 0 -32.5 13.5t-12.5 31.5q0 19 12.5 32.5t32.5 13.5q19 0 31.5 -13.5t12.5 -32.5zM267 240v-46h-56v58q0 47 19.5 81t57.5 67l30 26q30 26 45.5 53t15.5 66q0 59 -38.5 93t-96.5 34q-57 0 -94.5 -34.5t-46.5 -90.5l-54 10 q15 77 68 121t129 44q82 0 136 -46.5t54 -127.5q0 -58 -22 -92t-69 -72q-47 -39 -62.5 -66t-15.5 -78z"/>
<glyph glyph-name="at" horiz-adv-x="800" unicode="@" d="M697 143l30 -36q-117 -126 -309 -126q-169 0 -274 105.5t-105 267.5q0 158 110 265.5t268 107.5q147 0 249 -86t102 -233q0 -114 -55 -181t-140 -67q-42 0 -63.5 21.5t-21.5 56.5h-3q-15 -29 -49 -53.5t-79 -24.5q-63 0 -99.5 43.5t-36.5 110.5q0 91 56 163.5t143 72.5 q39 0 67 -19t37 -50h4l13 53h50l-49 -201q-10 -45 -10 -74q0 -52 53 -52q59 0 94 56.5t35 139.5q0 127 -83 200.5t-215 73.5q-140 0 -229 -94t-89 -232q0 -143 90 -232.5t235 -89.5q163 0 274 114zM418 502q-62 0 -100.5 -60t-38.5 -131q0 -41 20.5 -72.5t64.5 -31.5 q45 0 78.5 35t47 77.5t13.5 80.5q0 44 -20 73t-65 29z"/>
<glyph glyph-name="A" horiz-adv-x="690" unicode="A" d="M346 648l-170 -405h337zM155 191l-80 -191h-63l307 708h57l301 -708h-63l-80 191h-379z"/>
<glyph glyph-name="B" horiz-adv-x="629" unicode="B" d="M155 346v-297h149q89 0 145 36t56 111t-52 112.5t-137 37.5h-161zM155 659v-265h152q67 0 115.5 32.5t48.5 100.5t-50 100t-129 32h-137zM98 0v708h205q44 0 81.5 -8.5t71.5 -27.5t53.5 -55t19.5 -86q0 -60 -36.5 -101.5t-94.5 -54.5v-2q69 -7 117 -54t48 -125 q0 -93 -70.5 -143.5t-182.5 -50.5h-212z"/>
<glyph glyph-name="C" horiz-adv-x="721" unicode="C" d="M645 136l39 -31q-95 -124 -258 -124q-159 0 -262 105.5t-103 267.5t104 267.5t262 105.5q78 0 142 -27t102 -76l-41 -38q-32 40 -85.5 65t-116.5 25q-138 0 -222.5 -93.5t-84.5 -228.5t84.5 -228.5t222.5 -93.5q133 0 217 104z"/>
<glyph glyph-name="D" horiz-adv-x="761" unicode="D" d="M155 657v-606h152q155 0 244 85t89 218t-89 218t-244 85h-152zM98 0v708h224q73 0 139.5 -22t120.5 -64.5t86 -112t32 -155.5t-32 -155.5t-86 -112t-120.5 -64.5t-139.5 -22h-224z"/>
<glyph glyph-name="E" horiz-adv-x="591" unicode="E" d="M154 343v-292h388v-51h-444v708h431v-51h-375v-264h351v-50h-351z"/>
<glyph glyph-name="F" horiz-adv-x="561" unicode="F" d="M155 342v-342h-57v708h420v-51h-363v-265h337v-50h-337z"/>
<glyph glyph-name="G" horiz-adv-x="784" unicode="G" d="M677 635l-36 -39q-80 80 -211 80q-139 0 -224 -93t-85 -228t85 -229t226 -94q122 0 203 48v234h-170v50h227v-316q-112 -67 -261 -67q-162 0 -266 106t-104 268q0 161 104.5 266.5t264.5 105.5q153 0 247 -92z"/>
<glyph glyph-name="H" horiz-adv-x="722" unicode="H" d="M98 0v708h57v-314h413v314h57v-708h-57v341h-413v-341h-57z"/>
<glyph glyph-name="I" horiz-adv-x="252" unicode="I" d="M155 708v-708h-57v708h57z"/>
<glyph glyph-name="J" horiz-adv-x="488" unicode="J" d="M26 116l53 15q12 -44 45 -71.5t80 -27.5q135 0 135 173v503h57v-507q0 -42 -9 -78.5t-29.5 -69.5t-58 -52t-89.5 -19q-71 0 -120 37.5t-64 96.5z"/>
<glyph glyph-name="K" horiz-adv-x="609" unicode="K" d="M155 708v-320l343 320h82l-358 -322l377 -386h-83l-361 378v-378h-57v708h57z"/>
<glyph glyph-name="L" horiz-adv-x="506" unicode="L" d="M155 708v-657h336v-51h-393v708h57z"/>
<glyph glyph-name="M" horiz-adv-x="892" unicode="M" d="M98 0v708h88l261 -613l259 613h88v-708h-57v635h-2l-273 -635h-32l-273 635h-2v-635h-57z"/>
<glyph glyph-name="N" horiz-adv-x="768" unicode="N" d="M170 708l441 -626h2v626h57v-708h-72l-441 630h-2v-630h-57v708h72z"/>
<glyph glyph-name="O" horiz-adv-x="857" unicode="O" d="M736 354q0 135 -85.5 228.5t-222.5 93.5t-222 -93.5t-85 -228.5t85 -228.5t222 -93.5q138 0 223 93.5t85 228.5zM796 354q0 -162 -104.5 -267.5t-263.5 -105.5q-158 0 -262.5 105.5t-104.5 267.5t104.5 267.5t262.5 105.5q159 0 263.5 -105.5t104.5 -267.5z"/>
<glyph glyph-name="P" horiz-adv-x="578" unicode="P" d="M155 659v-276h140q81 0 128.5 35.5t47.5 104.5t-48 102.5t-129 33.5h-139zM98 0v708h197q105 0 169 -46t64 -139q0 -91 -63 -139.5t-167 -48.5h-143v-335h-57z"/>
<glyph glyph-name="Q" horiz-adv-x="855" unicode="Q" d="M825 51v-51h-405q-154 0 -256.5 102t-102.5 260t102.5 261.5t257.5 103.5q154 0 256.5 -104t102.5 -261q0 -102 -51.5 -186t-139.5 -123v-2h236zM121 362q0 -130 83 -221t217 -91q133 0 216.5 92.5t83.5 219.5q0 131 -83.5 222.5t-216.5 91.5q-134 0 -217 -91t-83 -223z "/>
<glyph glyph-name="R" horiz-adv-x="598" unicode="R" d="M155 659v-271h139q90 0 138.5 34.5t48.5 100.5q0 136 -188 136h-138zM155 339v-339h-57v708h204q236 0 236 -185q0 -80 -54 -127t-134 -53l209 -343h-69l-202 339h-133z"/>
<glyph glyph-name="S" horiz-adv-x="566" unicode="S" d="M491 643l-41 -37q-59 72 -156 72q-64 0 -114 -37.5t-50 -105.5q0 -42 20.5 -71t53.5 -45t72.5 -29t79 -28t72.5 -35.5t53.5 -57.5t20.5 -88q0 -96 -67 -148t-159 -52q-136 0 -214 102l40 35q74 -87 174 -87q67 0 117.5 39.5t50.5 107.5q0 42 -20.5 71.5t-53 46.5 t-72.5 30.5t-79.5 28.5t-72 35.5t-53 57t-20.5 87.5q0 92 67 142t157 50q130 0 194 -84z"/>
<glyph glyph-name="T" horiz-adv-x="561" unicode="T" d="M309 657v-657h-57v657h-238v51h533v-51h-238z"/>
<glyph glyph-name="U" horiz-adv-x="717" unicode="U" d="M358 -19q-74 0 -128.5 25.5t-83 68.5t-41.5 90t-13 100v443h57v-436q0 -36 5.5 -68.5t20.5 -64.5t38 -55t60 -37.5t85 -14.5q59 0 101.5 21t65.5 56.5t33 76t10 86.5v436h57v-443q0 -53 -13 -100t-41.5 -90t-83 -68.5t-129.5 -25.5z"/>
<glyph glyph-name="V" horiz-adv-x="618" unicode="V" d="M69 708l239 -637h2l239 637h61l-270 -708h-64l-269 708h62z"/>
<glyph glyph-name="W" horiz-adv-x="967" unicode="W" d="M78 708l184 -633h2l184 633h71l185 -633h3l182 633h60l-210 -708h-69l-186 632h-2l-185 -632h-69l-210 708h60z"/>
<glyph glyph-name="X" horiz-adv-x="631" unicode="X" d="M95 0h-71l257 372l-234 336h71l198 -292l196 292h67l-231 -335l259 -373h-71l-221 327z"/>
<glyph glyph-name="Y" horiz-adv-x="583" unicode="Y" d="M320 306v-306h-57v306l-259 402h71l218 -353l219 353h66z"/>
<glyph glyph-name="Z" horiz-adv-x="579" unicode="Z" d="M536 708v-51l-428 -606h436v-51h-506v50l429 607h-418v51h487z"/>
<glyph glyph-name="bracketleft" horiz-adv-x="300" unicode="[" d="M220 732v-44h-103v-800h103v-44h-155v888h155z"/>
<glyph glyph-name="backslash" horiz-adv-x="370" unicode="\" d="M314 -17l-304 728l46 16l304 -729z"/>
<glyph glyph-name="bracketright" horiz-adv-x="300" unicode="]" d="M80 -156v44h103v800h-103v44h155v-888h-155z"/>
<glyph glyph-name="asciicircum" horiz-adv-x="666" unicode="^" d="M85 265l228 443h40l228 -443h-50l-198 389l-198 -389h-50z"/>
<glyph glyph-name="underscore" horiz-adv-x="500" unicode="_" d="M0 -122v41h500v-41h-500z"/>
<glyph glyph-name="grave" horiz-adv-x="240" unicode="`" d="M125 564l-126 144h72l101 -144h-47z"/>
<glyph glyph-name="a" horiz-adv-x="527" unicode="a" d="M231 32q76 0 116.5 49.5t40.5 119.5v38h-35q-239 0 -239 -110q0 -50 34.5 -73.5t82.5 -23.5zM218 -13q-62 0 -111 35t-49 104q0 48 23.5 80.5t67 48t88.5 21.5t104 6h47v21q0 130 -132 130q-82 0 -139 -55l-30 36q66 64 174 64q81 0 130 -43t49 -126v-204q0 -63 8 -105 h-49q-8 48 -8 86h-2q-55 -99 -171 -99z"/>
<glyph glyph-name="b" horiz-adv-x="634" unicode="b" d="M519 233q0 85 -50.5 142.5t-135.5 57.5q-82 0 -136 -57.5t-54 -142.5t54 -142t136 -57q85 0 135.5 57t50.5 142zM152 92h-3v-92h-54v756h54v-385h3q29 51 79.5 79t106.5 28q106 0 172 -69.5t66 -175.5t-66.5 -176t-171.5 -70q-56 0 -107 27.5t-79 77.5z"/>
<glyph glyph-name="c" horiz-adv-x="494" unicode="c" d="M466 405l-36 -33q-21 27 -56 43t-73 16q-83 0 -134.5 -56.5t-51.5 -141.5t51 -141t133 -56t136 56l34 -31q-64 -74 -170 -74q-108 0 -174 69t-66 177q0 107 67.5 176t173.5 69q108 0 166 -73z"/>
<glyph glyph-name="d" horiz-adv-x="634" unicode="d" d="M115 233q0 -85 50.5 -142t135.5 -57q82 0 135.5 57t53.5 142t-53.5 142.5t-135.5 57.5q-85 0 -135.5 -57.5t-50.5 -142.5zM482 92q-29 -50 -79.5 -77.5t-106.5 -27.5q-105 0 -171.5 70t-66.5 176q0 105 66.5 175t171.5 70q56 0 106.5 -28t79.5 -79h2v385h55v-756h-55v92 h-2z"/>
<glyph glyph-name="e" horiz-adv-x="567" unicode="e" d="M294 -13q-102 0 -169 70t-67 177q0 105 66.5 174.5t164.5 69.5q105 0 162.5 -65.5t57.5 -162.5v-28h-395q2 -77 52 -132.5t130 -55.5q93 0 160 79l36 -29q-75 -97 -198 -97zM115 265h340q-3 75 -47.5 121.5t-119.5 46.5q-74 0 -122 -52.5t-51 -115.5z"/>
<glyph glyph-name="f" horiz-adv-x="291" unicode="f" d="M282 466v-46h-114v-420h-55v420h-97v46h97v139q0 80 39 121.5t108 41.5q32 0 53 -7l-9 -45q-18 5 -45 5q-91 0 -91 -122v-133h114z"/>
<glyph glyph-name="g" horiz-adv-x="630" unicode="g" d="M115 237q0 -82 50.5 -138.5t135.5 -56.5q82 0 135.5 55.5t53.5 139.5q0 80 -54 138t-135 58q-85 0 -135.5 -57t-50.5 -139zM74 -151l35 37q76 -81 186 -81q99 0 144 57.5t45 148.5v91h-2q-26 -50 -77.5 -78t-108.5 -28q-106 0 -172 67.5t-66 171.5q0 103 66.5 173 t171.5 70q57 0 107.5 -28t78.5 -79h2v95h55v-455q0 -48 -11.5 -89.5t-37.5 -80.5t-76.5 -61.5t-120.5 -22.5q-133 0 -219 92z"/>
<glyph glyph-name="h" horiz-adv-x="579" unicode="h" d="M149 375h2q23 50 67 76.5t97 26.5q88 0 131.5 -53.5t43.5 -140.5v-284h-54v264q0 168 -133 168q-64 0 -109 -51t-45 -144v-237h-54v756h54v-381z"/>
<glyph glyph-name="i" horiz-adv-x="243" unicode="i" d="M162 651q0 -17 -12.5 -29t-28.5 -12t-28 12t-12 29t12 29t28 12t28.5 -12t12.5 -29zM149 466v-466h-55v466h55z"/>
<glyph glyph-name="j" horiz-adv-x="244" unicode="j" d="M163 651q0 -17 -12.5 -29t-28.5 -12t-28 12t-12 29t12 29t28 12t28.5 -12t12.5 -29zM-24 -234l8 45q20 -5 38 -5q44 0 58.5 27.5t14.5 79.5v553h54v-560q0 -68 -28 -107t-98 -39q-30 0 -47 6z"/>
<glyph glyph-name="k" horiz-adv-x="491" unicode="k" d="M149 756v-502h3l222 212h78l-238 -214l263 -252h-80l-245 245h-3v-245h-54v756h54z"/>
<glyph glyph-name="l" horiz-adv-x="244" unicode="l" d="M149 756v-756h-54v756h54z"/>
<glyph glyph-name="m" horiz-adv-x="885" unicode="m" d="M94 0v359q0 66 -4 107h52q4 -52 4 -93h2q20 48 63.5 76.5t93.5 28.5q112 0 149 -111h2q23 53 66 82t101 29q86 0 129.5 -53.5t43.5 -140.5v-284h-54v264q0 76 -30.5 122.5t-96.5 46.5q-70 0 -107.5 -54t-37.5 -136v-243h-55v274q0 159 -119 159q-60 0 -103.5 -52 t-43.5 -144v-237h-55z"/>
<glyph glyph-name="n" horiz-adv-x="578" unicode="n" d="M90 466h52q4 -52 4 -93h2q20 47 67 76t100 29q87 0 130.5 -53t43.5 -141v-284h-54v264q0 168 -132 168q-65 0 -109.5 -51t-44.5 -144v-237h-55v359q0 66 -4 107z"/>
<glyph glyph-name="o" horiz-adv-x="609" unicode="o" d="M494 233q0 85 -52 141.5t-138 56.5q-85 0 -137 -56.5t-52 -141.5t52 -141t137 -56q86 0 138 56t52 141zM550 233q0 -106 -69 -176t-177 -70q-107 0 -176 70t-69 176q0 107 68.5 176t176.5 69t177 -69t69 -176z"/>
<glyph glyph-name="p" horiz-adv-x="632" unicode="p" d="M517 233q0 85 -50.5 142.5t-135.5 57.5q-81 0 -134.5 -57.5t-53.5 -142.5t53.5 -142t134.5 -57q85 0 135.5 57t50.5 142zM148 90v-330h-54v706h54v-93h3q29 52 78.5 78.5t106.5 26.5q106 0 172.5 -69.5t66.5 -175.5t-65.5 -176t-171.5 -70q-58 0 -109 26.5t-78 76.5h-3z "/>
<glyph glyph-name="q" horiz-adv-x="632" unicode="q" d="M115 233q0 -85 50.5 -142t135.5 -57q81 0 134.5 57t53.5 142t-53.5 142.5t-134.5 57.5q-85 0 -135.5 -57.5t-50.5 -142.5zM484 92h-3q-27 -49 -78 -77t-107 -28q-105 0 -171.5 70t-66.5 176t66 175.5t172 69.5q56 0 106.5 -28t78.5 -79h3v95h55v-706h-55v332z"/>
<glyph glyph-name="r" horiz-adv-x="347" unicode="r" d="M94 359q0 66 -4 107h52q4 -52 4 -93h2q19 49 60.5 77t92.5 28q25 0 37 -4l-6 -50q-14 4 -38 4q-65 0 -105 -51t-40 -138v-239h-55v359z"/>
<glyph glyph-name="s" horiz-adv-x="435" unicode="s" d="M379 399l-42 -30q-38 64 -117 64q-42 0 -73.5 -20.5t-31.5 -60.5q0 -38 27 -56.5t90 -32.5q78 -17 117 -48t39 -86q0 -70 -49.5 -105.5t-119.5 -35.5q-118 0 -177 87l43 31q21 -32 56.5 -52t77.5 -20q48 0 81.5 22.5t33.5 68.5q0 35 -28 55t-68 29.5t-79.5 21t-67.5 40.5 t-28 77q0 64 46.5 97t112.5 33q52 0 93.5 -20.5t63.5 -58.5z"/>
<glyph glyph-name="t" horiz-adv-x="313" unicode="t" d="M294 466v-46h-133v-295q0 -47 19 -66.5t55 -19.5q29 0 57 13l3 -47q-36 -13 -74 -13q-49 0 -81.5 28.5t-32.5 91.5v308h-98v46h97v133h55v-133h133z"/>
<glyph glyph-name="u" horiz-adv-x="578" unicode="u" d="M488 0h-53q-4 50 -4 92h-2q-19 -47 -66 -76t-100 -29q-88 0 -131.5 53.5t-43.5 140.5v285h55v-264q0 -169 132 -169q64 0 109 51.5t45 144.5v237h54v-359q0 -57 5 -107z"/>
<glyph glyph-name="v" horiz-adv-x="472" unicode="v" d="M453 466l-185 -466h-62l-188 466h61l158 -409h2l156 409h58z"/>
<glyph glyph-name="w" horiz-adv-x="732" unicode="w" d="M28 466h58l117 -398h2l133 398h55l135 -398h2l116 398h57l-144 -466h-61l-132 396h-2l-131 -396h-61z"/>
<glyph glyph-name="x" horiz-adv-x="474" unicode="x" d="M20 0l183 242l-169 224h70l133 -186l133 186h66l-167 -222l186 -244h-71l-148 205l-151 -205h-65z"/>
<glyph glyph-name="y" horiz-adv-x="470" unicode="y" d="M84 -241q-25 0 -55 7l7 49q21 -8 46 -8q34 0 54.5 21.5t36.5 63.5l40 105l-195 469h61l162 -411l2 2l150 409h59l-232 -596q-22 -55 -53 -83t-83 -28z"/>
<glyph glyph-name="z" horiz-adv-x="441" unicode="z" d="M393 466v-41l-286 -378h297v-47h-368v40l287 380h-272v46h342z"/>
<glyph glyph-name="braceleft" horiz-adv-x="300" unicode="{" d="M0 264v48q78 0 78 112v183q0 66 30 95.5t78 29.5h58v-44h-48q-65 0 -65 -89v-184q0 -62 -26.5 -92t-55.5 -34v-2q29 -4 55.5 -34t26.5 -92v-184q0 -89 65 -89h48v-44h-58q-48 0 -78 29.5t-30 95.5v183q0 112 -78 112z"/>
<glyph glyph-name="bar" horiz-adv-x="222" unicode="|" d="M87 750h48v-1000h-48v1000z"/>
<glyph glyph-name="braceright" horiz-adv-x="300" unicode="}" d="M300 312v-48q-78 0 -78 -112v-183q0 -66 -30 -95.5t-78 -29.5h-58v44h48q65 0 65 89v184q0 62 26.5 92t55.5 34v2q-29 4 -55.5 34t-26.5 92v184q0 89 -65 89h-48v44h58q48 0 78 -29.5t30 -95.5v-183q0 -112 78 -112z"/>
<glyph glyph-name="asciitilde" horiz-adv-x="666" unicode="~" d="M542 365l34 -33q-58 -92 -134 -92q-55 0 -108 35q-38 25 -60 34t-47 9q-61 0 -102 -76l-35 32q62 93 135 93q55 0 107 -35q66 -44 108 -44q56 0 102 77z"/>
<glyph glyph-name="uni00A0" horiz-adv-x="250" unicode=" "/>
<glyph glyph-name="exclamdown" horiz-adv-x="312" unicode="¡" d="M201 442q0 -19 -13 -32.5t-32 -13.5t-32 13.5t-13 32.5q0 18 13 31.5t32 13.5t32 -13.5t13 -31.5zM185 288v-515h-57v515h57z"/>
<glyph glyph-name="cent" d="M144 233q0 -76 41.5 -130t110.5 -65v390q-70 -12 -111 -66t-41 -129zM340 -72h-44v61q-95 10 -151.5 77t-56.5 167q0 98 57.5 165.5t150.5 77.5v64h44v-62q100 -5 155 -73l-36 -33q-43 54 -119 59v-395q74 4 124 56l34 -31q-60 -70 -158 -74v-59z" unicode="¢"/>
<glyph glyph-name="sterling" d="M405 390v-48h-169v-294h261v-48h-422v48h104v294h-96v48h96v106q0 99 49.5 164.5t153.5 65.5q87 0 142 -55l-35 -40q-43 46 -109 46q-55 0 -89 -31t-44.5 -69.5t-10.5 -85.5v-101h169z" unicode="£"/>
<glyph glyph-name="currency" horiz-adv-x="842" unicode="¤" d="M422 507q-87 0 -140 -57t-53 -141q0 -85 53.5 -142.5t139.5 -57.5t139.5 57.5t53.5 142.5q0 84 -53 141t-140 57zM621 470q53 -67 53 -161q0 -97 -57 -165q9 -10 27 -27.5t39.5 -39l27.5 -27.5l-35 -35q-84 83 -95 94q-67 -53 -159 -53q-93 0 -160 55l-97 -96l-34 35 l96 96q-55 64 -55 163q0 94 51 159l-92 92l35 35q9 -10 26.5 -27.5t38.5 -38t27 -26.5q69 58 164 58q96 0 162 -57q10 9 27 26.5t37.5 38l26.5 26.5l36 -35z"/>
<glyph glyph-name="yen" d="M87 223h173v113h-173v43h156l-228 329h70l204 -309l202 309h68l-226 -329h154v-43h-173v-113h173v-44h-173v-179h-54v179h-173v44z" unicode="¥"/>
<glyph glyph-name="brokenbar" horiz-adv-x="222" unicode="¦" d="M88 170h47v-344h-47v344zM88 675h47v-344h-47v344z"/>
<glyph glyph-name="section" d="M313 394l-55 23q-40 -4 -71.5 -29.5t-31.5 -71.5q0 -42 27 -64.5t87 -46.5l59 -26q38 6 65.5 31.5t27.5 68.5q0 44 -27 68t-81 47zM465 642l-46 -26q-31 63 -116 63q-52 0 -86 -27t-34 -75q0 -24 8 -42.5t26 -32t33 -21t41 -18.5l70 -33q56 -26 86 -59t30 -85 q0 -51 -29.5 -86t-73.5 -47q82 -44 82 -127q0 -77 -53 -118t-131 -41q-64 0 -113.5 25.5t-74.5 75.5l51 27q37 -80 138 -80q50 0 88 26t38 80q0 67 -93 107l-100 48q-53 24 -80 54t-27 84q0 50 32 85t80 49q-38 20 -61.5 48t-23.5 76q0 74 52 114.5t127 40.5 q59 0 100.5 -23.5t59.5 -61.5z" unicode="§"/>
<glyph glyph-name="dieresis" horiz-adv-x="240" unicode="¨" d="M168 651q0 17 12 30t30 13t30.5 -13t12.5 -30q0 -18 -12.5 -31t-30.5 -13t-30 13t-12 31zM-13 651q0 17 12.5 30t30.5 13t30 -13t12 -30q0 -18 -12 -31t-30 -13t-30.5 13t-12.5 31z"/>
<glyph glyph-name="copyright" horiz-adv-x="800" unicode="©" d="M69 353q0 -136 97.5 -232.5t234.5 -96.5t233.5 96.5t96.5 232.5q0 137 -96.5 234t-233.5 97t-234.5 -97t-97.5 -234zM20 353q0 157 111.5 267t269.5 110q157 0 268 -110t111 -267q0 -156 -111 -265.5t-268 -109.5q-158 0 -269.5 109.5t-111.5 265.5zM532 239l41 -28 q-26 -36 -68 -58t-93 -22q-96 0 -159.5 64t-63.5 162q0 97 63.5 161t159.5 64q46 0 88 -19.5t67 -53.5l-42 -32q-18 24 -48.5 40.5t-63.5 16.5q-75 0 -122 -52t-47 -125q0 -74 46 -126t122 -52q74 0 120 60z"/>
<glyph glyph-name="ordfeminine" horiz-adv-x="357" unicode="ª" d="M251 572h-15q-146 0 -146 -61q0 -50 67 -50q43 0 68.5 26t25.5 66v19zM251 605v9q0 34 -21 51.5t-57 17.5q-54 0 -88 -34l-26 30q44 41 117 41q58 0 88.5 -29.5t30.5 -78.5v-123q0 -38 4 -58h-42q-5 22 -5 48h-2q-33 -55 -104 -55q-41 0 -72 21t-31 65q0 31 17 51t50 29 t64.5 12t76.5 3z"/>
<glyph glyph-name="guillemotleft" horiz-adv-x="482" unicode="«" d="M411 418l-115 -179l115 -179l-38 -26l-135 205l135 205zM233 418l-114 -179l115 -179l-38 -26l-135 205l135 205z"/>
<glyph glyph-name="logicalnot" horiz-adv-x="666" unicode="¬" d="M584 405v-274h-49v227h-452v47h501z"/>
<glyph glyph-name="uni00AD" horiz-adv-x="314" unicode="­" d="M262 269v-46h-210v46h210z"/>
<glyph glyph-name="registered" horiz-adv-x="600" unicode="®" d="M253 506h41q62 0 62 43q0 40 -54 40h-49v-83zM215 367v255h88q40 0 65.5 -18t25.5 -56q0 -28 -17 -45.5t-44 -22.5l71 -113h-47l-64 108h-40v-108h-38zM104 493q0 -80 57.5 -138t138.5 -58t138.5 58t57.5 138q0 81 -57.5 138.5t-138.5 57.5t-138.5 -57.5t-57.5 -138.5z M72 493q0 94 66.5 160.5t161.5 66.5t161.5 -66.5t66.5 -160.5t-66.5 -159.5t-161.5 -65.5t-161.5 65.5t-66.5 159.5z"/>
<glyph glyph-name="macron" horiz-adv-x="240" unicode="¯" d="M249 650v-44h-258v44h258z"/>
<glyph glyph-name="degree" horiz-adv-x="400" unicode="°" d="M308 571q0 45 -31.5 76.5t-76.5 31.5t-76.5 -31.5t-31.5 -76.5t31.5 -76.5t76.5 -31.5t76.5 31.5t31.5 76.5zM348 571q0 -63 -42.5 -105.5t-105.5 -42.5t-105.5 42.5t-42.5 105.5t42.5 105.5t105.5 42.5t105.5 -42.5t42.5 -105.5z"/>
<glyph glyph-name="plusminus" horiz-adv-x="666" unicode="±" d="M84 48v48h498v-48h-498zM83 346v48h225v168h48v-168h228v-48h-227v-164h-49v164h-225z"/>
<glyph glyph-name="twosuperior" horiz-adv-x="364" unicode="²" d="M313 496v-44h-268v46l163 169q51 52 52 100q0 33 -21 52t-54 19q-31 0 -53 -18.5t-30 -52.5l-47 8q10 49 46 78t84 29q55 0 90.5 -30.5t35.5 -82.5q0 -39 -18 -68t-57 -69l-132 -136h209z"/>
<glyph glyph-name="threesuperior" horiz-adv-x="364" unicode="³" d="M174 444q-97 0 -135 88l45 16q12 -29 36.5 -45t53.5 -16q38 0 62.5 22t24.5 61q0 41 -30 61t-73 20h-24v41h24q42 0 66.5 20.5t24.5 57.5q0 31 -22 50.5t-54 19.5q-51 0 -78 -48l-39 21q41 69 119 69q54 0 87.5 -29.5t33.5 -82.5q0 -69 -64 -94l-3 -2q80 -23 80 -105 q0 -59 -38.5 -92t-96.5 -33z"/>
<glyph glyph-name="acute" horiz-adv-x="240" unicode="´" d="M241 708l-126 -144h-47l101 144h72z"/>
<glyph glyph-name="mu" horiz-adv-x="556" unicode="µ" d="M79 -228v694h52v-264q0 -83 30 -125t103 -42q67 0 110.5 52t43.5 142v237h53v-359q0 -43 4 -107h-57v89h-2q-22 -44 -68 -73t-96 -29q-78 0 -121 46v-261h-52z"/>
<glyph glyph-name="paragraph" horiz-adv-x="600" unicode="¶" d="M506 708v-834h-53v791h-133v-791h-53v449q-92 0 -151.5 53t-59.5 131q0 95 60.5 148t166.5 53h223z"/>
<glyph glyph-name="periodcentered" horiz-adv-x="254" unicode="·" d="M172 296q0 -18 -13 -31.5t-32 -13.5t-32 13.5t-13 31.5t13 32t32 14t32 -14t13 -32z"/>
<glyph glyph-name="cedilla" horiz-adv-x="240" unicode="¸" d="M150 0l-50 -78q15 5 40 5q33 0 58.5 -18.5t25.5 -52.5q0 -45 -35 -65t-81 -20q-50 0 -93 20l13 31q33 -16 76 -16q26 0 49 12t23 37q0 43 -60 43q-28 0 -51 -10l-15 13l64 99h36z"/>
<glyph glyph-name="onesuperior" horiz-adv-x="364" unicode="¹" d="M220 873v-421h-50v361l-73 -59l-30 34l111 85h42z"/>
<glyph glyph-name="ordmasculine" horiz-adv-x="357" unicode="º" d="M281 572q0 47 -27 79t-75 32t-75.5 -32t-27.5 -79t27.5 -79t75.5 -32q47 0 74.5 32t27.5 79zM328 572q0 -64 -42 -106t-107 -42t-107.5 42t-42.5 106q0 65 42.5 106.5t107.5 41.5t107 -41.5t42 -106.5z"/>
<glyph glyph-name="guillemotright" horiz-adv-x="482" unicode="»" d="M71 60l115 179l-115 179l38 27l135 -206l-135 -205zM248 60l115 179l-115 179l38 27l135 -206l-135 -205z"/>
<glyph glyph-name="onequarter" horiz-adv-x="828" unicode="¼" d="M651 716l-447 -746l-42 22l448 746zM220 708v-421h-50v361l-73 -59l-30 34l111 85h42zM663 359h-3l-137 -215h140v215zM707 423v-279h63v-43h-63v-101h-44v101h-190v43l178 279h56z"/>
<glyph glyph-name="onehalf" horiz-adv-x="828" unicode="½" d="M220 708v-421h-50v361l-73 -59l-30 34l137 85h16zM651 716l-447 -746l-42 22l448 746zM768 43v-43h-268v46l164 169q51 52 52 100q0 32 -21.5 51.5t-54.5 19.5q-30 0 -52 -19t-30 -53l-48 8q10 49 46 78.5t84 29.5q56 0 91.5 -30.5t35.5 -83.5q0 -27 -11 -51.5t-24 -40.5 t-41 -45l-131 -136h208z"/>
<glyph glyph-name="threequarters" horiz-adv-x="828" unicode="¾" d="M651 716l-447 -746l-42 22l448 746zM523 144h140v215h-3zM174 282q-97 0 -135 88l45 16q12 -29 36.5 -45t53.5 -16q38 0 62.5 22t24.5 61q0 41 -30 61t-73 20h-24v41h24q42 0 66.5 20.5t24.5 57.5q0 31 -22 50.5t-54 19.5q-51 0 -78 -48l-39 21q41 69 119 69 q54 0 87.5 -29.5t33.5 -82.5q0 -71 -67 -96l1 -1q37 -10 58 -37.5t21 -66.5q0 -59 -38.5 -92t-96.5 -33zM663 0v101h-190v43l178 279h56v-279h63v-43h-63v-101h-44z"/>
<glyph glyph-name="questiondown" horiz-adv-x="479" unicode="¿" d="M194 442q0 18 12.5 31.5t31.5 13.5t32 -13.5t13 -31.5q0 -19 -13 -32.5t-32 -13.5t-31.5 13.5t-12.5 32.5zM216 241v46h56v-58q0 -47 -19.5 -81t-57.5 -67l-30 -26q-61 -52 -61 -119q0 -59 38.5 -93t96.5 -34q57 0 94.5 34.5t45.5 90.5l54 -9q-14 -77 -67 -121.5 t-129 -44.5q-82 0 -136 46.5t-54 127.5q0 40 14 72t29.5 48.5t47.5 43.5q47 39 62.5 66t15.5 78z"/>
<glyph glyph-name="Agrave" horiz-adv-x="690" unicode="À" d="M327 764l-126 144h72l101 -144h-47zM346 648l-170 -405h337zM155 191l-80 -191h-63l307 708h57l301 -708h-63l-80 191h-379z"/>
<glyph glyph-name="Aacute" horiz-adv-x="690" unicode="Á" d="M494 908l-126 -144h-47l101 144h72zM346 648l-170 -405h337zM155 191l-80 -191h-63l307 708h57l301 -708h-63l-80 191h-379z"/>
<glyph glyph-name="Acircumflex" horiz-adv-x="690" unicode="Â" d="M377 908l107 -144h-53l-86 115l-86 -115h-53l107 144h64zM346 648l-170 -405h337zM155 191l-80 -191h-63l307 708h57l301 -708h-63l-80 191h-379z"/>
<glyph glyph-name="Atilde" horiz-adv-x="690" unicode="Ã" d="M233 781h-35q15 94 82 94q22 0 71 -23.5t64 -23.5q35 0 46 49h35q-15 -93 -81 -93q-23 0 -71 23.5t-64 23.5q-36 0 -47 -50zM346 648l-170 -405h337zM155 191l-80 -191h-63l307 708h57l301 -708h-63l-80 191h-379z"/>
<glyph glyph-name="Adieresis" horiz-adv-x="690" unicode="Ä" d="M395 851q0 17 12 30t30 13t30.5 -13t12.5 -30q0 -18 -12.5 -31t-30.5 -13t-30 13t-12 31zM214 851q0 17 12.5 30t30.5 13t30 -13t12 -30q0 -18 -12 -31t-30 -13t-30.5 13t-12.5 31zM346 648l-170 -405h337zM155 191l-80 -191h-63l307 708h57l301 -708h-63l-80 191h-379z "/>
<glyph glyph-name="Aring" horiz-adv-x="690" unicode="Å" d="M411 850q0 27 -19 46t-46 19t-46 -19t-19 -46t19 -46t46 -19t46 19t19 46zM442 850q0 -40 -28.5 -67.5t-67.5 -27.5t-67.5 27.5t-28.5 67.5t28.5 67.5t67.5 27.5t67.5 -27.5t28.5 -67.5zM346 648l-170 -405h337zM155 191l-80 -191h-63l307 708h57l301 -708h-63l-80 191 h-379z"/>
<glyph glyph-name="AE" horiz-adv-x="983" unicode="Æ" d="M243 251h268v406h-6zM568 343v-292h361v-51h-418v200h-298l-130 -200h-65l460 708h437v-51h-347v-264h323v-50h-323z"/>
<glyph glyph-name="Ccedilla" horiz-adv-x="721" unicode="Ç" d="M645 136l39 -31q-94 -123 -255 -124l-38 -59q15 5 40 5q33 0 58.5 -18.5t25.5 -52.5q0 -45 -35 -65t-81 -20q-50 0 -93 20l13 31q33 -16 76 -16q26 0 49 12t23 37q0 43 -60 43q-28 0 -51 -10l-15 13l52 81q-147 11 -239.5 114.5t-92.5 257.5q0 162 104 267.5t262 105.5 q78 0 142 -27t102 -76l-41 -38q-32 40 -85.5 65t-116.5 25q-138 0 -222.5 -93.5t-84.5 -228.5t84.5 -228.5t222.5 -93.5q133 0 217 104z"/>
<glyph glyph-name="Egrave" horiz-adv-x="591" unicode="È" d="M317 764l-126 144h72l101 -144h-47zM154 343v-292h388v-51h-444v708h431v-51h-375v-264h351v-50h-351z"/>
<glyph glyph-name="Eacute" horiz-adv-x="591" unicode="É" d="M445 908l-126 -144h-47l101 144h72zM154 343v-292h388v-51h-444v708h431v-51h-375v-264h351v-50h-351z"/>
<glyph glyph-name="Ecircumflex" horiz-adv-x="591" unicode="Ê" d="M347 908l107 -144h-53l-86 115l-86 -115h-53l107 144h64zM154 343v-292h388v-51h-444v708h431v-51h-375v-264h351v-50h-351z"/>
<glyph glyph-name="Edieresis" horiz-adv-x="591" unicode="Ë" d="M364 851q0 17 12 30t30 13t30.5 -13t12.5 -30q0 -18 -12.5 -31t-30.5 -13t-30 13t-12 31zM183 851q0 17 12.5 30t30.5 13t30 -13t12 -30q0 -18 -12 -31t-30 -13t-30.5 13t-12.5 31zM154 343v-292h388v-51h-444v708h431v-51h-375v-264h351v-50h-351z"/>
<glyph glyph-name="Igrave" horiz-adv-x="252" unicode="Ì" d="M107 764l-126 144h72l101 -144h-47zM155 708v-708h-57v708h57z"/>
<glyph glyph-name="Iacute" horiz-adv-x="252" unicode="Í" d="M270 908l-126 -144h-47l101 144h72zM155 708v-708h-57v708h57z"/>
<glyph glyph-name="Icircumflex" horiz-adv-x="252" unicode="Î" d="M157 908l107 -144h-53l-86 115l-86 -115h-53l107 144h64zM155 708v-708h-57v708h57z"/>
<glyph glyph-name="Idieresis" horiz-adv-x="252" unicode="Ï" d="M174 851q0 17 12 30t30 13t30.5 -13t12.5 -30q0 -18 -12.5 -31t-30.5 -13t-30 13t-12 31zM-7 851q0 17 12.5 30t30.5 13t30 -13t12 -30q0 -18 -12 -31t-30 -13t-30.5 13t-12.5 31zM155 708v-708h-57v708h57z"/>
<glyph glyph-name="Eth" horiz-adv-x="761" unicode="Ð" d="M149 350v-298h150q156 0 245 84.5t89 217.5q0 134 -88.5 218t-245.5 84h-150v-262h261v-44h-261zM92 0v350h-75v44h75v314h225q73 0 139.5 -22t120 -64.5t85.5 -112t32 -155.5t-32 -155.5t-85.5 -112t-120 -64.5t-139.5 -22h-225z"/>
<glyph glyph-name="Ntilde" horiz-adv-x="768" unicode="Ñ" d="M274 781h-35q15 94 82 94q22 0 71 -23.5t64 -23.5q35 0 46 49h35q-15 -93 -81 -93q-23 0 -71 23.5t-64 23.5q-36 0 -47 -50zM170 708l441 -626h2v626h57v-708h-72l-441 630h-2v-630h-57v708h72z"/>
<glyph glyph-name="Ograve" horiz-adv-x="857" unicode="Ò" d="M443 764l-126 144h72l101 -144h-47zM736 354q0 135 -85.5 228.5t-222.5 93.5t-222 -93.5t-85 -228.5t85 -228.5t222 -93.5q138 0 223 93.5t85 228.5zM796 354q0 -162 -104.5 -267.5t-263.5 -105.5q-158 0 -262.5 105.5t-104.5 267.5t104.5 267.5t262.5 105.5 q159 0 263.5 -105.5t104.5 -267.5z"/>
<glyph glyph-name="Oacute" horiz-adv-x="857" unicode="Ó" d="M553 908l-126 -144h-47l101 144h72zM736 354q0 135 -85.5 228.5t-222.5 93.5t-222 -93.5t-85 -228.5t85 -228.5t222 -93.5q138 0 223 93.5t85 228.5zM796 354q0 -162 -104.5 -267.5t-263.5 -105.5q-158 0 -262.5 105.5t-104.5 267.5t104.5 267.5t262.5 105.5 q159 0 263.5 -105.5t104.5 -267.5z"/>
<glyph glyph-name="Ocircumflex" horiz-adv-x="857" unicode="Ô" d="M460 908l107 -144h-53l-86 115l-86 -115h-53l107 144h64zM736 354q0 135 -85.5 228.5t-222.5 93.5t-222 -93.5t-85 -228.5t85 -228.5t222 -93.5q138 0 223 93.5t85 228.5zM796 354q0 -162 -104.5 -267.5t-263.5 -105.5q-158 0 -262.5 105.5t-104.5 267.5t104.5 267.5 t262.5 105.5q159 0 263.5 -105.5t104.5 -267.5z"/>
<glyph glyph-name="Otilde" horiz-adv-x="857" unicode="Õ" d="M315 781h-35q15 94 82 94q22 0 71 -23.5t64 -23.5q35 0 46 49h35q-15 -93 -81 -93q-23 0 -71 23.5t-64 23.5q-36 0 -47 -50zM736 354q0 135 -85.5 228.5t-222.5 93.5t-222 -93.5t-85 -228.5t85 -228.5t222 -93.5q138 0 223 93.5t85 228.5zM796 354q0 -162 -104.5 -267.5 t-263.5 -105.5q-158 0 -262.5 105.5t-104.5 267.5t104.5 267.5t262.5 105.5q159 0 263.5 -105.5t104.5 -267.5z"/>
<glyph glyph-name="Odieresis" horiz-adv-x="857" unicode="Ö" d="M477 851q0 17 12 30t30 13t30.5 -13t12.5 -30q0 -18 -12.5 -31t-30.5 -13t-30 13t-12 31zM296 851q0 17 12.5 30t30.5 13t30 -13t12 -30q0 -18 -12 -31t-30 -13t-30.5 13t-12.5 31zM736 354q0 135 -85.5 228.5t-222.5 93.5t-222 -93.5t-85 -228.5t85 -228.5t222 -93.5 q138 0 223 93.5t85 228.5zM796 354q0 -162 -104.5 -267.5t-263.5 -105.5q-158 0 -262.5 105.5t-104.5 267.5t104.5 267.5t262.5 105.5q159 0 263.5 -105.5t104.5 -267.5z"/>
<glyph glyph-name="multiply" horiz-adv-x="666" unicode="×" d="M168 504l165 -165l165 165l34 -34l-165 -166l165 -165l-34 -34l-165 165l-165 -165l-33 34l165 165l-165 166z"/>
<glyph glyph-name="Oslash" horiz-adv-x="857" unicode="Ø" d="M195 134l428 472q-80 70 -199 70q-138 0 -222.5 -93.5t-84.5 -228.5q0 -133 78 -220zM652 576l-428 -472q82 -72 200 -72q139 0 223.5 93.5t84.5 228.5q0 134 -80 222zM763 699l-73 -81q102 -105 102 -264q0 -162 -104.5 -267.5t-263.5 -105.5q-138 0 -237 83l-74 -80 l-30 28l73 81q-99 104 -99 261q0 162 104.5 267.5t262.5 105.5q137 0 235 -81l74 80z"/>
<glyph glyph-name="Ugrave" horiz-adv-x="717" unicode="Ù" d="M364 764l-126 144h72l101 -144h-47zM358 -19q-74 0 -128.5 25.5t-83 68.5t-41.5 90t-13 100v443h57v-436q0 -36 5.5 -68.5t20.5 -64.5t38 -55t60 -37.5t85 -14.5q59 0 101.5 21t65.5 56.5t33 76t10 86.5v436h57v-443q0 -53 -13 -100t-41.5 -90t-83 -68.5t-129.5 -25.5z "/>
<glyph glyph-name="Uacute" horiz-adv-x="717" unicode="Ú" d="M484 908l-126 -144h-47l101 144h72zM358 -19q-74 0 -128.5 25.5t-83 68.5t-41.5 90t-13 100v443h57v-436q0 -36 5.5 -68.5t20.5 -64.5t38 -55t60 -37.5t85 -14.5q59 0 101.5 21t65.5 56.5t33 76t10 86.5v436h57v-443q0 -53 -13 -100t-41.5 -90t-83 -68.5t-129.5 -25.5z "/>
<glyph glyph-name="Ucircumflex" horiz-adv-x="717" unicode="Û" d="M390 908l107 -144h-53l-86 115l-86 -115h-53l107 144h64zM358 -19q-74 0 -128.5 25.5t-83 68.5t-41.5 90t-13 100v443h57v-436q0 -36 5.5 -68.5t20.5 -64.5t38 -55t60 -37.5t85 -14.5q59 0 101.5 21t65.5 56.5t33 76t10 86.5v436h57v-443q0 -53 -13 -100t-41.5 -90 t-83 -68.5t-129.5 -25.5z"/>
<glyph glyph-name="Udieresis" horiz-adv-x="717" unicode="Ü" d="M407 851q0 17 12 30t30 13t30.5 -13t12.5 -30q0 -18 -12.5 -31t-30.5 -13t-30 13t-12 31zM226 851q0 17 12.5 30t30.5 13t30 -13t12 -30q0 -18 -12 -31t-30 -13t-30.5 13t-12.5 31zM358 -19q-74 0 -128.5 25.5t-83 68.5t-41.5 90t-13 100v443h57v-436q0 -36 5.5 -68.5 t20.5 -64.5t38 -55t60 -37.5t85 -14.5q59 0 101.5 21t65.5 56.5t33 76t10 86.5v436h57v-443q0 -53 -13 -100t-41.5 -90t-83 -68.5t-129.5 -25.5z"/>
<glyph glyph-name="Yacute" horiz-adv-x="583" unicode="Ý" d="M441 908l-126 -144h-47l101 144h72zM320 306v-306h-57v306l-259 402h71l218 -353l219 353h66z"/>
<glyph glyph-name="Thorn" horiz-adv-x="578" unicode="Þ" d="M155 502v-273h136q82 0 129 35t47 103q0 69 -48 102t-130 33h-134zM98 0v708h57v-156h140q105 0 169 -46t64 -139q0 -91 -63 -139.5t-167 -48.5h-143v-179h-57z"/>
<glyph glyph-name="germandbls" horiz-adv-x="595" unicode="ß" d="M146 540v-540h-54v542q0 45 11 83.5t34 71.5t64.5 52t97.5 19q79 0 134 -48t55 -128q0 -123 -122 -161v-2q77 -9 125.5 -65t48.5 -145q0 -104 -64 -167t-171 -63q-32 0 -53 4v46q30 -4 48 -4q84 0 133.5 50t49.5 135q0 90 -54 137t-144 47h-11v48h11q66 0 107 35t41 101 q0 62 -38.5 97t-97.5 35q-44 0 -75 -16t-46.5 -44t-22.5 -57t-7 -63z"/>
<glyph glyph-name="agrave" horiz-adv-x="527" unicode="à" d="M276 564l-126 144h72l101 -144h-47zM231 32q76 0 116.5 49.5t40.5 119.5v38h-35q-239 0 -239 -110q0 -50 34.5 -73.5t82.5 -23.5zM218 -13q-62 0 -111 35t-49 104q0 48 23.5 80.5t67 48t88.5 21.5t104 6h47v21q0 130 -132 130q-82 0 -139 -55l-30 36q66 64 174 64 q81 0 130 -43t49 -126v-204q0 -63 8 -105h-49q-8 48 -8 86h-2q-55 -99 -171 -99z"/>
<glyph glyph-name="aacute" horiz-adv-x="527" unicode="á" d="M393 708l-126 -144h-47l101 144h72zM231 32q76 0 116.5 49.5t40.5 119.5v38h-35q-239 0 -239 -110q0 -50 34.5 -73.5t82.5 -23.5zM218 -13q-62 0 -111 35t-49 104q0 48 23.5 80.5t67 48t88.5 21.5t104 6h47v21q0 130 -132 130q-82 0 -139 -55l-30 36q66 64 174 64 q81 0 130 -43t49 -126v-204q0 -63 8 -105h-49q-8 48 -8 86h-2q-55 -99 -171 -99z"/>
<glyph glyph-name="acircumflex" horiz-adv-x="527" unicode="â" d="M294 708l107 -144h-53l-86 115l-86 -115h-53l107 144h64zM231 32q76 0 116.5 49.5t40.5 119.5v38h-35q-239 0 -239 -110q0 -50 34.5 -73.5t82.5 -23.5zM218 -13q-62 0 -111 35t-49 104q0 48 23.5 80.5t67 48t88.5 21.5t104 6h47v21q0 130 -132 130q-82 0 -139 -55l-30 36 q66 64 174 64q81 0 130 -43t49 -126v-204q0 -63 8 -105h-49q-8 48 -8 86h-2q-55 -99 -171 -99z"/>
<glyph glyph-name="atilde" horiz-adv-x="527" unicode="ã" d="M147 581h-35q15 94 82 94q22 0 71 -23.5t64 -23.5q35 0 46 49h35q-15 -93 -81 -93q-23 0 -71 23.5t-64 23.5q-36 0 -47 -50zM231 32q76 0 116.5 49.5t40.5 119.5v38h-35q-239 0 -239 -110q0 -50 34.5 -73.5t82.5 -23.5zM218 -13q-62 0 -111 35t-49 104q0 48 23.5 80.5 t67 48t88.5 21.5t104 6h47v21q0 130 -132 130q-82 0 -139 -55l-30 36q66 64 174 64q81 0 130 -43t49 -126v-204q0 -63 8 -105h-49q-8 48 -8 86h-2q-55 -99 -171 -99z"/>
<glyph glyph-name="adieresis" horiz-adv-x="527" unicode="ä" d="M310 651q0 17 12 30t30 13t30.5 -13t12.5 -30q0 -18 -12.5 -31t-30.5 -13t-30 13t-12 31zM129 651q0 17 12.5 30t30.5 13t30 -13t12 -30q0 -18 -12 -31t-30 -13t-30.5 13t-12.5 31zM231 32q76 0 116.5 49.5t40.5 119.5v38h-35q-239 0 -239 -110q0 -50 34.5 -73.5 t82.5 -23.5zM218 -13q-62 0 -111 35t-49 104q0 48 23.5 80.5t67 48t88.5 21.5t104 6h47v21q0 130 -132 130q-82 0 -139 -55l-30 36q66 64 174 64q81 0 130 -43t49 -126v-204q0 -63 8 -105h-49q-8 48 -8 86h-2q-55 -99 -171 -99z"/>
<glyph glyph-name="aring" horiz-adv-x="527" unicode="å" d="M326 650q0 27 -19 46t-46 19t-46 -19t-19 -46t19 -46t46 -19t46 19t19 46zM357 650q0 -40 -28.5 -67.5t-67.5 -27.5t-67.5 27.5t-28.5 67.5t28.5 67.5t67.5 27.5t67.5 -27.5t28.5 -67.5zM231 32q76 0 116.5 49.5t40.5 119.5v38h-35q-239 0 -239 -110q0 -50 34.5 -73.5 t82.5 -23.5zM218 -13q-62 0 -111 35t-49 104q0 48 23.5 80.5t67 48t88.5 21.5t104 6h47v21q0 130 -132 130q-82 0 -139 -55l-30 36q66 64 174 64q81 0 130 -43t49 -126v-204q0 -63 8 -105h-49q-8 48 -8 86h-2q-55 -99 -171 -99z"/>
<glyph glyph-name="ae" horiz-adv-x="873" unicode="æ" d="M441 266h319q-1 74 -43 120.5t-112 46.5q-69 0 -115.5 -53t-48.5 -114zM233 32q78 0 116.5 42.5t38.5 110.5v37h-36q-52 0 -89 -3.5t-73.5 -13t-55.5 -30.5t-19 -53q0 -48 33.5 -69t84.5 -21zM225 -13q-68 0 -117 33.5t-49 100.5q0 44 23 73.5t65.5 44t85.5 20.5t101 7 h54v24q0 66 -33.5 104.5t-96.5 38.5q-82 0 -144 -55l-31 35q32 29 80.5 47t101.5 18q62 0 103.5 -29t56.5 -80q27 50 75 79.5t105 29.5q100 0 155 -65.5t55 -162.5q0 -22 -1 -28h-375q1 -77 48.5 -132.5t123.5 -55.5q48 0 87 22.5t62 58.5l39 -31q-73 -96 -188 -96 q-68 0 -118 33t-73 90q-41 -124 -195 -124z"/>
<glyph glyph-name="ccedilla" horiz-adv-x="494" unicode="ç" d="M466 405l-36 -33q-21 27 -56.5 44t-72.5 17q-83 0 -134.5 -57.5t-51.5 -142.5t51 -142t133 -57q80 0 136 58l34 -31q-60 -70 -159 -74l-41 -65q15 5 40 5q33 0 58.5 -18.5t25.5 -52.5q0 -45 -35 -65t-81 -20q-50 0 -93 20l13 31q33 -16 76 -16q26 0 49 12t23 37 q0 43 -60 43q-28 0 -51 -10l-15 13l56 87q-99 8 -158 76t-59 169q0 106 67.5 175.5t174.5 69.5q108 0 166 -73z"/>
<glyph glyph-name="egrave" horiz-adv-x="567" unicode="è" d="M286 564l-126 144h72l101 -144h-47zM294 -13q-102 0 -169 70t-67 177q0 105 66.5 174.5t164.5 69.5q105 0 162.5 -65.5t57.5 -162.5v-28h-395q2 -77 52 -132.5t130 -55.5q93 0 160 79l36 -29q-75 -97 -198 -97zM115 265h340q-3 75 -47.5 121.5t-119.5 46.5 q-74 0 -122 -52.5t-51 -115.5z"/>
<glyph glyph-name="eacute" horiz-adv-x="567" unicode="é" d="M426 708l-126 -144h-47l101 144h72zM294 -13q-102 0 -169 70t-67 177q0 105 66.5 174.5t164.5 69.5q105 0 162.5 -65.5t57.5 -162.5v-28h-395q2 -77 52 -132.5t130 -55.5q93 0 160 79l36 -29q-75 -97 -198 -97zM115 265h340q-3 75 -47.5 121.5t-119.5 46.5 q-74 0 -122 -52.5t-51 -115.5z"/>
<glyph glyph-name="ecircumflex" horiz-adv-x="567" unicode="ê" d="M327 708l107 -144h-53l-86 115l-86 -115h-53l107 144h64zM294 -13q-102 0 -169 70t-67 177q0 105 66.5 174.5t164.5 69.5q105 0 162.5 -65.5t57.5 -162.5v-28h-395q2 -77 52 -132.5t130 -55.5q93 0 160 79l36 -29q-75 -97 -198 -97zM115 265h340q-3 75 -47.5 121.5 t-119.5 46.5q-74 0 -122 -52.5t-51 -115.5z"/>
<glyph glyph-name="edieresis" horiz-adv-x="567" unicode="ë" d="M342 651q0 17 12 30t30 13t30.5 -13t12.5 -30q0 -18 -12.5 -31t-30.5 -13t-30 13t-12 31zM161 651q0 17 12.5 30t30.5 13t30 -13t12 -30q0 -18 -12 -31t-30 -13t-30.5 13t-12.5 31zM294 -13q-102 0 -169 70t-67 177q0 105 66.5 174.5t164.5 69.5q105 0 162.5 -65.5 t57.5 -162.5v-28h-395q2 -77 52 -132.5t130 -55.5q93 0 160 79l36 -29q-75 -97 -198 -97zM115 265h340q-3 75 -47.5 121.5t-119.5 46.5q-74 0 -122 -52.5t-51 -115.5z"/>
<glyph glyph-name="igrave" horiz-adv-x="243" unicode="ì" d="M101 564l-126 144h72l101 -144h-47zM149 466v-466h-55v466h55z"/>
<glyph glyph-name="iacute" horiz-adv-x="243" unicode="í" d="M267 708l-126 -144h-47l101 144h72zM149 466v-466h-55v466h55z"/>
<glyph glyph-name="icircumflex" horiz-adv-x="243" unicode="î" d="M155 708l107 -144h-53l-86 115l-86 -115h-53l107 144h64zM149 466v-466h-55v466h55z"/>
<glyph glyph-name="idieresis" horiz-adv-x="243" unicode="ï" d="M170 651q0 17 12 30t30 13t30.5 -13t12.5 -30q0 -18 -12.5 -31t-30.5 -13t-30 13t-12 31zM-11 651q0 17 12.5 30t30.5 13t30 -13t12 -30q0 -18 -12 -31t-30 -13t-30.5 13t-12.5 31zM149 466v-466h-55v466h55z"/>
<glyph glyph-name="eth" horiz-adv-x="609" unicode="ð" d="M451 718l-103 -56q80 -76 138 -187.5t58 -227.5q0 -106 -63 -183t-183 -77q-107 0 -176.5 70t-69.5 176q0 107 69 176t177 69q89 0 159 -63l3 2q-27 61 -70.5 120t-90.5 100l-112 -58l-28 29l110 58q-41 39 -99 78l46 30q59 -44 99 -82l103 54zM109 233q0 -85 52 -141.5 t137 -56.5q86 0 137.5 56.5t51.5 141.5t-51.5 141t-137.5 56q-85 0 -137 -56t-52 -141z"/>
<glyph glyph-name="ntilde" horiz-adv-x="578" unicode="ñ" d="M179 581h-35q15 94 82 94q22 0 71 -23.5t64 -23.5q35 0 46 49h35q-15 -93 -81 -93q-23 0 -71 23.5t-64 23.5q-36 0 -47 -50zM90 466h52q4 -52 4 -93h2q20 47 67 76t100 29q87 0 130.5 -53t43.5 -141v-284h-54v264q0 168 -132 168q-65 0 -109.5 -51t-44.5 -144v-237h-55 v359q0 66 -4 107z"/>
<glyph glyph-name="ograve" horiz-adv-x="609" unicode="ò" d="M297 564l-126 144h72l101 -144h-47zM494 233q0 85 -52 141.5t-138 56.5q-85 0 -137 -56.5t-52 -141.5t52 -141t137 -56q86 0 138 56t52 141zM550 233q0 -106 -69 -176t-177 -70q-107 0 -176 70t-69 176q0 107 68.5 176t176.5 69t177 -69t69 -176z"/>
<glyph glyph-name="oacute" horiz-adv-x="609" unicode="ó" d="M438 708l-126 -144h-47l101 144h72zM494 233q0 85 -52 141.5t-138 56.5q-85 0 -137 -56.5t-52 -141.5t52 -141t137 -56q86 0 138 56t52 141zM550 233q0 -106 -69 -176t-177 -70q-107 0 -176 70t-69 176q0 107 68.5 176t176.5 69t177 -69t69 -176z"/>
<glyph glyph-name="ocircumflex" horiz-adv-x="609" unicode="ô" d="M336 708l107 -144h-53l-86 115l-86 -115h-53l107 144h64zM494 233q0 85 -52 141.5t-138 56.5q-85 0 -137 -56.5t-52 -141.5t52 -141t137 -56q86 0 138 56t52 141zM550 233q0 -106 -69 -176t-177 -70q-107 0 -176 70t-69 176q0 107 68.5 176t176.5 69t177 -69t69 -176z "/>
<glyph glyph-name="otilde" horiz-adv-x="609" unicode="õ" d="M191 581h-35q15 94 82 94q22 0 71 -23.5t64 -23.5q35 0 46 49h35q-15 -93 -81 -93q-23 0 -71 23.5t-64 23.5q-36 0 -47 -50zM494 233q0 85 -52 141.5t-138 56.5q-85 0 -137 -56.5t-52 -141.5t52 -141t137 -56q86 0 138 56t52 141zM550 233q0 -106 -69 -176t-177 -70 q-107 0 -176 70t-69 176q0 107 68.5 176t176.5 69t177 -69t69 -176z"/>
<glyph glyph-name="odieresis" horiz-adv-x="609" unicode="ö" d="M353 651q0 17 12 30t30 13t30.5 -13t12.5 -30q0 -18 -12.5 -31t-30.5 -13t-30 13t-12 31zM172 651q0 17 12.5 30t30.5 13t30 -13t12 -30q0 -18 -12 -31t-30 -13t-30.5 13t-12.5 31zM494 233q0 85 -52 141.5t-138 56.5q-85 0 -137 -56.5t-52 -141.5t52 -141t137 -56 q86 0 138 56t52 141zM550 233q0 -106 -69 -176t-177 -70q-107 0 -176 70t-69 176q0 107 68.5 176t176.5 69t177 -69t69 -176z"/>
<glyph glyph-name="divide" horiz-adv-x="666" unicode="÷" d="M382 140q0 -20 -14 -35t-35 -15q-20 0 -34 15t-14 35t13.5 34.5t34.5 14.5q20 0 34.5 -15t14.5 -34zM382 466q0 -19 -14.5 -34t-34.5 -15t-34 15t-14 34q0 20 14 35t34 15q21 0 35 -15t14 -35zM584 327v-48h-501v48h501z"/>
<glyph glyph-name="oslash" horiz-adv-x="609" unicode="ø" d="M303 32q87 0 140 57.5t53 143.5q0 79 -42 129l-279 -284q51 -46 128 -46zM151 106l279 284q-46 44 -126 44q-86 0 -138.5 -57.5t-52.5 -143.5q0 -78 38 -127zM76 -23l-27 25l66 68q-57 68 -57 163q0 107 69 176t176 69q95 0 161 -54l64 66l26 -26l-64 -66q61 -68 61 -165 q0 -106 -70 -176t-178 -70q-94 0 -161 57z"/>
<glyph glyph-name="ugrave" horiz-adv-x="578" unicode="ù" d="M280 564l-126 144h72l101 -144h-47zM488 0h-53q-4 50 -4 92h-2q-19 -47 -66 -76t-100 -29q-88 0 -131.5 53.5t-43.5 140.5v285h55v-264q0 -169 132 -169q64 0 109 51.5t45 144.5v237h54v-359q0 -57 5 -107z"/>
<glyph glyph-name="uacute" horiz-adv-x="578" unicode="ú" d="M415 708l-126 -144h-47l101 144h72zM488 0h-53q-4 50 -4 92h-2q-19 -47 -66 -76t-100 -29q-88 0 -131.5 53.5t-43.5 140.5v285h55v-264q0 -169 132 -169q64 0 109 51.5t45 144.5v237h54v-359q0 -57 5 -107z"/>
<glyph glyph-name="ucircumflex" horiz-adv-x="578" unicode="û" d="M317 708l107 -144h-53l-86 115l-86 -115h-53l107 144h64zM488 0h-53q-4 50 -4 92h-2q-19 -47 -66 -76t-100 -29q-88 0 -131.5 53.5t-43.5 140.5v285h55v-264q0 -169 132 -169q64 0 109 51.5t45 144.5v237h54v-359q0 -57 5 -107z"/>
<glyph glyph-name="udieresis" horiz-adv-x="578" unicode="ü" d="M334 651q0 17 12 30t30 13t30.5 -13t12.5 -30q0 -18 -12.5 -31t-30.5 -13t-30 13t-12 31zM153 651q0 17 12.5 30t30.5 13t30 -13t12 -30q0 -18 -12 -31t-30 -13t-30.5 13t-12.5 31zM488 0h-53q-4 50 -4 92h-2q-19 -47 -66 -76t-100 -29q-88 0 -131.5 53.5t-43.5 140.5 v285h55v-264q0 -169 132 -169q64 0 109 51.5t45 144.5v237h54v-359q0 -57 5 -107z"/>
<glyph glyph-name="yacute" horiz-adv-x="470" unicode="ý" d="M377 708l-126 -144h-47l101 144h72zM84 -241q-25 0 -55 7l7 49q21 -8 46 -8q34 0 54.5 21.5t36.5 63.5l40 105l-195 469h61l162 -411l2 2l150 409h59l-232 -596q-22 -55 -53 -83t-83 -28z"/>
<glyph glyph-name="thorn" horiz-adv-x="631" unicode="þ" d="M516 233q0 84 -51 140.5t-135 56.5q-83 0 -135 -56.5t-52 -140.5t52 -141t135 -57q84 0 135 56.5t51 141.5zM334 -13q-57 0 -106.5 27.5t-77.5 77.5h-2v-332h-53v996h53v-385h2q29 51 78.5 79t105.5 28q103 0 171 -69.5t68 -175.5t-68 -176t-171 -70z"/>
<glyph glyph-name="OE" horiz-adv-x="988" unicode="Œ" d="M464 657q-154 0 -243.5 -85t-89.5 -218t89 -218t244 -85h65v606h-65zM449 708h476v-51h-339v-264h316v-50h-316v-292h352v-51h-489q-73 0 -139.5 22t-120.5 64.5t-86 112t-32 155.5t32 155.5t86 112t120.5 64.5t139.5 22z"/>
<glyph glyph-name="oe" horiz-adv-x="999" unicode="œ" d="M548 265h339q-3 75 -47 121.5t-119 46.5t-122.5 -52t-50.5 -116zM494 233q0 85 -52.5 142.5t-138.5 57.5q-85 0 -137.5 -57.5t-52.5 -142.5t52.5 -142t137.5 -57q86 0 138.5 57t52.5 142zM303 -13q-107 0 -176 70t-69 176q0 107 69 176t176 69q74 0 130 -34t86 -93 q28 59 81 93t120 34q105 0 163.5 -65.5t58.5 -162.5q0 -20 -1 -28h-396q2 -77 53 -132.5t130 -55.5q50 0 90.5 22.5t65.5 59.5l40 -32q-75 -97 -197 -97q-70 0 -124.5 34.5t-82.5 94.5q-30 -60 -86.5 -94.5t-130.5 -34.5z"/>
<glyph glyph-name="Scaron" horiz-adv-x="566" unicode="Š" d="M428 908l-107 -144h-64l-107 144h53l86 -115l86 115h53zM491 643l-41 -37q-59 72 -156 72q-64 0 -114 -37.5t-50 -105.5q0 -42 20.5 -71t53.5 -45t72.5 -29t79 -28t72.5 -35.5t53.5 -57.5t20.5 -88q0 -96 -67 -148t-159 -52q-136 0 -214 102l40 35q74 -87 174 -87 q67 0 117.5 39.5t50.5 107.5q0 42 -20.5 71.5t-53 46.5t-72.5 30.5t-79.5 28.5t-72 35.5t-53 57t-20.5 87.5q0 92 67 142t157 50q130 0 194 -84z"/>
<glyph glyph-name="scaron" horiz-adv-x="435" unicode="š" d="M364 708l-107 -144h-64l-107 144h53l86 -115l86 115h53zM379 399l-42 -30q-38 64 -117 64q-42 0 -73.5 -20.5t-31.5 -60.5q0 -38 27 -56.5t90 -32.5q78 -17 117 -48t39 -86q0 -70 -49.5 -105.5t-119.5 -35.5q-118 0 -177 87l43 31q21 -32 56.5 -52t77.5 -20 q48 0 81.5 22.5t33.5 68.5q0 35 -28 55t-68 29.5t-79.5 21t-67.5 40.5t-28 77q0 64 46.5 97t112.5 33q52 0 93.5 -20.5t63.5 -58.5z"/>
<glyph glyph-name="Ydieresis" horiz-adv-x="583" unicode="Ÿ" d="M341 851q0 17 12 30t30 13t30.5 -13t12.5 -30q0 -18 -12.5 -31t-30.5 -13t-30 13t-12 31zM160 851q0 17 12.5 30t30.5 13t30 -13t12 -30q0 -18 -12 -31t-30 -13t-30.5 13t-12.5 31zM320 306v-306h-57v306l-259 402h71l218 -353l219 353h66z"/>
<glyph glyph-name="circumflex" horiz-adv-x="240" unicode="ˆ" d="M152 708l107 -144h-53l-86 115l-86 -115h-53l107 144h64z"/>
<glyph glyph-name="tilde" horiz-adv-x="240" unicode="˜" d="M6 581h-35q15 94 82 94q22 0 71 -23.5t64 -23.5q35 0 46 49h35q-15 -93 -81 -93q-23 0 -71 23.5t-64 23.5q-36 0 -47 -50z"/>
<glyph glyph-name="uni0394" horiz-adv-x="666" unicode="Δ" d="M570 49l-239 610l-237 -610h476zM646 0h-624l279 712h61z"/>
<glyph glyph-name="uni03BC" horiz-adv-x="556" unicode="μ" d="M79 -228v694h52v-264q0 -83 30 -125t103 -42q67 0 110.5 52t43.5 142v237h53v-359q0 -43 4 -107h-57v89h-2q-22 -44 -68 -73t-96 -29q-78 0 -121 46v-261h-52z"/>
<glyph glyph-name="pi" horiz-adv-x="561" unicode="π" d="M523 9q-33 -15 -60 -15q-21 0 -35 6.5t-21 14.5t-11 25t-4.5 29.5t-0.5 36.5v312h-234v-418h-51v418h-71v48h483v-48h-76v-320q0 -30 8 -44.5t34 -14.5q20 0 39 8v-38z"/>
<glyph glyph-name="endash" horiz-adv-x="400" unicode="–" d="M370 269v-46h-340v46h340z"/>
<glyph glyph-name="emdash" horiz-adv-x="600" unicode="—" d="M570 269v-46h-540v46h540z"/>
<glyph glyph-name="quoteleft" horiz-adv-x="221" unicode="‘" d="M50 475l76 233h45l-64 -233h-57z"/>
<glyph glyph-name="quotesinglbase" horiz-adv-x="221" unicode="‚" d="M171 94l-76 -233h-45l64 233h57z"/>
<glyph glyph-name="quotedblleft" horiz-adv-x="376" unicode="“" d="M205 475l76 233h45l-64 -233h-57zM50 475l77 233h45l-65 -233h-57z"/>
<glyph glyph-name="quotedblright" horiz-adv-x="376" unicode="”" d="M50 475l64 233h57l-76 -233h-45zM204 475l65 233h57l-77 -233h-45z"/>
<glyph glyph-name="dagger" horiz-adv-x="545" unicode="†" d="M299 708v-205h201v-48h-201v-581h-53v581h-201v48h201v205h53z"/>
<glyph glyph-name="daggerdbl" horiz-adv-x="545" unicode="‡" d="M299 708v-196h195v-49h-195v-344h195v-49h-195v-196h-53v196h-195v49h195v344h-195v49h195v196h53z"/>
<glyph glyph-name="ellipsis" horiz-adv-x="1000" unicode="…" d="M878 40q0 -19 -12.5 -32.5t-31.5 -13.5t-32 13.5t-13 32.5q0 18 13 31.5t32 13.5t31.5 -13.5t12.5 -31.5zM545 40q0 -19 -13 -32.5t-32 -13.5t-32 13.5t-13 32.5q0 18 13 31.5t32 13.5t32 -13.5t13 -31.5zM211 40q0 -19 -13 -32.5t-32 -13.5t-31.5 13.5t-12.5 32.5 q0 18 12.5 31.5t31.5 13.5t32 -13.5t13 -31.5z"/>
<glyph glyph-name="perthousand" horiz-adv-x="1000" unicode="‰" d="M181 460q45 0 76 31t31 77q0 45 -31.5 76.5t-75.5 31.5t-75 -31.5t-31 -76.5q0 -46 31 -77t75 -31zM181 416q-62 0 -106.5 44.5t-44.5 107.5q0 62 44.5 107t106.5 45q63 0 107 -44.5t44 -107.5t-44 -107.5t-107 -44.5zM587 716l-447 -746l-41 22l448 746zM821 34 q45 0 76 31t31 77q0 45 -31.5 76.5t-75.5 31.5t-75 -31.5t-31 -76.5q0 -46 31 -77t75 -31zM821 -10q-62 0 -106.5 44.5t-44.5 107.5q0 62 44.5 107t106.5 45q63 0 107 -44.5t44 -107.5t-44 -107.5t-107 -44.5zM473 34q45 0 76 31t31 77q0 45 -31 76.5t-76 31.5 q-44 0 -74.5 -31.5t-30.5 -76.5q0 -46 30.5 -77t74.5 -31zM473 -10q-62 0 -106 44.5t-44 107.5q0 62 44 107t106 45q63 0 107 -44.5t44 -107.5t-44 -107.5t-107 -44.5z"/>
<glyph glyph-name="guilsinglleft" horiz-adv-x="315" unicode="‹" d="M124 239l115 -179l-38 -26l-135 205l134 205l38 -26z"/>
<glyph glyph-name="guilsinglright" horiz-adv-x="315" unicode="›" d="M191 239l-115 179l38 27l135 -206l-134 -205l-38 26z"/>
<glyph glyph-name="fraction" horiz-adv-x="100" unicode="⁄" d="M287 716l-447 -746l-42 22l448 746z"/>
<glyph glyph-name="Euro" d="M510 646q-52 30 -130 30q-88 0 -148.5 -56.5t-82.5 -157.5h311l-15 -45h-303q-5 -33 -5 -68q0 -27 4 -59h266l-15 -45h-246q16 -97 80.5 -155t152.5 -58q83 0 140 41l24 -45q-65 -47 -172 -47q-114 0 -190 76.5t-94 187.5h-72l16 45h51q-3 42 -3 58q0 35 4 69h-67l16 45 h57q27 126 106 195.5t188 69.5q86 0 147 -33z" unicode="€"/>
<glyph glyph-name="trademark" horiz-adv-x="1000" unicode="™" d="M917 708v-412h-49v359h-2l-148 -359h-31l-147 359h-2v-359h-49v412h77l138 -334l138 334h75zM397 708v-44h-133v-368h-49v368h-135v44h317z"/>
<glyph glyph-name="partialdiff" horiz-adv-x="490" unicode="∂" d="M227 30q43 0 75.5 24.5t50 65t26 79t10.5 78.5q-68 99 -162 99q-67 0 -104.5 -49.5t-37.5 -118.5q0 -68 38 -123t104 -55zM226 -13q-86 0 -139 65t-53 157q0 93 51.5 152.5t136.5 59.5q51 0 96 -25t76 -68q0 11 0.5 31t0.5 30q0 75 -18 138t-61 107t-106 44 q-54 0 -111 -45l-29 35q62 54 137 54q53 0 94.5 -21t68 -55.5t44 -82t24.5 -96.5t7 -103q0 -77 -11 -141.5t-35.5 -119t-68.5 -85.5t-104 -31z"/>
<glyph glyph-name="product" horiz-adv-x="709" unicode="∏" d="M632 -214h-53v951h-449v-951h-53v1000h555v-1000z"/>
<glyph glyph-name="summation" horiz-adv-x="601" unicode="∑" d="M569 -214h-538v45l332 458l-318 451v46h512v-49h-445l316 -448l-333 -454h474v-49z"/>
<glyph glyph-name="minus" horiz-adv-x="666" unicode="−" d="M581 328v-48h-496v48h496z"/>
<glyph glyph-name="radical" horiz-adv-x="488" unicode="√" d="M492 786l-209 -1000h-56l-165 348l-51 -24l-19 41l94 44l162 -344l194 935h50z"/>
<glyph glyph-name="infinity" horiz-adv-x="735" unicode="∞" d="M559 153q39 0 62 27t23 68q0 42 -23.5 71t-64.5 29q-25 0 -54 -16.5t-48.5 -34t-52.5 -50.5q48 -46 84 -70t74 -24zM185 153q62 0 155 95q-48 47 -85 73t-73 26q-39 0 -62 -28.5t-23 -69.5q0 -42 23.5 -69t64.5 -27zM184 107q-59 0 -96 40t-37 102q0 61 36.5 102t95.5 41 q34 0 71.5 -20t59.5 -39.5t57 -54.5l9 9q34 34 53.5 51.5t54.5 36t67 18.5q60 0 97.5 -40t37.5 -102t-37 -103t-97 -41q-48 0 -91.5 30t-93.5 81q-4 -3 -23 -21t-25.5 -23.5t-24 -19.5t-27.5 -19.5t-26 -13.5t-30.5 -11t-30.5 -3z"/>
<glyph glyph-name="approxequal" horiz-adv-x="666" unicode="≈" d="M62 91q18 131 121 131q45 0 144 -36t136 -36q68 0 85 81h36q-6 -55 -36.5 -92.5t-86.5 -37.5q-44 0 -142 36t-133 36q-38 0 -60 -23.5t-27 -58.5h-37zM62 267q7 56 36.5 93t85.5 37q46 0 144.5 -36t134.5 -36q69 0 86 81h35q-5 -54 -35.5 -91t-86.5 -37q-44 0 -143 35.5 t-133 35.5q-38 0 -60 -23.5t-27 -58.5h-37z"/>
<glyph glyph-name="notequal" horiz-adv-x="666" unicode="≠" d="M579 147h-284l-79 -153l-42 22l68 131h-155v47h180l70 137h-250v48h276l76 147l42 -22l-65 -125h163v-48h-188l-71 -137h259v-47z"/>
<glyph glyph-name="lessequal" horiz-adv-x="666" unicode="≤" d="M579 4h-492v48h492v-48zM579 96l-492 199v52l492 200v-52l-430 -174l430 -174v-51z"/>
<glyph glyph-name="greaterequal" horiz-adv-x="666" unicode="≥" d="M579 4h-492v48h492v-48zM579 295l-492 -199v51l431 174l-431 174v52l492 -200v-52z"/>
<glyph glyph-name="lozenge" horiz-adv-x="593" unicode="◊" d="M437 356l-141 341l-141 -341l141 -341zM490 356l-169 -391h-51l-167 391l167 391h51z"/>
</font>
</defs>
</svg>
