<?xml version="1.0" encoding="UTF-8" standalone="no"?>
<!DOCTYPE svg  PUBLIC '-//W3C//DTD SVG 1.1//EN'  'http://www.w3.org/Graphics/SVG/1.1/DTD/svg11.dtd'>
<svg xmlns="http://www.w3.org/2000/svg">
<defs>
<font id="AvenirNextCyr-Italic" horiz-adv-x="580">
<font-face slope="-12" underline-position="125" font-weight="400" descent="-200" panose-1="2 11 5 3 2 2 2 9 2 4" units-per-em="1000" unicode-range="U+0020-25CA" bbox="-260 -250 1029 946" x-height="468" underline-thickness="50" font-family="AvenirNextCyr" ascent="800" font-style="italic" cap-height="708"/>
<missing-glyph horiz-adv-x="1000"/>
<glyph glyph-name=".notdef" horiz-adv-x="1000"/>
<glyph glyph-name=".null" horiz-adv-x="1000"/>
<glyph glyph-name=".null" horiz-adv-x="1000"/>
<glyph glyph-name="nonmarkingreturn" horiz-adv-x="333"/>
<glyph glyph-name="space" horiz-adv-x="250" unicode=" "/>
<glyph glyph-name="exclam" horiz-adv-x="278" unicode="!" d="M153 49q0 -22 -16 -38.5t-38 -16.5t-37.5 14.5t-15.5 37.5q0 24 16.5 40t38.5 16t37 -14.5t15 -38.5zM246 708l-91 -516h-72l91 516h72z"/>
<glyph glyph-name="quotedbl" horiz-adv-x="400" unicode='&quot;' d="M261 473l42 235h60l-42 -235h-60zM116 473l42 235h60l-42 -235h-60z"/>
<glyph glyph-name="numbersign" horiz-adv-x="556" unicode="#" d="M251 436l-51 -162h133l51 162h-133zM53 0l68 214h-102l10 60h110l51 162h-108l10 60h117l67 212h61l-67 -212h133l67 212h61l-67 -212h90l-10 -60h-99l-51 -162h95l-10 -60h-103l-68 -214h-61l68 214h-133l-68 -214h-61z"/>
<glyph glyph-name="dollar" d="M282 400l46 260q-61 -3 -105.5 -39.5t-44.5 -101.5q0 -45 26 -71.5t78 -47.5zM263 48q65 3 108 44.5t43 102.5q0 78 -105 124zM251 -13l-12 -71h-42l13 72q-61 4 -113 30.5t-80 72.5l62 39q19 -33 56.5 -56t84.5 -26l50 285q-74 27 -118.5 68t-44.5 110q0 87 61.5 146 t170.5 64l12 71h42l-13 -72q110 -6 168 -83l-60 -42q-16 26 -48 44.5t-70 19.5l-48 -274q34 -13 59.5 -27.5t51.5 -35.5t39.5 -51t13.5 -67q0 -36 -12.5 -71t-38.5 -67.5t-73.5 -54t-110.5 -24.5z" unicode="$"/>
<glyph glyph-name="percent" horiz-adv-x="833" unicode="%" d="M736 712l-581 -743l-45 27l582 743zM734 190q0 42 -25.5 68.5t-69.5 26.5q-55 0 -92 -43t-37 -103q0 -41 25.5 -67.5t68.5 -26.5q56 0 93 42.5t37 102.5zM600 -10q-67 0 -110 40t-43 103q0 85 56 144.5t140 59.5q67 0 109.5 -39.5t42.5 -102.5q0 -86 -55.5 -145.5 t-139.5 -59.5zM345 573q0 42 -25.5 68.5t-69.5 26.5q-55 0 -92 -43t-37 -103q0 -41 25.5 -67.5t68.5 -26.5q56 0 93 42.5t37 102.5zM211 373q-67 0 -110 40t-43 103q0 85 56 144.5t140 59.5q67 0 109.5 -39.5t42.5 -102.5q0 -86 -55.5 -145.5t-139.5 -59.5z"/>
<glyph glyph-name="ampersand" horiz-adv-x="704" unicode="&amp;" d="M441 571q0 44 -24.5 70.5t-66.5 26.5q-49 0 -80 -34t-31 -86q0 -69 52 -127q71 31 110.5 66t39.5 84zM413 152l-153 196q-74 -31 -117 -73.5t-43 -108.5q0 -54 37.5 -86t93.5 -32q52 0 95 25t87 79zM511 576q0 -120 -189 -199l133 -168l125 174h83l-168 -221l130 -162 h-91l-81 105q-101 -117 -226 -117q-92 0 -147.5 45.5t-55.5 130.5q0 144 204 231q-55 68 -55 148t49.5 131.5t127.5 51.5q72 0 116.5 -40t44.5 -110z"/>
<glyph glyph-name="quotesingle" horiz-adv-x="255" unicode="&apos;" d="M116 473l42 235h60l-42 -235h-60z"/>
<glyph glyph-name="parenleft" horiz-adv-x="300" unicode="(" d="M83 167q0 -173 69 -297l-52 -28q-39 61 -61 147.5t-22 177.5q0 158 65.5 306.5t171.5 261.5l46 -33q-97 -107 -157 -249t-60 -286z"/>
<glyph glyph-name="parenright" horiz-adv-x="300" unicode=")" d="M211 409q0 173 -69 297l52 28q39 -61 61 -147.5t22 -177.5q0 -158 -65.5 -306.5t-171.5 -261.5l-46 33q97 107 157 249t60 286z"/>
<glyph glyph-name="asterisk" horiz-adv-x="444" unicode="*" d="M280 708v-145l144 45l18 -50l-146 -45l93 -127l-42 -32l-95 130l-95 -130l-42 32l93 127l-146 45l18 50l144 -45v145h56z"/>
<glyph glyph-name="plus" horiz-adv-x="666" unicode="+" d="M363 558v-225h225v-60h-225v-225h-60v225h-225v60h225v225h60z"/>
<glyph glyph-name="comma" horiz-adv-x="260" unicode="," d="M146 95l-123 -235h-57l109 235h71z"/>
<glyph glyph-name="hyphen" horiz-adv-x="320" unicode="-" d="M266 271l-10 -57h-224l10 57h224z"/>
<glyph glyph-name="period" horiz-adv-x="260" unicode="." d="M131 49q0 -22 -16 -38.5t-38 -16.5t-37.5 14.5t-15.5 37.5q0 24 16.5 40t38.5 16t37 -14.5t15 -38.5z"/>
<glyph glyph-name="slash" horiz-adv-x="370" unicode="/" d="M435 706l-429 -724l-55 19l431 725z"/>
<glyph glyph-name="zero" d="M353 666q-64 0 -117 -65.5t-81.5 -166t-28.5 -207.5q0 -82 28 -133t90 -51q64 0 116.5 65t81 164.5t28.5 206.5q0 83 -27.5 135t-89.5 52zM358 726q94 0 139.5 -67t45.5 -174q0 -81 -17.5 -165t-52 -162t-95.5 -127t-139 -49q-96 0 -140.5 66t-44.5 173q0 83 17.5 167 t51.5 162t95.5 127t139.5 49z" unicode="0"/>
<glyph glyph-name="one" d="M429 708l-125 -708h-70l109 621l-149 -111l-35 52l206 146h64z" unicode="1"/>
<glyph glyph-name="two" d="M465 63l-11 -63h-453l13 75l339 293q59 50 85.5 89.5t26.5 93.5q0 52 -37 83t-91 31q-62 0 -103 -34.5t-57 -89.5l-68 14q24 76 84 123.5t147 47.5q82 0 139.5 -44.5t57.5 -124.5q0 -42 -8.5 -73.5t-31 -61t-42.5 -49t-62 -55.5l-299 -255h371z" unicode="2"/>
<glyph glyph-name="three" d="M220 341l11 60h31q91 0 141 39.5t50 116.5q0 51 -34 79.5t-86 28.5q-100 0 -147 -87l-58 33q75 115 208 115q80 0 134.5 -44.5t54.5 -124.5q0 -65 -39 -115t-116 -71v-2q50 -12 83 -53t33 -96q0 -104 -68.5 -171t-180.5 -67q-78 0 -136.5 39t-78.5 106l71 25 q9 -50 51.5 -79t98.5 -29q75 0 122 46t47 123q0 64 -43 96t-118 32h-31z" unicode="3"/>
<glyph glyph-name="four" d="M353 234l70 393h-2l-320 -393h252zM506 708l-84 -474h105l-11 -63h-105l-30 -171h-69l30 171h-324l12 73l380 464h96z" unicode="4"/>
<glyph glyph-name="five" d="M528 708l-11 -63h-278l-44 -220q44 16 91 16q92 0 149.5 -54.5t57.5 -136.5q0 -114 -69 -191t-199 -77q-74 0 -127.5 35.5t-74.5 93.5l66 29q13 -43 51 -69.5t86 -26.5q91 0 141.5 54t50.5 138q0 67 -41.5 108t-110.5 41q-86 0 -153 -40l72 363h343z" unicode="5"/>
<glyph glyph-name="six" d="M110 182q0 -59 38 -100t101 -41q82 0 133.5 54t51.5 134q0 58 -36 98t-98 40q-81 0 -135.5 -53t-54.5 -132zM475 708l-258 -309l2 -2q41 26 94 26q84 0 138 -52t54 -136q0 -112 -72.5 -182.5t-185.5 -70.5q-92 0 -150.5 58t-58.5 144q0 91 100 215l250 309h87z" unicode="6"/>
<glyph glyph-name="seven" d="M569 708l-12 -66l-402 -642h-84l413 645h-346l11 63h420z" unicode="7"/>
<glyph glyph-name="eight" d="M112 170q0 -57 36.5 -92t97.5 -35q84 0 133 50t49 127q0 53 -37 89t-95 36q-78 0 -131 -50.5t-53 -124.5zM194 517q0 -47 31 -80t83 -33q66 0 109.5 47t43.5 97q0 57 -32.5 87.5t-88.5 30.5q-62 0 -104 -45t-42 -104zM387 373q50 -14 81.5 -54t31.5 -95 q0 -114 -75.5 -178t-179.5 -64q-88 0 -147 49t-59 135q0 81 51.5 137t125.5 74v2q-42 17 -66.5 52.5t-24.5 80.5q0 90 63 152t157 62q83 0 134.5 -44.5t51.5 -122.5q0 -67 -40.5 -115.5t-103.5 -68.5v-2z" unicode="8"/>
<glyph glyph-name="nine" d="M495 526q0 59 -38.5 100t-101.5 41q-82 0 -133.5 -54t-51.5 -134q0 -58 36 -97.5t98 -39.5q81 0 136 52.5t55 131.5zM129 0l258 309l-2 2q-41 -26 -94 -26q-84 0 -138 52t-54 136q0 112 72.5 182.5t185.5 70.5q92 0 150.5 -58t58.5 -144q0 -91 -100 -215l-250 -309h-87z " unicode="9"/>
<glyph glyph-name="colon" horiz-adv-x="300" unicode=":" d="M215 421q0 -22 -16 -38.5t-38 -16.5t-37.5 14.5t-15.5 37.5q0 24 16.5 40t38.5 16t37 -14.5t15 -38.5zM157 49q0 -22 -16 -38.5t-38 -16.5t-37.5 14.5t-15.5 37.5q0 24 16.5 40t38.5 16t37 -14.5t15 -38.5z"/>
<glyph glyph-name="semicolon" horiz-adv-x="300" unicode=";" d="M215 421q0 -22 -16 -38.5t-38 -16.5t-37.5 14.5t-15.5 37.5q0 24 16.5 40t38.5 16t37 -14.5t15 -38.5zM162 95l-123 -235h-60l109 235h74z"/>
<glyph glyph-name="less" horiz-adv-x="666" unicode="&lt;" d="M588 564v-60l-429 -201l429 -201v-60l-510 238v46z"/>
<glyph glyph-name="equal" horiz-adv-x="666" unicode="=" d="M78 258h510v-60h-510v60zM78 408h510v-60h-510v60z"/>
<glyph glyph-name="greater" horiz-adv-x="666" unicode="&gt;" d="M78 504v60l510 -238v-46l-510 -238v60l429 201z"/>
<glyph glyph-name="question" horiz-adv-x="482" unicode="?" d="M262 49q0 -22 -16 -38.5t-38 -16.5t-37.5 14.5t-15.5 37.5q0 24 16.5 40t38.5 16t37 -14.5t15 -38.5zM260 232l-6 -40h-68l10 60q9 52 34 87t66 66l33 25q43 33 63.5 61t20.5 68q0 45 -29 72t-75 27q-61 0 -98 -32.5t-49 -84.5l-65 12q18 76 77 121.5t134 45.5 q78 0 127.5 -40.5t49.5 -118.5q0 -59 -30.5 -100.5t-88.5 -82.5q-53 -38 -75.5 -66.5t-30.5 -79.5z"/>
<glyph glyph-name="at" horiz-adv-x="800" unicode="@" d="M673 145l29 -46q-135 -117 -322 -117q-156 0 -248 86.5t-92 221.5q0 182 123.5 309t311.5 127q135 0 222 -74t87 -203q0 -73 -22.5 -137t-72.5 -108t-119 -44q-38 0 -62 18t-24 43q0 5 2 13h-4q-19 -28 -54.5 -51t-77.5 -23q-64 0 -96.5 35t-32.5 94q0 38 14.5 81.5 t41 84t72.5 67.5t102 27q38 0 66 -17.5t34 -42.5h4l18 45h62l-73 -186q-25 -64 -25 -88q0 -44 48 -44q58 0 96.5 70t38.5 151q0 106 -68.5 167.5t-180.5 61.5q-153 0 -256.5 -109t-103.5 -268q0 -113 75.5 -181t200.5 -68q159 0 286 105zM444 489q-59 0 -104.5 -57 t-45.5 -139q0 -75 65 -75q63 0 108 63t45 136q0 72 -68 72z"/>
<glyph glyph-name="A" horiz-adv-x="695" unicode="A" d="M424 628l-236 -376h310zM147 186l-116 -186h-82l456 708h70l147 -708h-75l-38 186h-362z"/>
<glyph glyph-name="B" horiz-adv-x="620" unicode="B" d="M171 339l-49 -278h134q96 0 159 39t63 122q0 55 -42 86t-118 31h-147zM225 647l-44 -249h145q68 0 121 34t53 106q0 55 -41 82t-109 27h-125zM40 0l125 708h204q84 0 145 -38t61 -117q0 -69 -42 -116t-114 -65v-2q59 -9 95.5 -49.5t36.5 -101.5q0 -105 -82.5 -162 t-219.5 -57h-209z"/>
<glyph glyph-name="C" horiz-adv-x="720" unicode="C" d="M606 150l53 -38q-103 -130 -283 -130q-142 0 -230 84t-88 220q0 184 123.5 312t299.5 128q78 0 143 -30.5t95 -82.5l-65 -43q-18 39 -64 66.5t-111 27.5q-98 0 -178.5 -53.5t-123.5 -138t-43 -179.5q0 -108 65.5 -178.5t180.5 -70.5q137 0 226 106z"/>
<glyph glyph-name="D" horiz-adv-x="757" unicode="D" d="M225 645l-103 -582h160q110 0 192 50t120.5 126t38.5 165q0 106 -68 173.5t-202 67.5h-138zM40 0l125 708h214q62 0 119 -17t105 -51t77 -93t29 -135q0 -185 -122 -298.5t-310 -113.5h-237z"/>
<glyph glyph-name="E" d="M171 338l-49 -275h380l-11 -63h-451l125 708h425l-11 -63h-354l-43 -246h338l-11 -61h-338z" unicode="E"/>
<glyph glyph-name="F" horiz-adv-x="550" unicode="F" d="M171 337l-60 -337h-71l125 708h417l-11 -63h-346l-44 -247h321l-10 -61h-321z"/>
<glyph glyph-name="G" horiz-adv-x="770" unicode="G" d="M380 44q122 0 201 48l38 217h-167l11 61h237l-56 -319q-120 -69 -268 -69q-142 0 -230 84t-88 220q0 184 123.5 312t299.5 128q78 0 143 -30.5t95 -82.5l-65 -43q-18 39 -64 66.5t-111 27.5q-98 0 -178.5 -53.5t-123.5 -138t-43 -179.5q0 -108 65.5 -178.5t180.5 -70.5z "/>
<glyph glyph-name="H" horiz-adv-x="708" unicode="H" d="M40 0l125 708h71l-55 -308h377l55 308h71l-125 -708h-71l59 336h-377l-59 -336h-71z"/>
<glyph glyph-name="I" horiz-adv-x="260" unicode="I" d="M236 708l-125 -708h-71l125 708h71z"/>
<glyph glyph-name="J" horiz-adv-x="482" unicode="J" d="M-10 120l63 20q7 -42 34.5 -69t72.5 -27q37 0 63.5 13t42.5 38.5t24.5 51t14.5 62.5l88 499h71l-89 -504q-7 -43 -18 -75t-33 -69t-62.5 -57.5t-97.5 -20.5q-75 0 -120.5 39.5t-53.5 98.5z"/>
<glyph glyph-name="K" horiz-adv-x="585" unicode="K" d="M236 708l-56 -318h1l360 318h104l-387 -328l296 -380h-93l-283 377h-1l-66 -377h-71l125 708h71z"/>
<glyph glyph-name="L" horiz-adv-x="510" unicode="L" d="M236 708l-115 -645h331l-10 -63h-402l125 708h71z"/>
<glyph glyph-name="M" horiz-adv-x="886" unicode="M" d="M273 708l134 -586h1l343 586h109l-125 -708h-71l108 612h-2l-364 -612h-38l-148 612h-2l-108 -612h-70l125 708h108z"/>
<glyph glyph-name="N" horiz-adv-x="750" unicode="N" d="M255 708l291 -607h2l107 607h71l-125 -708h-89l-290 615h-2l-108 -615h-71l125 708h89z"/>
<glyph glyph-name="O" horiz-adv-x="834" unicode="O" d="M710 417q0 107 -64.5 177t-177.5 70q-97 0 -175 -54t-118.5 -138.5t-40.5 -179.5q0 -107 64 -177.5t178 -70.5q144 0 239 111.5t95 261.5zM373 -18q-139 0 -227 84t-88 220q0 184 119.5 312t293.5 128q139 0 227 -83.5t88 -218.5q0 -184 -118 -313t-295 -129z"/>
<glyph glyph-name="P" d="M225 647l-46 -259h130q90 0 140.5 36.5t50.5 105.5q0 117 -152 117h-123zM40 0l125 708h189q103 0 160.5 -45t57.5 -125q0 -101 -73.5 -155t-195.5 -54h-134l-58 -329h-71z" unicode="P"/>
<glyph glyph-name="Q" horiz-adv-x="836" unicode="Q" d="M785 424q0 -124 -60.5 -219.5t-154.5 -139.5l-1 -2h207l-11 -63h-375q-144 0 -237 75.5t-93 218.5q0 181 117 306.5t291 125.5q139 0 228 -83.5t89 -218.5zM709 411q0 111 -65 182t-179 71q-97 0 -174 -53t-117 -134.5t-40 -172.5q0 -114 69.5 -178.5t190.5 -64.5 q125 0 220 104t95 246z"/>
<glyph glyph-name="R" horiz-adv-x="599" unicode="R" d="M225 647l-45 -256h126q197 0 197 140q0 57 -41.5 86.5t-116.5 29.5h-120zM169 331l-58 -331h-71l125 708h191q98 0 158.5 -43t60.5 -126q0 -93 -57 -142.5t-151 -59.5l156 -337h-81l-148 331h-125z"/>
<glyph glyph-name="S" horiz-adv-x="564" unicode="S" d="M552 642l-61 -44q-45 66 -139 66q-69 0 -121.5 -37t-52.5 -105q0 -50 32.5 -78t96.5 -52q38 -15 64.5 -28t55.5 -35t44 -53t15 -69q0 -39 -13.5 -76t-41.5 -72t-80 -56t-121 -21q-67 0 -127 27.5t-90 77.5l64 41q21 -37 62 -60.5t94 -23.5q75 0 126.5 41.5t51.5 108.5 q0 55 -37.5 84.5t-110.5 56.5t-116 67.5t-43 110.5q0 93 67.5 153t184.5 60q69 0 120.5 -23t75.5 -61z"/>
<glyph glyph-name="T" horiz-adv-x="547" unicode="T" d="M364 645l-114 -645h-71l114 645h-237l11 63h546l-11 -63h-238z"/>
<glyph glyph-name="U" horiz-adv-x="710" unicode="U" d="M311 -18q-119 0 -176.5 63t-57.5 152q0 36 6 67l78 444h71l-77 -436q-6 -32 -6 -61q0 -74 39.5 -120.5t126.5 -46.5q187 0 227 228l77 436h71l-78 -444q-7 -39 -19 -75t-35.5 -75t-55.5 -67t-81.5 -46.5t-109.5 -18.5z"/>
<glyph glyph-name="V" horiz-adv-x="600" unicode="V" d="M153 708l92 -615h2l360 615h79l-421 -708h-74l-114 708h76z"/>
<glyph glyph-name="W" horiz-adv-x="960" unicode="W" d="M161 708l57 -609h2l295 609h86l59 -609h2l291 609h76l-345 -708h-84l-57 610h-2l-299 -610h-84l-73 708h76z"/>
<glyph glyph-name="X" horiz-adv-x="618" unicode="X" d="M187 708l136 -286l251 286h94l-309 -344l182 -364h-86l-149 313l-273 -313h-98l335 372l-169 336h86z"/>
<glyph glyph-name="Y" horiz-adv-x="557" unicode="Y" d="M301 305l-54 -305h-71l54 305l-180 403h84l141 -344l283 344h89z"/>
<glyph glyph-name="Z" horiz-adv-x="572" unicode="Z" d="M608 708l-11 -60l-518 -585h419l-11 -63h-512l11 60l519 585h-398l11 63h490z"/>
<glyph glyph-name="bracketleft" horiz-adv-x="300" unicode="[" d="M295 732l-9 -54h-96l-138 -780h96l-10 -54h-162l157 888h162z"/>
<glyph glyph-name="backslash" horiz-adv-x="370" unicode="\" d="M307 -18l-302 724l57 20l303 -725z"/>
<glyph glyph-name="bracketright" horiz-adv-x="300" unicode="]" d="M-2 -156l10 54h96l138 780h-96l9 54h162l-157 -888h-162z"/>
<glyph glyph-name="asciicircum" horiz-adv-x="666" unicode="^" d="M80 275l229 433h48l229 -433h-62l-191 361l-191 -361h-62z"/>
<glyph glyph-name="underscore" horiz-adv-x="500" unicode="_" d="M0 -125v50h500v-50h-500z"/>
<glyph glyph-name="grave" horiz-adv-x="240" unicode="`" d="M155 564l-132 144h88l100 -144h-56z"/>
<glyph glyph-name="a" horiz-adv-x="534" unicode="a" d="M374 236h-16q-265 0 -265 -116q0 -75 96 -75q70 0 118 43.5t60 108.5zM383 287q5 29 5 44q0 93 -110 93q-81 0 -146 -56l-30 45q34 30 84 48.5t99 18.5q72 0 119 -34t47 -101q0 -24 -4 -50l-34 -190q-11 -66 -11 -105h-60q0 38 6 76h-2q-40 -46 -81 -65.5t-100 -19.5 q-56 0 -99 29.5t-43 91.5q0 43 21.5 75.5t55 51t83 30t96.5 15t104 3.5z"/>
<glyph glyph-name="b" horiz-adv-x="628" unicode="b" d="M490 274q0 65 -39 107.5t-108 42.5q-87 0 -147.5 -67t-60.5 -161q0 -67 41.5 -109t109.5 -42q91 0 147.5 66t56.5 163zM122 79h-2l-14 -79h-67l134 756h67l-65 -364h2q24 37 71 62.5t101 25.5q95 0 153 -56t58 -146q0 -121 -79 -205.5t-196 -84.5q-52 0 -97.5 24 t-65.5 67z"/>
<glyph glyph-name="c" horiz-adv-x="500" unicode="c" d="M485 401l-59 -39q-12 28 -41.5 45t-67.5 17q-89 0 -148 -67t-59 -162q0 -66 40.5 -108t110.5 -42q82 0 138 61l43 -37q-79 -81 -186 -81q-99 0 -158 55t-59 146q0 123 78 207t202 84q54 0 99 -20t67 -59z"/>
<glyph glyph-name="d" horiz-adv-x="622" unicode="d" d="M104 195q0 -65 39 -107.5t108 -42.5q87 0 147.5 67t60.5 161q0 67 -41.5 109t-109.5 42q-91 0 -147.5 -66t-56.5 -163zM34 190q0 121 79 205.5t196 84.5q52 0 96.5 -24t66.5 -67h2l65 367h67l-134 -756h-67l14 77h-2q-24 -38 -71 -63.5t-101 -25.5q-95 0 -153 56t-58 146 z"/>
<glyph glyph-name="e" horiz-adv-x="566" unicode="e" d="M113 266h318q2 20 2 35q0 56 -34 89.5t-96 33.5q-71 0 -122.5 -45.5t-67.5 -112.5zM491 216h-387q-2 -16 -2 -22q0 -65 43.5 -107t107.5 -42q101 0 162 82l42 -40q-82 -99 -210 -99q-93 0 -153 55t-60 151q0 115 79 200.5t192 85.5q93 0 144 -50t51 -133q0 -46 -9 -81z "/>
<glyph glyph-name="f" horiz-adv-x="295" unicode="f" d="M317 468l-11 -56h-110l-72 -412h-67l72 412h-99l11 56h97l22 127q13 77 56.5 125t118.5 48q30 0 55 -7l-16 -59q-21 6 -47 6q-45 0 -68 -31.5t-33 -88.5l-21 -120h112z"/>
<glyph glyph-name="g" horiz-adv-x="627" unicode="g" d="M114 204q0 -63 40 -105.5t110 -42.5q89 0 146.5 64t57.5 154q0 64 -41.5 107t-109.5 43q-90 0 -146.5 -60.5t-56.5 -159.5zM-4 -146l45 48q25 -37 71.5 -60t98.5 -23q170 0 205 185l17 89h-2q-66 -93 -178 -93q-94 0 -151 58t-57 147q0 115 78 195t195 80q53 0 98 -24.5 t64 -68.5h2l15 81h66l-82 -464q-6 -36 -15 -65t-28.5 -64.5t-47 -59t-74 -39.5t-105.5 -16q-68 0 -124.5 25t-90.5 69z"/>
<glyph glyph-name="h" horiz-adv-x="577" unicode="h" d="M332 480q75 0 117.5 -38.5t42.5 -104.5q0 -20 -5 -50l-51 -287h-67l46 259q6 32 6 59q0 106 -106 106q-58 0 -106 -47.5t-64 -136.5l-42 -240h-67l133 756h67l-64 -365h2q27 41 69 65t89 24z"/>
<glyph glyph-name="i" horiz-adv-x="250" unicode="i" d="M227 649q0 -20 -14 -34t-33 -14t-32.5 12.5t-13.5 32.5q0 21 14.5 35t33.5 14t32 -12.5t13 -33.5zM187 468l-83 -468h-67l83 468h67z"/>
<glyph glyph-name="j" horiz-adv-x="251" unicode="j" d="M227 649q0 -20 -14 -34t-33 -14t-32.5 12.5t-13.5 32.5q0 21 14.5 35t33.5 14t32 -12.5t13 -33.5zM-113 -233l14 57q18 -6 42 -6q39 0 55 24t26 76l97 550h67l-99 -561q-12 -68 -43 -107.5t-103 -39.5q-34 0 -56 7z"/>
<glyph glyph-name="k" horiz-adv-x="487" unicode="k" d="M238 756l-88 -499h3l239 211h93l-257 -217l214 -251h-88l-203 246h-3l-42 -246h-68l133 756h67z"/>
<glyph glyph-name="l" horiz-adv-x="252" unicode="l" d="M239 756l-133 -756h-68l133 756h68z"/>
<glyph glyph-name="m" horiz-adv-x="874" unicode="m" d="M628 480q75 0 118 -38.5t43 -104.5q0 -20 -5 -50l-51 -287h-67l46 259q6 31 6 59q0 106 -104 106q-124 0 -154 -175l-44 -249h-67l49 272q6 33 6 61q0 91 -93 91q-54 0 -102.5 -48t-63.5 -136l-42 -240h-67l64 365q10 50 15 103h64q-7 -63 -11 -80h2q61 92 162 92 q111 0 131 -99q57 99 165 99z"/>
<glyph glyph-name="n" horiz-adv-x="577" unicode="n" d="M115 468h65q-7 -63 -11 -80h2q27 43 70 67.5t90 24.5q75 0 118 -38.5t43 -104.5q0 -20 -5 -50l-51 -287h-67l46 259q6 32 6 59q0 106 -104 106q-58 0 -107 -47.5t-65 -136.5l-42 -240h-67l64 365q10 50 15 103z"/>
<glyph glyph-name="o" horiz-adv-x="596" unicode="o" d="M458 274q0 65 -40.5 107.5t-109.5 42.5q-86 0 -144.5 -67.5t-58.5 -161.5q0 -66 40.5 -108t108.5 -42q88 0 146 67t58 162zM250 -12q-95 0 -155.5 56.5t-60.5 146.5q0 120 79 204.5t199 84.5q95 0 155.5 -56t60.5 -146q0 -122 -78.5 -206t-199.5 -84z"/>
<glyph glyph-name="p" horiz-adv-x="628" unicode="p" d="M490 274q0 65 -39 107.5t-108 42.5q-87 0 -147.5 -67t-60.5 -161q0 -67 41.5 -109t109.5 -42q91 0 147.5 66t56.5 163zM177 392q24 37 71 62.5t101 25.5q95 0 153 -56t58 -146q0 -121 -79 -205.5t-196 -84.5q-52 0 -96.5 24t-66.5 67h-2l-57 -319h-67l126 708h67l-14 -76 h2z"/>
<glyph glyph-name="q" horiz-adv-x="620" unicode="q" d="M104 195q0 -65 39 -107.5t108 -42.5q87 0 147.5 67t60.5 161q0 67 -41.5 109t-109.5 42q-91 0 -147.5 -66t-56.5 -163zM34 190q0 121 79 205.5t196 84.5q52 0 96.5 -24t66.5 -67h2l14 79h67l-125 -708h-67l56 316h-2q-24 -37 -71 -62.5t-101 -25.5q-95 0 -153 56t-58 146 z"/>
<glyph glyph-name="r" horiz-adv-x="348" unicode="r" d="M100 365q10 50 15 103h64q-7 -63 -11 -80h2q26 42 67 67t89 25q26 0 44 -5l-16 -64q-14 6 -46 6q-58 0 -102.5 -44t-60.5 -133l-42 -240h-67z"/>
<glyph glyph-name="s" horiz-adv-x="444" unicode="s" d="M407 403l-53 -38q-30 59 -109 59q-43 0 -77 -19t-34 -57q0 -34 21 -49t72 -30q72 -20 106.5 -52t34.5 -85q0 -71 -55.5 -107.5t-125.5 -36.5q-61 0 -112 22.5t-79 66.5l58 38q17 -30 52.5 -50t77.5 -20q48 0 82.5 20t34.5 60q0 35 -26.5 54.5t-87.5 39.5q-54 17 -86 44.5 t-32 79.5q0 67 54.5 102t125.5 35q54 0 96.5 -21t61.5 -56z"/>
<glyph glyph-name="t" horiz-adv-x="307" unicode="t" d="M314 468l-11 -56h-127l-49 -274q-3 -18 -3 -32q0 -55 58 -55q37 0 57 15l-8 -58q-26 -14 -77 -14q-41 0 -70.5 21t-29.5 72q0 14 3 32l52 293h-97l11 56h95l23 132h67l-23 -132h129z"/>
<glyph glyph-name="u" horiz-adv-x="577" unicode="u" d="M429 0h-65q8 62 11 80h-2q-27 -43 -70 -67.5t-90 -24.5q-75 0 -118 38.5t-43 104.5q0 20 5 50l51 287h67l-46 -259q-6 -31 -6 -59q0 -105 104 -105q58 0 107 47t65 136l42 240h67l-64 -365q-10 -50 -15 -103z"/>
<glyph glyph-name="v" horiz-adv-x="478" unicode="v" d="M487 468l-282 -468h-72l-98 468h69l75 -396h2l233 396h73z"/>
<glyph glyph-name="w" horiz-adv-x="733" unicode="w" d="M52 468h70l32 -380h2l198 380h64l55 -380h3l187 380h72l-239 -468h-72l-53 379h-2l-195 -379h-71z"/>
<glyph glyph-name="x" horiz-adv-x="475" unicode="x" d="M393 0h-78l-100 199l-187 -199h-83l240 247l-117 221h72l91 -184l171 184h81l-222 -229z"/>
<glyph glyph-name="y" horiz-adv-x="483" unicode="y" d="M114 468l75 -394h2l228 394h75l-354 -589q-37 -60 -72 -89.5t-83 -29.5q-29 0 -57 6l10 62q22 -8 44 -8q30 0 53.5 20.5t48.5 62.5l58 98l-98 467h70z"/>
<glyph glyph-name="z" horiz-adv-x="442" unicode="z" d="M430 468l-9 -48l-344 -361h290l-10 -59h-380l8 48l343 363h-265l11 57h356z"/>
<glyph glyph-name="braceleft" horiz-adv-x="300" unicode="{" d="M-9 258l11 60q78 0 99 111l31 178q23 125 130 125h63l-9 -54h-48q-57 0 -72 -83l-31 -178q-12 -63 -47.5 -93.5t-64.5 -34.5v-2q13 -2 27 -10t28 -31t14 -55q0 -14 -3 -32l-31 -178q-3 -15 -3 -32q0 -51 45 -51h48l-10 -54h-63q-89 0 -89 88q0 9 4 37l31 178q3 19 3 36 q0 75 -63 75z"/>
<glyph glyph-name="bar" horiz-adv-x="222" unicode="|" d="M81 750h60v-1000h-60v1000z"/>
<glyph glyph-name="braceright" horiz-adv-x="300" unicode="}" d="M291 258q-39 0 -64 -29t-34 -82l-31 -178q-12 -66 -47.5 -95.5t-83.5 -29.5h-63l10 54h48q57 0 72 83l31 178q11 63 47 93.5t65 34.5v2q-23 3 -46 26t-23 69q0 15 3 33l31 178q3 15 3 32q0 51 -45 51h-48l9 54h63q90 0 90 -88q0 -11 -4 -37l-31 -178q-4 -19 -4 -38 q0 -73 63 -73z"/>
<glyph glyph-name="asciitilde" horiz-adv-x="666" unicode="~" d="M535 368l42 -40q-60 -93 -136 -93q-55 0 -111 36q-63 40 -103 40q-56 0 -96 -73l-42 40q19 27 34.5 44t43.5 33t58 16q57 0 110 -35q64 -41 103 -41q53 0 97 73z"/>
<glyph glyph-name="uni00A0" horiz-adv-x="250" unicode=" "/>
<glyph glyph-name="exclamdown" horiz-adv-x="278" unicode="¡" d="M99 431q0 22 16 38.5t38 16.5t37.5 -14.5t15.5 -37.5q0 -24 -16.5 -40t-38.5 -16t-37 14.5t-15 38.5zM6 -228l91 516h72l-91 -516h-72z"/>
<glyph glyph-name="cent" d="M254 50l65 372q-77 -10 -125.5 -75.5t-48.5 -151.5q0 -56 28.5 -95.5t80.5 -49.5zM242 -8q-78 13 -123 65.5t-45 131.5q0 115 70 197.5t184 92.5l11 61h48l-11 -61q105 -9 144 -78l-59 -39q-11 24 -36.5 41t-57.5 20l-67 -378q80 1 134 61l43 -37q-79 -81 -187 -81 l-11 -60h-48z" unicode="¢"/>
<glyph glyph-name="sterling" d="M417 395l-11 -58h-168l-48 -278h263l-11 -59h-436l11 59h102l48 278h-96l11 58h94l16 93q45 238 229 238q92 0 144 -55l-43 -51q-37 46 -103 46q-34 0 -61 -13.5t-42.5 -32t-27.5 -47t-16.5 -47t-9.5 -44.5l-15 -87h170z" unicode="£"/>
<glyph glyph-name="currency" horiz-adv-x="860" unicode="¤" d="M431 496q-81 0 -131.5 -54t-50.5 -133q0 -80 50.5 -134.5t131.5 -54.5t131.5 54.5t50.5 134.5q0 79 -50.5 133t-131.5 54zM636 468q51 -67 51 -159q0 -96 -55 -164l94 -93l-43 -44q-11 11 -30 30.5t-35 35t-30 29.5q-67 -51 -157 -51t-158 53l-97 -97q-28 30 -43 44 l96 96q-53 64 -53 161q0 91 50 157l-93 92l44 43l92 -92q70 55 162 55q93 0 160 -54q14 13 29 28.5t33.5 34l28.5 28.5l44 -43z"/>
<glyph glyph-name="yen" d="M76 223h165l20 107h-165l8 52h153l-159 326h77l134 -300l236 300h86l-272 -326h143l-8 -52h-167l-20 -107h167l-8 -52h-167l-31 -171h-66l31 171h-165z" unicode="¥"/>
<glyph glyph-name="brokenbar" horiz-adv-x="222" unicode="¦" d="M81 175h60v-350h-60v350zM81 675h60v-350h-60v350z"/>
<glyph glyph-name="section" d="M201 441q-54 33 -54 100q0 76 52.5 127.5t149.5 51.5q58 0 101.5 -21t62.5 -55l-57 -41q-34 56 -108 56q-65 0 -97 -31t-32 -77q0 -38 22 -60t78 -45q80 -33 114.5 -67.5t34.5 -85.5q0 -111 -113 -155q44 -41 44 -97q0 -79 -57.5 -129t-148.5 -50q-59 0 -108.5 29 t-72.5 73l59 42q17 -40 52 -61.5t71 -21.5q59 0 96 29t37 82q0 36 -21.5 58.5t-78.5 44.5q-81 30 -115.5 65t-34.5 89q0 53 31 93t93 57zM317 378l-60 26q-38 -4 -72.5 -31t-34.5 -72q0 -37 21 -58t70 -41l61 -25q37 7 65.5 35.5t28.5 68.5q0 63 -79 97z" unicode="§"/>
<glyph glyph-name="dieresis" horiz-adv-x="240" unicode="¨" d="M326 649q0 -20 -14.5 -35t-34.5 -15t-33.5 13t-13.5 34t14.5 36t34.5 15t33.5 -13.5t13.5 -34.5zM128 649q0 -20 -14.5 -35t-33.5 -15q-20 0 -34 13t-14 34t15 36t35 15t33 -13.5t13 -34.5z"/>
<glyph glyph-name="copyright" horiz-adv-x="800" unicode="©" d="M80 353q0 -132 94 -225.5t227 -93.5q132 0 225.5 93.5t93.5 225.5q0 133 -93.5 227t-225.5 94q-133 0 -227 -94t-94 -227zM20 353q0 157 111.5 267t269.5 110q157 0 268 -110t111 -267q0 -156 -111 -265.5t-268 -109.5q-158 0 -269.5 109.5t-111.5 265.5zM528 258l52 -34 q-26 -40 -70 -65.5t-100 -25.5q-98 0 -162 64t-64 162q0 97 64 161t162 64q49 0 93.5 -21.5t68.5 -57.5l-52 -40q-15 24 -45 41.5t-63 17.5q-71 0 -115 -48.5t-44 -116.5q0 -69 43 -117.5t114 -48.5q73 0 118 65z"/>
<glyph glyph-name="ordfeminine" horiz-adv-x="350" unicode="ª" d="M286 569h-10q-145 0 -145 -62q0 -40 54 -40q38 0 64 23t33 59zM292 607q2 14 2 22q0 49 -61 49q-45 0 -85 -34l-22 35q20 18 53.5 30t62.5 12q44 0 73.5 -20.5t29.5 -61.5q0 -14 -2 -30l-21 -114q-6 -44 -6 -63h-43q0 16 4 46h-1q-39 -53 -105 -53q-36 0 -65.5 18.5 t-29.5 58.5q0 34 18.5 56t53 32t67 13.5t77.5 3.5z"/>
<glyph glyph-name="guillemotleft" horiz-adv-x="496" unicode="«" d="M298 235l85 -171l-50 -33l-106 209l177 209l41 -37zM117 235l85 -171l-50 -33l-106 209l177 209l41 -37z"/>
<glyph glyph-name="logicalnot" horiz-adv-x="666" unicode="¬" d="M588 408v-278h-60v218h-450v60h510z"/>
<glyph glyph-name="uni00AD" horiz-adv-x="320" unicode="­" d="M266 271l-10 -57h-224l10 57h224z"/>
<glyph glyph-name="registered" horiz-adv-x="600" unicode="®" d="M297 510h37q56 0 56 38q0 35 -51 35h-42v-73zM251 366v256h90q40 0 67.5 -18.5t27.5 -56.5q0 -56 -59 -69l69 -112h-56l-60 107h-33v-107h-46zM148 493q0 -79 56.5 -135.5t135.5 -56.5t135.5 56.5t56.5 135.5t-56 135.5t-136 56.5t-136 -56.5t-56 -135.5zM112 493 q0 94 66.5 160.5t161.5 66.5t161.5 -66.5t66.5 -160.5t-66.5 -159.5t-161.5 -65.5t-161.5 65.5t-66.5 159.5z"/>
<glyph glyph-name="macron" horiz-adv-x="240" unicode="¯" d="M316 654l-9 -54h-270l9 54h270z"/>
<glyph glyph-name="degree" horiz-adv-x="400" unicode="°" d="M351 571q0 42 -29.5 71.5t-71.5 29.5t-71.5 -29.5t-29.5 -71.5t29.5 -71.5t71.5 -29.5t71.5 29.5t29.5 71.5zM399 571q0 -65 -42.5 -107t-106.5 -42t-106.5 42t-42.5 107t42.5 107t106.5 42t106.5 -42t42.5 -107z"/>
<glyph glyph-name="plusminus" horiz-adv-x="666" unicode="±" d="M78 48v60h510v-60h-510zM78 347v60h225v156h60v-156h225v-60h-225v-151h-60v151h-225z"/>
<glyph glyph-name="twosuperior" horiz-adv-x="370" unicode="²" d="M357 452h-281l10 60l187 158q65 54 65 100q0 27 -17.5 42.5t-49.5 15.5q-58 0 -80 -69l-56 15q16 49 54 78t86 29q58 0 90.5 -30t32.5 -78q0 -43 -22 -73.5t-75 -73.5l-145 -120h212z"/>
<glyph glyph-name="threesuperior" horiz-adv-x="370" unicode="³" d="M223 696q103 0 103 76q0 26 -17 41t-45 15q-51 0 -79 -50l-46 29q43 74 132 74q51 0 83 -28.5t32 -77.5q0 -43 -25 -69.5t-62 -35.5q30 -7 49 -32t19 -56q0 -64 -41.5 -100.5t-107.5 -36.5q-51 0 -86.5 24t-49.5 68l60 18q15 -56 77 -56q41 0 64.5 21t23.5 56 q0 70 -95 70h-19l9 50h21z"/>
<glyph glyph-name="acute" horiz-adv-x="240" unicode="´" d="M318 708l-158 -144h-56l126 144h88z"/>
<glyph glyph-name="mu" horiz-adv-x="595" unicode="µ" d="M125 468h67l-47 -265q-5 -27 -5 -53q0 -105 103 -105q65 0 111.5 50.5t59.5 124.5l44 248h67l-56 -319q-10 -57 -10 -72q0 -14 6.5 -20t22.5 -6q17 0 28 4l-7 -53q-24 -8 -46 -8q-68 0 -68 64q0 11 4 29h-2q-74 -99 -172 -99q-41 0 -68.5 16t-37.5 40h-2l-49 -284h-68z "/>
<glyph glyph-name="paragraph" horiz-adv-x="600" unicode="¶" d="M584 708l-147 -834h-66l137 780h-124l-137 -780h-66l78 442q-81 0 -130 43.5t-49 110.5q0 101 75 169.5t192 68.5h237z"/>
<glyph glyph-name="periodcentered" horiz-adv-x="260" unicode="·" d="M184 315q0 -22 -16 -38.5t-38 -16.5t-37.5 14.5t-15.5 37.5q0 24 16.5 40t38.5 16t37 -14.5t15 -38.5z"/>
<glyph glyph-name="cedilla" horiz-adv-x="240" unicode="¸" d="M102 0l-60 -75q13 4 31 4q29 0 51.5 -16.5t22.5 -50.5q0 -46 -37 -69t-83 -23q-57 0 -97 20l19 36q29 -14 74 -14q26 0 46 11t20 34q0 38 -50 38q-22 0 -44 -8l-15 15l79 98h43z"/>
<glyph glyph-name="onesuperior" horiz-adv-x="370" unicode="¹" d="M243 452h-60l61 346l-75 -57l-30 41l128 92h51z"/>
<glyph glyph-name="ordmasculine" horiz-adv-x="350" unicode="º" d="M316 594q0 35 -22.5 58.5t-59.5 23.5q-48 0 -80 -37t-32 -88q0 -36 22 -59t59 -23q49 0 81 37t32 88zM199 424q-59 0 -96 34t-37 88q0 72 49 123t122 51q59 0 96.5 -33.5t37.5 -87.5q0 -73 -48.5 -124t-123.5 -51z"/>
<glyph glyph-name="guillemotright" horiz-adv-x="496" unicode="»" d="M177 245l-85 171l50 33l106 -209l-177 -209l-41 37zM358 245l-85 171l50 33l106 -209l-177 -209l-41 37z"/>
<glyph glyph-name="onequarter" horiz-adv-x="840" unicode="¼" d="M641 151l33 189h-3l-156 -189h126zM752 98h-65l-17 -98h-55l17 98h-189l9 52l223 272h68l-47 -271h66zM228 286h-60l61 346l-75 -57l-30 41l128 92h51zM736 712l-581 -743l-45 27l582 743z"/>
<glyph glyph-name="onehalf" horiz-adv-x="840" unicode="½" d="M742 0h-281l10 60l187 158q65 54 65 100q0 27 -17.5 42.5t-49.5 15.5q-58 0 -80 -69l-56 15q16 49 54 78t86 29q58 0 90.5 -30t32.5 -78q0 -43 -22 -73.5t-75 -73.5l-145 -120h212zM228 286h-60l61 346l-75 -57l-30 41l128 92h51zM736 712l-581 -743l-45 27l582 743z"/>
<glyph glyph-name="threequarters" horiz-adv-x="840" unicode="¾" d="M195 535q103 0 103 76q0 26 -17 41t-45 15q-51 0 -79 -50l-46 29q43 74 132 74q51 0 83 -28.5t32 -77.5q0 -43 -25 -69.5t-62 -35.5q30 -7 49 -32t19 -56q0 -64 -41.5 -100.5t-107.5 -36.5q-51 0 -86.5 24t-49.5 68l60 18q15 -56 77 -56q41 0 64.5 21t23.5 56 q0 70 -95 70h-19l9 50h21zM641 151l33 189h-3l-156 -189h126zM752 98h-65l-17 -98h-55l17 98h-189l9 52l223 272h68l-47 -271h66zM736 712l-581 -743l-45 27l582 743z"/>
<glyph glyph-name="questiondown" horiz-adv-x="482" unicode="¿" d="M195 431q0 22 16 38.5t38 16.5t37.5 -14.5t15.5 -37.5q0 -24 -16.5 -40t-38.5 -16t-37 14.5t-15 38.5zM197 248l6 40h68l-10 -60q-9 -51 -35 -84.5t-70 -67.5l-33 -25q-42 -32 -60.5 -59.5t-18.5 -70.5q0 -45 29 -72t75 -27q57 0 96 33t51 84l65 -12q-19 -77 -77.5 -122 t-136.5 -45q-77 0 -125.5 40.5t-48.5 118.5q0 56 31 98.5t89 83.5q52 37 74.5 66.5t30.5 80.5z"/>
<glyph glyph-name="Agrave" horiz-adv-x="695" unicode="À" d="M418 764l-132 144h88l100 -144h-56zM424 628l-236 -376h310zM147 186l-116 -186h-82l456 708h70l147 -708h-75l-38 186h-362z"/>
<glyph glyph-name="Aacute" horiz-adv-x="695" unicode="Á" d="M618 908l-158 -144h-56l126 144h88zM424 628l-236 -376h310zM147 186l-116 -186h-82l456 708h70l147 -708h-75l-38 186h-362z"/>
<glyph glyph-name="Acircumflex" horiz-adv-x="695" unicode="Â" d="M512 908l83 -144h-63l-64 108l-102 -108h-69l135 144h80zM424 628l-236 -376h310zM147 186l-116 -186h-82l456 708h70l147 -708h-75l-38 186h-362z"/>
<glyph glyph-name="Atilde" horiz-adv-x="695" unicode="Ã" d="M333 776h-43q36 104 110 104q27 0 69 -23q46 -23 63 -23q36 0 58 50h43q-38 -104 -111 -104q-23 0 -69 23q-40 23 -63 23q-37 0 -57 -50zM424 628l-236 -376h310zM147 186l-116 -186h-82l456 708h70l147 -708h-75l-38 186h-362z"/>
<glyph glyph-name="Adieresis" horiz-adv-x="695" unicode="Ä" d="M608 849q0 -20 -14.5 -35t-34.5 -15t-33.5 13t-13.5 34t14.5 36t34.5 15t33.5 -13.5t13.5 -34.5zM410 849q0 -20 -14.5 -35t-33.5 -15q-20 0 -34 13t-14 34t15 36t35 15t33 -13.5t13 -34.5zM424 628l-236 -376h310zM147 186l-116 -186h-82l456 708h70l147 -708h-75 l-38 186h-362z"/>
<glyph glyph-name="Aring" horiz-adv-x="695" unicode="Å" d="M525 865q0 22 -14.5 37t-38.5 15q-30 0 -50.5 -24t-20.5 -57q0 -23 14 -37.5t38 -14.5q31 0 51.5 23.5t20.5 57.5zM451 754q-37 0 -61 22t-24 57q0 47 31 80t77 33q38 0 61.5 -22t23.5 -57q0 -47 -30.5 -80t-77.5 -33zM424 628l-236 -376h310zM147 186l-116 -186h-82 l456 708h70l147 -708h-75l-38 186h-362z"/>
<glyph glyph-name="AE" horiz-adv-x="990" unicode="Æ" d="M256 261h255l68 384h-8zM889 0h-424l35 200h-291l-163 -200h-89l586 708h445l-11 -63h-328l-43 -246h312l-11 -61h-312l-49 -275h354z"/>
<glyph glyph-name="Ccedilla" horiz-adv-x="720" unicode="Ç" d="M606 150l53 -38q-97 -122 -265 -129l-46 -58q13 4 31 4q29 0 51.5 -16.5t22.5 -50.5q0 -46 -37 -69t-83 -23q-57 0 -97 20l19 36q29 -14 74 -14q26 0 46 11t20 34q0 38 -50 38q-22 0 -44 -8l-15 15l65 81q-132 8 -212.5 91t-80.5 212q0 184 123.5 312t299.5 128 q78 0 143 -30.5t95 -82.5l-65 -43q-18 39 -64 66.5t-111 27.5q-98 0 -178.5 -53.5t-123.5 -138t-43 -179.5q0 -108 65.5 -178.5t180.5 -70.5q137 0 226 106z"/>
<glyph glyph-name="Egrave" d="M390 764l-132 144h88l100 -144h-56zM171 338l-49 -275h380l-11 -63h-451l125 708h425l-11 -63h-354l-43 -246h338l-11 -61h-338z" unicode="È"/>
<glyph glyph-name="Eacute" d="M559 908l-158 -144h-56l126 144h88zM171 338l-49 -275h380l-11 -63h-451l125 708h425l-11 -63h-354l-43 -246h338l-11 -61h-338z" unicode="É"/>
<glyph glyph-name="Ecircumflex" d="M452 908l83 -144h-63l-64 108l-102 -108h-69l135 144h80zM171 338l-49 -275h380l-11 -63h-451l125 708h425l-11 -63h-354l-43 -246h338l-11 -61h-338z" unicode="Ê"/>
<glyph glyph-name="Edieresis" d="M546 849q0 -20 -14.5 -35t-34.5 -15t-33.5 13t-13.5 34t14.5 36t34.5 15t33.5 -13.5t13.5 -34.5zM348 849q0 -20 -14.5 -35t-33.5 -15q-20 0 -34 13t-14 34t15 36t35 15t33 -13.5t13 -34.5zM171 338l-49 -275h380l-11 -63h-451l125 708h425l-11 -63h-354l-43 -246h338 l-11 -61h-338z" unicode="Ë"/>
<glyph glyph-name="Igrave" horiz-adv-x="260" unicode="Ì" d="M182 764l-132 144h88l100 -144h-56zM236 708l-125 -708h-71l125 708h71z"/>
<glyph glyph-name="Iacute" horiz-adv-x="260" unicode="Í" d="M387 908l-158 -144h-56l126 144h88zM236 708l-125 -708h-71l125 708h71z"/>
<glyph glyph-name="Icircumflex" horiz-adv-x="260" unicode="Î" d="M274 908l83 -144h-63l-64 108l-102 -108h-69l135 144h80zM236 708l-125 -708h-71l125 708h71z"/>
<glyph glyph-name="Idieresis" horiz-adv-x="260" unicode="Ï" d="M367 849q0 -20 -14.5 -35t-34.5 -15t-33.5 13t-13.5 34t14.5 36t34.5 15t33.5 -13.5t13.5 -34.5zM169 849q0 -20 -14.5 -35t-33.5 -15q-20 0 -34 13t-14 34t15 36t35 15t33 -13.5t13 -34.5zM236 708l-125 -708h-71l125 708h71z"/>
<glyph glyph-name="Eth" horiz-adv-x="757" unicode="Ð" d="M182 401h251l-10 -54h-251l-50 -284h160q110 0 192 50t120.5 126t38.5 165q0 106 -68 173.5t-202 67.5h-138zM101 347h-70l10 54h70l54 307h214q62 0 119 -17t105 -51t77 -93t29 -135q0 -185 -122 -298.5t-310 -113.5h-237z"/>
<glyph glyph-name="Ntilde" horiz-adv-x="750" unicode="Ñ" d="M334 776h-43q36 104 110 104q27 0 69 -23q46 -23 63 -23q36 0 58 50h43q-38 -104 -111 -104q-23 0 -69 23q-40 23 -63 23q-37 0 -57 -50zM255 708l291 -607h2l107 607h71l-125 -708h-89l-290 615h-2l-108 -615h-71l125 708h89z"/>
<glyph glyph-name="Ograve" horiz-adv-x="834" unicode="Ò" d="M483 764l-132 144h88l100 -144h-56zM710 417q0 107 -64.5 177t-177.5 70q-97 0 -175 -54t-118.5 -138.5t-40.5 -179.5q0 -107 64 -177.5t178 -70.5q144 0 239 111.5t95 261.5zM373 -18q-139 0 -227 84t-88 220q0 184 119.5 312t293.5 128q139 0 227 -83.5t88 -218.5 q0 -184 -118 -313t-295 -129z"/>
<glyph glyph-name="Oacute" horiz-adv-x="834" unicode="Ó" d="M654 908l-158 -144h-56l126 144h88zM710 417q0 107 -64.5 177t-177.5 70q-97 0 -175 -54t-118.5 -138.5t-40.5 -179.5q0 -107 64 -177.5t178 -70.5q144 0 239 111.5t95 261.5zM373 -18q-139 0 -227 84t-88 220q0 184 119.5 312t293.5 128q139 0 227 -83.5t88 -218.5 q0 -184 -118 -313t-295 -129z"/>
<glyph glyph-name="Ocircumflex" horiz-adv-x="834" unicode="Ô" d="M561 908l83 -144h-63l-64 108l-102 -108h-69l135 144h80zM710 417q0 107 -64.5 177t-177.5 70q-97 0 -175 -54t-118.5 -138.5t-40.5 -179.5q0 -107 64 -177.5t178 -70.5q144 0 239 111.5t95 261.5zM373 -18q-139 0 -227 84t-88 220q0 184 119.5 312t293.5 128 q139 0 227 -83.5t88 -218.5q0 -184 -118 -313t-295 -129z"/>
<glyph glyph-name="Otilde" horiz-adv-x="834" unicode="Õ" d="M375 776h-43q36 104 110 104q27 0 69 -23q46 -23 63 -23q36 0 58 50h43q-38 -104 -111 -104q-23 0 -69 23q-40 23 -63 23q-37 0 -57 -50zM710 417q0 107 -64.5 177t-177.5 70q-97 0 -175 -54t-118.5 -138.5t-40.5 -179.5q0 -107 64 -177.5t178 -70.5q144 0 239 111.5 t95 261.5zM373 -18q-139 0 -227 84t-88 220q0 184 119.5 312t293.5 128q139 0 227 -83.5t88 -218.5q0 -184 -118 -313t-295 -129z"/>
<glyph glyph-name="Odieresis" horiz-adv-x="834" unicode="Ö" d="M653 849q0 -20 -14.5 -35t-34.5 -15t-33.5 13t-13.5 34t14.5 36t34.5 15t33.5 -13.5t13.5 -34.5zM455 849q0 -20 -14.5 -35t-33.5 -15q-20 0 -34 13t-14 34t15 36t35 15t33 -13.5t13 -34.5zM710 417q0 107 -64.5 177t-177.5 70q-97 0 -175 -54t-118.5 -138.5 t-40.5 -179.5q0 -107 64 -177.5t178 -70.5q144 0 239 111.5t95 261.5zM373 -18q-139 0 -227 84t-88 220q0 184 119.5 312t293.5 128q139 0 227 -83.5t88 -218.5q0 -184 -118 -313t-295 -129z"/>
<glyph glyph-name="multiply" horiz-adv-x="666" unicode="×" d="M174 505l159 -159l158 159l43 -42l-159 -160l159 -159l-43 -43l-158 159l-159 -159l-42 43l159 159l-159 160z"/>
<glyph glyph-name="Oslash" horiz-adv-x="834" unicode="Ø" d="M652 595q-66 69 -177 69q-146 0 -243.5 -112.5t-97.5 -259.5q0 -81 38 -143zM680 558l-482 -443q65 -71 178 -71q96 0 175 53t122.5 138.5t43.5 181.5q0 80 -37 141zM735 608q58 -77 58 -184q0 -184 -121.5 -313t-298.5 -129q-141 0 -228 85l-90 -85l-30 34l91 84 q-58 78 -58 186q0 183 122.5 311.5t297.5 128.5q138 0 227 -84l90 84l30 -34z"/>
<glyph glyph-name="Ugrave" horiz-adv-x="710" unicode="Ù" d="M424 764l-132 144h88l100 -144h-56zM311 -18q-119 0 -176.5 63t-57.5 152q0 36 6 67l78 444h71l-77 -436q-6 -32 -6 -61q0 -74 39.5 -120.5t126.5 -46.5q187 0 227 228l77 436h71l-78 -444q-7 -39 -19 -75t-35.5 -75t-55.5 -67t-81.5 -46.5t-109.5 -18.5z"/>
<glyph glyph-name="Uacute" horiz-adv-x="710" unicode="Ú" d="M596 908l-158 -144h-56l126 144h88zM311 -18q-119 0 -176.5 63t-57.5 152q0 36 6 67l78 444h71l-77 -436q-6 -32 -6 -61q0 -74 39.5 -120.5t126.5 -46.5q187 0 227 228l77 436h71l-78 -444q-7 -39 -19 -75t-35.5 -75t-55.5 -67t-81.5 -46.5t-109.5 -18.5z"/>
<glyph glyph-name="Ucircumflex" horiz-adv-x="710" unicode="Û" d="M500 908l83 -144h-63l-64 108l-102 -108h-69l135 144h80zM311 -18q-119 0 -176.5 63t-57.5 152q0 36 6 67l78 444h71l-77 -436q-6 -32 -6 -61q0 -74 39.5 -120.5t126.5 -46.5q187 0 227 228l77 436h71l-78 -444q-7 -39 -19 -75t-35.5 -75t-55.5 -67t-81.5 -46.5 t-109.5 -18.5z"/>
<glyph glyph-name="Udieresis" horiz-adv-x="710" unicode="Ü" d="M593 849q0 -20 -14.5 -35t-34.5 -15t-33.5 13t-13.5 34t14.5 36t34.5 15t33.5 -13.5t13.5 -34.5zM395 849q0 -20 -14.5 -35t-33.5 -15q-20 0 -34 13t-14 34t15 36t35 15t33 -13.5t13 -34.5zM311 -18q-119 0 -176.5 63t-57.5 152q0 36 6 67l78 444h71l-77 -436 q-6 -32 -6 -61q0 -74 39.5 -120.5t126.5 -46.5q187 0 227 228l77 436h71l-78 -444q-7 -39 -19 -75t-35.5 -75t-55.5 -67t-81.5 -46.5t-109.5 -18.5z"/>
<glyph glyph-name="Yacute" horiz-adv-x="557" unicode="Ý" d="M527 908l-158 -144h-56l126 144h88zM301 305l-54 -305h-71l54 305l-180 403h84l141 -344l283 344h89z"/>
<glyph glyph-name="Thorn" d="M199 492l-46 -259h130q90 0 140.5 36.5t50.5 105.5q0 117 -152 117h-123zM143 174l-31 -174h-71l125 708h71l-27 -155h118q103 0 160.5 -45t57.5 -125q0 -101 -73.5 -155t-195.5 -54h-134z" unicode="Þ"/>
<glyph glyph-name="germandbls" horiz-adv-x="593" unicode="ß" d="M192 542l-96 -542h-66l96 544q7 43 22.5 79.5t41.5 70.5t69 54t98 20q83 0 132.5 -45t49.5 -117q0 -65 -40 -111t-107 -63v-2q63 -13 100.5 -62t37.5 -117q0 -121 -77 -192t-200 -71q-37 0 -62 5l10 57q24 -4 51 -4q39 0 74.5 10.5t66 33t48.5 63t18 95.5q0 67 -45 109 t-121 42h-9l11 60h8q70 0 118 37.5t48 102.5q0 53 -31 81t-83 28q-40 0 -71 -15.5t-49 -42t-28 -52.5t-15 -56z"/>
<glyph glyph-name="agrave" horiz-adv-x="534" unicode="à" d="M301 564l-132 144h88l100 -144h-56zM374 236h-16q-265 0 -265 -116q0 -75 96 -75q70 0 118 43.5t60 108.5zM383 287q5 29 5 44q0 93 -110 93q-81 0 -146 -56l-30 45q34 30 84 48.5t99 18.5q72 0 119 -34t47 -101q0 -24 -4 -50l-34 -190q-11 -66 -11 -105h-60q0 38 6 76 h-2q-40 -46 -81 -65.5t-100 -19.5q-56 0 -99 29.5t-43 91.5q0 43 21.5 75.5t55 51t83 30t96.5 15t104 3.5z"/>
<glyph glyph-name="aacute" horiz-adv-x="534" unicode="á" d="M472 708l-158 -144h-56l126 144h88zM374 236h-16q-265 0 -265 -116q0 -75 96 -75q70 0 118 43.5t60 108.5zM383 287q5 29 5 44q0 93 -110 93q-81 0 -146 -56l-30 45q34 30 84 48.5t99 18.5q72 0 119 -34t47 -101q0 -24 -4 -50l-34 -190q-11 -66 -11 -105h-60q0 38 6 76 h-2q-40 -46 -81 -65.5t-100 -19.5q-56 0 -99 29.5t-43 91.5q0 43 21.5 75.5t55 51t83 30t96.5 15t104 3.5z"/>
<glyph glyph-name="acircumflex" horiz-adv-x="534" unicode="â" d="M379 708l83 -144h-63l-64 108l-102 -108h-69l135 144h80zM374 236h-16q-265 0 -265 -116q0 -75 96 -75q70 0 118 43.5t60 108.5zM383 287q5 29 5 44q0 93 -110 93q-81 0 -146 -56l-30 45q34 30 84 48.5t99 18.5q72 0 119 -34t47 -101q0 -24 -4 -50l-34 -190 q-11 -66 -11 -105h-60q0 38 6 76h-2q-40 -46 -81 -65.5t-100 -19.5q-56 0 -99 29.5t-43 91.5q0 43 21.5 75.5t55 51t83 30t96.5 15t104 3.5z"/>
<glyph glyph-name="atilde" horiz-adv-x="534" unicode="ã" d="M193 576h-43q36 104 110 104q27 0 69 -23q46 -23 63 -23q36 0 58 50h43q-38 -104 -111 -104q-23 0 -69 23q-40 23 -63 23q-37 0 -57 -50zM374 236h-16q-265 0 -265 -116q0 -75 96 -75q70 0 118 43.5t60 108.5zM383 287q5 29 5 44q0 93 -110 93q-81 0 -146 -56l-30 45 q34 30 84 48.5t99 18.5q72 0 119 -34t47 -101q0 -24 -4 -50l-34 -190q-11 -66 -11 -105h-60q0 38 6 76h-2q-40 -46 -81 -65.5t-100 -19.5q-56 0 -99 29.5t-43 91.5q0 43 21.5 75.5t55 51t83 30t96.5 15t104 3.5z"/>
<glyph glyph-name="adieresis" horiz-adv-x="534" unicode="ä" d="M471 649q0 -20 -14.5 -35t-34.5 -15t-33.5 13t-13.5 34t14.5 36t34.5 15t33.5 -13.5t13.5 -34.5zM273 649q0 -20 -14.5 -35t-33.5 -15q-20 0 -34 13t-14 34t15 36t35 15t33 -13.5t13 -34.5zM374 236h-16q-265 0 -265 -116q0 -75 96 -75q70 0 118 43.5t60 108.5zM383 287 q5 29 5 44q0 93 -110 93q-81 0 -146 -56l-30 45q34 30 84 48.5t99 18.5q72 0 119 -34t47 -101q0 -24 -4 -50l-34 -190q-11 -66 -11 -105h-60q0 38 6 76h-2q-40 -46 -81 -65.5t-100 -19.5q-56 0 -99 29.5t-43 91.5q0 43 21.5 75.5t55 51t83 30t96.5 15t104 3.5z"/>
<glyph glyph-name="aring" horiz-adv-x="534" unicode="å" d="M388 665q0 22 -14.5 37t-38.5 15q-30 0 -50.5 -24t-20.5 -57q0 -23 14 -37.5t38 -14.5q31 0 51.5 23.5t20.5 57.5zM314 554q-37 0 -61 22t-24 57q0 47 31 80t77 33q38 0 61.5 -22t23.5 -57q0 -47 -30.5 -80t-77.5 -33zM374 236h-16q-265 0 -265 -116q0 -75 96 -75 q70 0 118 43.5t60 108.5zM383 287q5 29 5 44q0 93 -110 93q-81 0 -146 -56l-30 45q34 30 84 48.5t99 18.5q72 0 119 -34t47 -101q0 -24 -4 -50l-34 -190q-11 -66 -11 -105h-60q0 38 6 76h-2q-40 -46 -81 -65.5t-100 -19.5q-56 0 -99 29.5t-43 91.5q0 43 21.5 75.5t55 51 t83 30t96.5 15t104 3.5z"/>
<glyph glyph-name="ae" horiz-adv-x="884" unicode="æ" d="M441 266h308q2 20 2 35q0 56 -34 89.5t-96 33.5q-67 0 -115.5 -45.5t-64.5 -112.5zM370 216h-16q-261 0 -261 -96q0 -75 96 -75q71 0 119 42.5t59 109.5zM442 389q27 39 78.5 65t102.5 26q93 0 144 -50t51 -133q0 -46 -9 -81h-377q-2 -16 -2 -22q0 -66 39 -107.5 t102 -41.5q101 0 162 82l42 -40q-82 -99 -210 -99q-61 0 -109.5 33.5t-66.5 84.5q-64 -115 -209 -115q-65 0 -111 29t-46 92q0 34 14 59.5t40.5 42t58 27.5t75 16t81 7t86.5 2q10 46 10 65q0 93 -110 93q-81 0 -146 -56l-30 45q34 30 84 48.5t99 18.5q57 0 99 -22.5 t58 -68.5z"/>
<glyph glyph-name="ccedilla" horiz-adv-x="500" unicode="ç" d="M485 401l-59 -39q-12 28 -41.5 45t-67.5 17q-89 0 -148 -67t-59 -162q0 -66 40.5 -108t110.5 -42q82 0 138 61l43 -37q-75 -77 -176 -81l-50 -63q13 4 31 4q29 0 51.5 -16.5t22.5 -50.5q0 -46 -37 -69t-83 -23q-57 0 -97 20l19 36q29 -14 74 -14q26 0 46 11t20 34 q0 38 -50 38q-22 0 -44 -8l-15 15l70 88q-85 8 -135 62t-50 137q0 123 78 207t202 84q54 0 99 -20t67 -59z"/>
<glyph glyph-name="egrave" horiz-adv-x="566" unicode="è" d="M305 564l-132 144h88l100 -144h-56zM113 266h318q2 20 2 35q0 56 -34 89.5t-96 33.5q-71 0 -122.5 -45.5t-67.5 -112.5zM491 216h-387q-2 -16 -2 -22q0 -65 43.5 -107t107.5 -42q101 0 162 82l42 -40q-82 -99 -210 -99q-93 0 -153 55t-60 151q0 115 79 200.5t192 85.5 q93 0 144 -50t51 -133q0 -46 -9 -81z"/>
<glyph glyph-name="eacute" horiz-adv-x="566" unicode="é" d="M482 708l-158 -144h-56l126 144h88zM113 266h318q2 20 2 35q0 56 -34 89.5t-96 33.5q-71 0 -122.5 -45.5t-67.5 -112.5zM491 216h-387q-2 -16 -2 -22q0 -65 43.5 -107t107.5 -42q101 0 162 82l42 -40q-82 -99 -210 -99q-93 0 -153 55t-60 151q0 115 79 200.5t192 85.5 q93 0 144 -50t51 -133q0 -46 -9 -81z"/>
<glyph glyph-name="ecircumflex" horiz-adv-x="566" unicode="ê" d="M400 708l83 -144h-63l-64 108l-102 -108h-69l135 144h80zM113 266h318q2 20 2 35q0 56 -34 89.5t-96 33.5q-71 0 -122.5 -45.5t-67.5 -112.5zM491 216h-387q-2 -16 -2 -22q0 -65 43.5 -107t107.5 -42q101 0 162 82l42 -40q-82 -99 -210 -99q-93 0 -153 55t-60 151 q0 115 79 200.5t192 85.5q93 0 144 -50t51 -133q0 -46 -9 -81z"/>
<glyph glyph-name="edieresis" horiz-adv-x="566" unicode="ë" d="M490 649q0 -20 -14.5 -35t-34.5 -15t-33.5 13t-13.5 34t14.5 36t34.5 15t33.5 -13.5t13.5 -34.5zM292 649q0 -20 -14.5 -35t-33.5 -15q-20 0 -34 13t-14 34t15 36t35 15t33 -13.5t13 -34.5zM113 266h318q2 20 2 35q0 56 -34 89.5t-96 33.5q-71 0 -122.5 -45.5 t-67.5 -112.5zM491 216h-387q-2 -16 -2 -22q0 -65 43.5 -107t107.5 -42q101 0 162 82l42 -40q-82 -99 -210 -99q-93 0 -153 55t-60 151q0 115 79 200.5t192 85.5q93 0 144 -50t51 -133q0 -46 -9 -81z"/>
<glyph glyph-name="igrave" horiz-adv-x="250" unicode="ì" d="M151 564l-132 144h88l100 -144h-56zM187 468l-83 -468h-67l83 468h67z"/>
<glyph glyph-name="iacute" horiz-adv-x="250" unicode="í" d="M346 708l-158 -144h-56l126 144h88zM187 468l-83 -468h-67l83 468h67z"/>
<glyph glyph-name="icircumflex" horiz-adv-x="250" unicode="î" d="M236 708l83 -144h-63l-64 108l-102 -108h-69l135 144h80zM187 468l-83 -468h-67l83 468h67z"/>
<glyph glyph-name="idieresis" horiz-adv-x="250" unicode="ï" d="M327 649q0 -20 -14.5 -35t-34.5 -15t-33.5 13t-13.5 34t14.5 36t34.5 15t33.5 -13.5t13.5 -34.5zM129 649q0 -20 -14.5 -35t-33.5 -15q-20 0 -34 13t-14 34t15 36t35 15t33 -13.5t13 -34.5zM187 468l-83 -468h-67l83 468h67z"/>
<glyph glyph-name="eth" horiz-adv-x="596" unicode="ð" d="M467 274q0 65 -40.5 107.5t-109.5 42.5q-86 0 -144.5 -67.5t-58.5 -161.5q0 -66 40.5 -108t108.5 -42q88 0 146 67t58 162zM321 480q86 0 145 -58l3 2q-36 120 -121 206l-122 -57l-30 36l120 56q-21 24 -86 76l61 37q51 -43 86 -82l111 53l34 -35l-113 -54 q132 -145 132 -335q0 -63 -15 -120.5t-47 -107.5t-88.5 -79.5t-131.5 -29.5q-95 0 -155.5 56.5t-60.5 146.5q0 120 79 204.5t199 84.5z"/>
<glyph glyph-name="ntilde" horiz-adv-x="577" unicode="ñ" d="M211 576h-43q36 104 110 104q27 0 69 -23q46 -23 63 -23q36 0 58 50h43q-38 -104 -111 -104q-23 0 -69 23q-40 23 -63 23q-37 0 -57 -50zM115 468h65q-7 -63 -11 -80h2q27 43 70 67.5t90 24.5q75 0 118 -38.5t43 -104.5q0 -20 -5 -50l-51 -287h-67l46 259q6 32 6 59 q0 106 -104 106q-58 0 -107 -47.5t-65 -136.5l-42 -240h-67l64 365q10 50 15 103z"/>
<glyph glyph-name="ograve" horiz-adv-x="596" unicode="ò" d="M317 564l-132 144h88l100 -144h-56zM458 274q0 65 -40.5 107.5t-109.5 42.5q-86 0 -144.5 -67.5t-58.5 -161.5q0 -66 40.5 -108t108.5 -42q88 0 146 67t58 162zM250 -12q-95 0 -155.5 56.5t-60.5 146.5q0 120 79 204.5t199 84.5q95 0 155.5 -56t60.5 -146 q0 -122 -78.5 -206t-199.5 -84z"/>
<glyph glyph-name="oacute" horiz-adv-x="596" unicode="ó" d="M496 708l-158 -144h-56l126 144h88zM458 274q0 65 -40.5 107.5t-109.5 42.5q-86 0 -144.5 -67.5t-58.5 -161.5q0 -66 40.5 -108t108.5 -42q88 0 146 67t58 162zM250 -12q-95 0 -155.5 56.5t-60.5 146.5q0 120 79 204.5t199 84.5q95 0 155.5 -56t60.5 -146 q0 -122 -78.5 -206t-199.5 -84z"/>
<glyph glyph-name="ocircumflex" horiz-adv-x="596" unicode="ô" d="M410 708l83 -144h-63l-64 108l-102 -108h-69l135 144h80zM458 274q0 65 -40.5 107.5t-109.5 42.5q-86 0 -144.5 -67.5t-58.5 -161.5q0 -66 40.5 -108t108.5 -42q88 0 146 67t58 162zM250 -12q-95 0 -155.5 56.5t-60.5 146.5q0 120 79 204.5t199 84.5q95 0 155.5 -56 t60.5 -146q0 -122 -78.5 -206t-199.5 -84z"/>
<glyph glyph-name="otilde" horiz-adv-x="596" unicode="õ" d="M217 576h-43q36 104 110 104q27 0 69 -23q46 -23 63 -23q36 0 58 50h43q-38 -104 -111 -104q-23 0 -69 23q-40 23 -63 23q-37 0 -57 -50zM458 274q0 65 -40.5 107.5t-109.5 42.5q-86 0 -144.5 -67.5t-58.5 -161.5q0 -66 40.5 -108t108.5 -42q88 0 146 67t58 162zM250 -12 q-95 0 -155.5 56.5t-60.5 146.5q0 120 79 204.5t199 84.5q95 0 155.5 -56t60.5 -146q0 -122 -78.5 -206t-199.5 -84z"/>
<glyph glyph-name="odieresis" horiz-adv-x="596" unicode="ö" d="M495 649q0 -20 -14.5 -35t-34.5 -15t-33.5 13t-13.5 34t14.5 36t34.5 15t33.5 -13.5t13.5 -34.5zM297 649q0 -20 -14.5 -35t-33.5 -15q-20 0 -34 13t-14 34t15 36t35 15t33 -13.5t13 -34.5zM458 274q0 65 -40.5 107.5t-109.5 42.5q-86 0 -144.5 -67.5t-58.5 -161.5 q0 -66 40.5 -108t108.5 -42q88 0 146 67t58 162zM250 -12q-95 0 -155.5 56.5t-60.5 146.5q0 120 79 204.5t199 84.5q95 0 155.5 -56t60.5 -146q0 -122 -78.5 -206t-199.5 -84z"/>
<glyph glyph-name="divide" horiz-adv-x="666" unicode="÷" d="M387 141q0 -22 -15.5 -38t-38.5 -16t-38.5 16t-15.5 38t15.5 38t38.5 16t38.5 -16t15.5 -38zM387 465q0 -22 -15.5 -38t-38.5 -16t-38.5 16t-15.5 38t15.5 38t38.5 16t38.5 -16t15.5 -38zM588 333v-60h-510v60h510z"/>
<glyph glyph-name="oslash" horiz-adv-x="596" unicode="ø" d="M416 383q-41 41 -108 41q-86 0 -144.5 -67.5t-58.5 -161.5q0 -44 18 -77zM440 350l-294 -263q40 -42 108 -42q88 0 146 67t58 162q0 43 -18 76zM491 397q37 -49 37 -119q0 -122 -78.5 -206t-199.5 -84q-92 0 -151 53l-79 -69l-25 31l77 67q-38 51 -38 121q0 120 79 204.5 t199 84.5q94 0 153 -53l77 69l26 -31z"/>
<glyph glyph-name="ugrave" horiz-adv-x="577" unicode="ù" d="M292 564l-132 144h88l100 -144h-56zM429 0h-65q8 62 11 80h-2q-27 -43 -70 -67.5t-90 -24.5q-75 0 -118 38.5t-43 104.5q0 20 5 50l51 287h67l-46 -259q-6 -31 -6 -59q0 -105 104 -105q58 0 107 47t65 136l42 240h67l-64 -365q-10 -50 -15 -103z"/>
<glyph glyph-name="uacute" horiz-adv-x="577" unicode="ú" d="M489 708l-158 -144h-56l126 144h88zM429 0h-65q8 62 11 80h-2q-27 -43 -70 -67.5t-90 -24.5q-75 0 -118 38.5t-43 104.5q0 20 5 50l51 287h67l-46 -259q-6 -31 -6 -59q0 -105 104 -105q58 0 107 47t65 136l42 240h67l-64 -365q-10 -50 -15 -103z"/>
<glyph glyph-name="ucircumflex" horiz-adv-x="577" unicode="û" d="M395 708l83 -144h-63l-64 108l-102 -108h-69l135 144h80zM429 0h-65q8 62 11 80h-2q-27 -43 -70 -67.5t-90 -24.5q-75 0 -118 38.5t-43 104.5q0 20 5 50l51 287h67l-46 -259q-6 -31 -6 -59q0 -105 104 -105q58 0 107 47t65 136l42 240h67l-64 -365q-10 -50 -15 -103z"/>
<glyph glyph-name="udieresis" horiz-adv-x="577" unicode="ü" d="M484 649q0 -20 -14.5 -35t-34.5 -15t-33.5 13t-13.5 34t14.5 36t34.5 15t33.5 -13.5t13.5 -34.5zM286 649q0 -20 -14.5 -35t-33.5 -15q-20 0 -34 13t-14 34t15 36t35 15t33 -13.5t13 -34.5zM429 0h-65q8 62 11 80h-2q-27 -43 -70 -67.5t-90 -24.5q-75 0 -118 38.5 t-43 104.5q0 20 5 50l51 287h67l-46 -259q-6 -31 -6 -59q0 -105 104 -105q58 0 107 47t65 136l42 240h67l-64 -365q-10 -50 -15 -103z"/>
<glyph glyph-name="yacute" horiz-adv-x="483" unicode="ý" d="M453 708l-158 -144h-56l126 144h88zM114 468l75 -394h2l228 394h75l-354 -589q-37 -60 -72 -89.5t-83 -29.5q-29 0 -57 6l10 62q22 -8 44 -8q30 0 53.5 20.5t48.5 62.5l58 98l-98 467h70z"/>
<glyph glyph-name="thorn" horiz-adv-x="628" unicode="þ" d="M490 274q0 65 -39 107.5t-108 42.5q-87 0 -147.5 -67t-60.5 -161q0 -67 41.5 -109t109.5 -42q91 0 147.5 66t56.5 163zM177 392q24 37 71 62.5t101 25.5q95 0 153 -56t58 -146q0 -121 -79 -205.5t-196 -84.5q-52 0 -96.5 24t-66.5 67h-2l-57 -319h-67l175 996h67 l-63 -364h2z"/>
<glyph glyph-name="OE" horiz-adv-x="970" unicode="Œ" d="M467 63l103 582h-85q-110 0 -192 -50t-120.5 -126t-38.5 -165q0 -106 68 -173.5t202 -67.5h63zM881 0h-493q-62 0 -119 17t-105 51t-77 93t-29 135q0 185 122 298.5t310 113.5h490l-11 -63h-328l-43 -246h312l-11 -61h-312l-49 -275h354z"/>
<glyph glyph-name="oe" horiz-adv-x="982" unicode="œ" d="M529 266h318q2 20 2 35q0 56 -34 89.5t-96 33.5q-71 0 -122.5 -45.5t-67.5 -112.5zM458 274q0 65 -40.5 107.5t-109.5 42.5q-86 0 -144.5 -67.5t-58.5 -161.5q0 -66 40.5 -108t108.5 -42q88 0 146 67t58 162zM473 107q-78 -119 -223 -119q-95 0 -155.5 56.5t-60.5 146.5 q0 120 79 204.5t199 84.5q67 0 119 -33t75 -87q32 54 90.5 87t124.5 33q93 0 144 -50t51 -133q0 -46 -9 -81h-387q-2 -16 -2 -22q0 -65 43.5 -107t107.5 -42q101 0 162 82l42 -40q-82 -99 -210 -99q-139 0 -190 119z"/>
<glyph glyph-name="Scaron" horiz-adv-x="564" unicode="Š" d="M531 908l-135 -144h-80l-83 144h63l64 -108l102 108h69zM552 642l-61 -44q-45 66 -139 66q-69 0 -121.5 -37t-52.5 -105q0 -50 32.5 -78t96.5 -52q38 -15 64.5 -28t55.5 -35t44 -53t15 -69q0 -39 -13.5 -76t-41.5 -72t-80 -56t-121 -21q-67 0 -127 27.5t-90 77.5l64 41 q21 -37 62 -60.5t94 -23.5q75 0 126.5 41.5t51.5 108.5q0 55 -37.5 84.5t-110.5 56.5t-116 67.5t-43 110.5q0 93 67.5 153t184.5 60q69 0 120.5 -23t75.5 -61z"/>
<glyph glyph-name="scaron" horiz-adv-x="444" unicode="š" d="M442 708l-135 -144h-80l-83 144h63l64 -108l102 108h69zM407 403l-53 -38q-30 59 -109 59q-43 0 -77 -19t-34 -57q0 -34 21 -49t72 -30q72 -20 106.5 -52t34.5 -85q0 -71 -55.5 -107.5t-125.5 -36.5q-61 0 -112 22.5t-79 66.5l58 38q17 -30 52.5 -50t77.5 -20 q48 0 82.5 20t34.5 60q0 35 -26.5 54.5t-87.5 39.5q-54 17 -86 44.5t-32 79.5q0 67 54.5 102t125.5 35q54 0 96.5 -21t61.5 -56z"/>
<glyph glyph-name="Ydieresis" horiz-adv-x="557" unicode="Ÿ" d="M506 849q0 -20 -14.5 -35t-34.5 -15t-33.5 13t-13.5 34t14.5 36t34.5 15t33.5 -13.5t13.5 -34.5zM308 849q0 -20 -14.5 -35t-33.5 -15q-20 0 -34 13t-14 34t15 36t35 15t33 -13.5t13 -34.5zM301 305l-54 -305h-71l54 305l-180 403h84l141 -344l283 344h89z"/>
<glyph glyph-name="circumflex" horiz-adv-x="240" unicode="ˆ" d="M231 708l83 -144h-63l-64 108l-102 -108h-69l135 144h80z"/>
<glyph glyph-name="tilde" horiz-adv-x="240" unicode="˜" d="M49 576h-43q36 104 110 104q27 0 69 -23q46 -23 63 -23q36 0 58 50h43q-38 -104 -111 -104q-23 0 -69 23q-40 23 -63 23q-37 0 -57 -50z"/>
<glyph glyph-name="uni0394" horiz-adv-x="681" unicode="Δ" d="M407 628l-357 -562h472zM594 0h-644l12 54l426 654h70l141 -655z"/>
<glyph glyph-name="uni03BC" horiz-adv-x="595" unicode="μ" d="M125 468h67l-47 -265q-5 -27 -5 -53q0 -105 103 -105q65 0 111.5 50.5t59.5 124.5l44 248h67l-56 -319q-10 -57 -10 -72q0 -14 6.5 -20t22.5 -6q17 0 28 4l-7 -53q-24 -8 -46 -8q-68 0 -68 64q0 11 4 29h-2q-74 -99 -172 -99q-41 0 -68.5 16t-37.5 40h-2l-49 -284h-68z "/>
<glyph glyph-name="pi" horiz-adv-x="639" unicode="π" d="M491 409l-48 -261q-5 -25 -5 -45q0 -52 56 -52q23 0 38 6l-7 -52q-22 -11 -54 -11q-46 0 -73.5 23t-27.5 68q0 20 10 74l45 250h-176l-137 -409h-67l138 409h-123l12 59h547l-12 -59h-116z"/>
<glyph glyph-name="endash" horiz-adv-x="400" unicode="–" d="M370 271l-10 -57h-340l10 57h340z"/>
<glyph glyph-name="emdash" horiz-adv-x="600" unicode="—" d="M570 271l-10 -57h-540l10 57h540z"/>
<glyph glyph-name="quoteleft" horiz-adv-x="222" unicode="‘" d="M71 473l123 235h57l-109 -235h-71z"/>
<glyph glyph-name="quotesinglbase" horiz-adv-x="222" unicode="‚" d="M143 95l-123 -235h-57l109 235h71z"/>
<glyph glyph-name="quotedblleft" horiz-adv-x="387" unicode="“" d="M236 473l123 235h57l-109 -235h-71zM71 473l123 235h57l-109 -235h-71z"/>
<glyph glyph-name="quotedblright" horiz-adv-x="387" unicode="”" d="M251 708l-123 -235h-57l109 235h71zM416 708l-123 -235h-57l109 235h71z"/>
<glyph glyph-name="dagger" horiz-adv-x="556" unicode="†" d="M382 708l-36 -204h204l-11 -60h-204l-100 -570h-66l100 570h-204l11 60h204l36 204h66z"/>
<glyph glyph-name="daggerdbl" horiz-adv-x="556" unicode="‡" d="M382 708l-34 -192h195l-11 -60h-195l-58 -330h195l-10 -60h-195l-34 -192h-66l34 192h-195l10 60h195l58 330h-195l11 60h195l34 192h66z"/>
<glyph glyph-name="ellipsis" horiz-adv-x="1000" unicode="…" d="M842 49q0 -22 -16 -38.5t-38 -16.5t-37.5 14.5t-15.5 37.5q0 24 16.5 40t38.5 16t37 -14.5t15 -38.5zM508 49q0 -22 -16 -38.5t-38 -16.5t-37.5 14.5t-15.5 37.5q0 24 16.5 40t38.5 16t37 -14.5t15 -38.5zM174 49q0 -22 -16 -38.5t-38 -16.5t-37.5 14.5t-15.5 37.5 q0 24 16.5 40t38.5 16t37 -14.5t15 -38.5z"/>
<glyph glyph-name="perthousand" horiz-adv-x="1000" unicode="‰" d="M644 712l-581 -743l-45 27l582 743zM891 164q0 36 -22 58.5t-60 22.5q-47 0 -78.5 -36t-31.5 -88q0 -35 22 -58t58 -23q49 0 80.5 36.5t31.5 87.5zM776 -12q-60 0 -98.5 35.5t-38.5 90.5q0 75 50 128.5t125 53.5q60 0 97.5 -34.5t37.5 -90.5q0 -77 -49 -130t-124 -53z M538 164q0 36 -22 58.5t-60 22.5q-47 0 -78.5 -36t-31.5 -88q0 -35 22 -58t58 -23q49 0 80.5 36.5t31.5 87.5zM423 -12q-60 0 -98.5 35.5t-38.5 90.5q0 75 50 128.5t125 53.5q60 0 97.5 -34.5t37.5 -90.5q0 -77 -49 -130t-124 -53zM318 588q0 36 -22 58.5t-60 22.5 q-47 0 -78.5 -36t-31.5 -88q0 -35 22 -58t58 -23q49 0 80.5 36.5t31.5 87.5zM203 412q-60 0 -98.5 35.5t-38.5 90.5q0 75 50 128.5t125 53.5q60 0 97.5 -34.5t37.5 -90.5q0 -77 -49 -130t-124 -53z"/>
<glyph glyph-name="guilsinglleft" horiz-adv-x="315" unicode="‹" d="M117 235l85 -171l-50 -33l-106 209l177 209l41 -37z"/>
<glyph glyph-name="guilsinglright" horiz-adv-x="315" unicode="›" d="M177 245l-85 171l50 33l106 -209l-177 -209l-41 37z"/>
<glyph glyph-name="fraction" horiz-adv-x="100" unicode="⁄" d="M366 712l-581 -743l-45 27l582 743z"/>
<glyph glyph-name="Euro" d="M559 633q-47 30 -116 30q-85 0 -150.5 -55.5t-100.5 -138.5h300l-28 -55h-292q-21 -58 -23 -122h257l-27 -55h-231q0 -88 53 -140t144 -52q72 0 136 40l19 -56q-74 -47 -169 -47q-120 0 -187.5 75t-67.5 180h-76l29 55h49q2 54 23 122h-69l30 55h57q44 114 133 185.5 t199 71.5q89 0 143 -32z" unicode="€"/>
<glyph glyph-name="trademark" horiz-adv-x="1000" unicode="™" d="M986 708v-412h-60v346h-2l-139 -346h-39l-139 346h-2v-346h-60v412h93l129 -316l129 316h90zM459 708v-54h-133v-358h-60v358h-136v54h329z"/>
<glyph glyph-name="partialdiff" horiz-adv-x="496" unicode="∂" d="M386 278q-68 91 -155 91q-64 0 -100.5 -46.5t-36.5 -112.5t36.5 -117.5t100.5 -51.5q41 0 72 23.5t47.5 61.5t25 75.5t10.5 76.5zM455 363q0 -50 -4.5 -96t-19.5 -99t-38.5 -91t-65.5 -63.5t-97 -25.5q-90 0 -144.5 66t-54.5 158q0 90 52.5 151.5t141.5 61.5 q97 0 166 -84q0 9 0.5 26t0.5 26q0 46 -9 90.5t-28.5 87t-56 69t-85.5 26.5q-52 0 -112 -46l-36 43q67 58 145 58q68 0 118.5 -33t76.5 -88.5t38 -114t12 -122.5z"/>
<glyph glyph-name="product" horiz-adv-x="711" unicode="∏" d="M641 -214h-66v938h-438v-938h-66v1000h570v-1000z"/>
<glyph glyph-name="summation" horiz-adv-x="604" unicode="∑" d="M578 -214h-553v55l329 448l-315 441v56h527v-62h-442l309 -435l-328 -442h473v-61z"/>
<glyph glyph-name="minus" horiz-adv-x="666" unicode="−" d="M588 333v-60h-510v60h510z"/>
<glyph glyph-name="radical" horiz-adv-x="493" unicode="√" d="M502 786l-210 -1000h-66l-164 340l-46 -22l-24 50l100 48l158 -332l189 916h63z"/>
<glyph glyph-name="infinity" horiz-adv-x="741" unicode="∞" d="M333 249q-3 2 -18 15t-21 18t-20.5 16.5t-24 17t-22.5 12t-25 9.5t-24 3q-37 0 -58.5 -26.5t-21.5 -63.5q0 -39 22.5 -63.5t61.5 -24.5q62 0 151 87zM643 249q0 40 -22 66t-61 26q-9 0 -18.5 -1.5t-19 -6t-17.5 -8.5t-18.5 -11.5t-16.5 -11.5t-17 -14t-15 -13.5 t-15.5 -14t-13.5 -12.5q33 -29 47.5 -41t46.5 -28.5t60 -16.5q37 0 58.5 24.5t21.5 62.5zM700 252q0 -64 -38.5 -106t-101.5 -42q-36 0 -73.5 18.5t-59 36.5t-56.5 52q-9 -7 -33 -28.5t-36.5 -31t-34 -23t-42.5 -19t-44 -5.5q-62 0 -101 41.5t-39 103.5q0 63 38 105.5 t100 42.5q28 0 53.5 -8.5t54.5 -30.5t40.5 -32t43.5 -41q5 5 22.5 21.5t24.5 23t23 20.5t27.5 20t27 14t31 11t31.5 3q63 0 102.5 -41.5t39.5 -104.5z"/>
<glyph glyph-name="approxequal" horiz-adv-x="666" unicode="≈" d="M596 232q-7 -59 -37.5 -98.5t-86.5 -39.5q-49 0 -144 37q-98 36 -133 36q-32 0 -53 -23.5t-26 -56.5h-45q9 60 38 100t85 40q44 0 144 -36q95 -37 136 -37q61 0 78 78h44zM596 402q-6 -58 -37 -97.5t-86 -39.5q-48 0 -145 37q-98 36 -133 36q-32 0 -53 -23.5t-26 -56.5 h-45q8 60 38 99.5t86 39.5q45 0 143 -36q97 -37 136 -37q62 0 79 78h43z"/>
<glyph glyph-name="notequal" horiz-adv-x="666" unicode="≠" d="M584 120h-287l-76 -144l-52 27l62 117h-149v60h181l68 130h-249v60h282l77 147l52 -28l-63 -119h154v-60h-186l-69 -130h255v-60z"/>
<glyph glyph-name="lessequal" horiz-adv-x="666" unicode="≤" d="M584 6h-502v59h502v-59zM584 108l-502 188v65l502 189v-65l-419 -157l419 -155v-65z"/>
<glyph glyph-name="greaterequal" horiz-adv-x="666" unicode="≥" d="M584 6h-502v59h502v-59zM584 296l-502 -188v65l420 155l-420 157v65l502 -189v-65z"/>
<glyph glyph-name="lozenge" horiz-adv-x="593" unicode="◊" d="M433 356l-137 325l-136 -325l136 -325zM498 356l-171 -391h-63l-169 391l169 391h63z"/>
</font>
</defs>
</svg>
