<?xml version="1.0" encoding="UTF-8" standalone="no"?>
<!DOCTYPE svg  PUBLIC '-//W3C//DTD SVG 1.1//EN'  'http://www.w3.org/Graphics/SVG/1.1/DTD/svg11.dtd'>
<svg xmlns="http://www.w3.org/2000/svg">
<defs>
<font id="AvenirNextCyr-HeavyItalic" horiz-adv-x="695">
<font-face slope="-12" underline-position="125" font-weight="800" descent="-200" panose-1="2 11 9 3 2 2 2 9 2 4" units-per-em="1000" unicode-range="U+0020-25CA" bbox="-230 -250 1228 969" x-height="526" underline-thickness="50" font-family="AvenirNextCyr" ascent="800" font-style="italic" cap-height="708"/>
<missing-glyph horiz-adv-x="1000"/>
<glyph glyph-name=".notdef" horiz-adv-x="1000"/>
<glyph glyph-name=".null" horiz-adv-x="1000"/>
<glyph glyph-name=".null" horiz-adv-x="1000"/>
<glyph glyph-name="nonmarkingreturn" horiz-adv-x="333"/>
<glyph glyph-name="space" horiz-adv-x="250" unicode=" "/>
<glyph glyph-name="exclam" horiz-adv-x="439" unicode="!" d="M179 -13q-52 0 -84 30t-32 72q0 56 37.5 95t95.5 39q50 0 82.5 -30t32.5 -72q0 -56 -37 -95t-95 -39zM321 258h-233l80 450h233z"/>
<glyph glyph-name="quotedbl" horiz-adv-x="550" unicode='&quot;' d="M262 427h-169l50 281h169zM480 427h-167l49 281h168z"/>
<glyph glyph-name="numbersign" horiz-adv-x="618" unicode="#" d="M346 389h-46l-22 -70h45zM582 389h-95l-23 -70h78l-23 -131h-95l-61 -188h-141l59 188h-44l-60 -188h-141l59 188h-77l23 131h95l24 70h-78l23 131h95l60 188h142l-60 -188h45l60 188h141l-60 -188h77z"/>
<glyph glyph-name="dollar" d="M340 716l14 70h103l-14 -70q61 -4 116.5 -26.5t87.5 -55.5l-145 -140q-37 44 -104 44q-29 0 -50.5 -12t-21.5 -35q0 -18 17 -29.5t57 -23.5q94 -31 142 -79t48 -124q0 -108 -77 -170t-182 -71l-14 -77h-102l14 76q-69 5 -133.5 30.5t-105.5 65.5l155 143 q22 -26 61.5 -42.5t72.5 -16.5q34 0 54.5 11.5t20.5 32.5q0 18 -18 31.5t-63 28.5q-87 28 -132.5 70t-45.5 122q0 96 68 165t177 82z" unicode="$"/>
<glyph glyph-name="percent" horiz-adv-x="915" unicode="%" d="M782 683l-547 -722l-86 58l546 720zM752 191q0 22 -13.5 36t-37.5 14q-29 0 -47.5 -22.5t-18.5 -54.5q0 -23 13 -37t37 -14q30 0 48.5 22.5t18.5 55.5zM677 -11q-81 0 -131.5 42.5t-50.5 118.5q0 91 60 153t153 62q82 0 133 -43t51 -119q0 -90 -61 -152t-154 -62z M309 546q0 22 -13.5 36t-37.5 14q-29 0 -47.5 -22.5t-18.5 -54.5q0 -23 13 -37t37 -14q30 0 48.5 22.5t18.5 55.5zM234 344q-81 0 -131.5 42.5t-50.5 118.5q0 91 60 153t153 62q82 0 133 -43t51 -119q0 -90 -61.5 -152t-153.5 -62z"/>
<glyph glyph-name="ampersand" horiz-adv-x="834" unicode="&amp;" d="M193 399q-47 52 -47 123q0 84 71 145t181 61q103 0 165.5 -47t62.5 -135q0 -128 -166 -192l41 -46l62 79h244l-181 -205l158 -182h-276l-38 47q-87 -62 -195 -62q-73 0 -130 18.5t-96 65t-39 115.5q0 151 183 215zM440 535q0 21 -12 33t-34 12q-24 0 -39.5 -15.5 t-15.5 -39.5q0 -36 29 -62q32 11 52 30t20 42zM361 181l-76 95q-58 -17 -58 -69q0 -24 18.5 -38.5t43.5 -14.5q45 0 72 27z"/>
<glyph glyph-name="quotesingle" horiz-adv-x="330" unicode="&apos;" d="M260 427h-167l49 281h168z"/>
<glyph glyph-name="parenleft" horiz-adv-x="360" unicode="(" d="M233 -134l-150 -46q-87 147 -87 343q0 163 65.5 318.5t177.5 274.5l135 -71q-105 -119 -160.5 -253t-55.5 -269q0 -76 19.5 -155.5t55.5 -141.5z"/>
<glyph glyph-name="parenright" horiz-adv-x="360" unicode=")" d="M103 710l150 46q87 -147 87 -343q0 -163 -65.5 -318.5t-177.5 -274.5l-135 71q105 119 160.5 253t55.5 269q0 169 -75 297z"/>
<glyph glyph-name="asterisk" horiz-adv-x="523" unicode="*" d="M424 467l72 -93l-121 -83l-74 95l-71 -90l-120 83l74 89l-117 37l48 130l114 -38v111h149v-112l116 35l44 -130z"/>
<glyph glyph-name="plus" horiz-adv-x="666" unicode="+" d="M49 378h204v198h158v-198h206v-150h-204v-198h-158v198h-206v150z"/>
<glyph glyph-name="comma" horiz-adv-x="354" unicode="," d="M282 190l-168 -310h-180l136 310h212z"/>
<glyph glyph-name="hyphen" horiz-adv-x="335" unicode="-" d="M279 199h-273l30 168h273z"/>
<glyph glyph-name="period" horiz-adv-x="354" unicode="." d="M132 -12q-54 0 -87.5 31t-33.5 75q0 59 39 99.5t100 40.5q52 0 86 -31.5t34 -74.5q0 -59 -39 -99.5t-99 -40.5z"/>
<glyph glyph-name="slash" horiz-adv-x="451" unicode="/" d="M521 719l-442 -777l-144 47l440 777z"/>
<glyph glyph-name="zero" d="M379 534q-37 0 -66 -42t-43 -98.5t-14 -110.5q0 -46 17 -75.5t51 -29.5q36 0 64.5 39.5t42.5 96t14 115.5q0 105 -66 105zM398 726q76 0 133 -23.5t88.5 -63.5t46.5 -86.5t15 -98.5q0 -63 -12 -126t-39.5 -126t-68.5 -111.5t-105 -78.5t-142 -30q-77 0 -134.5 23.5 t-89.5 63.5t-47.5 86.5t-15.5 98.5q0 63 12 126t40 126t69.5 111.5t106 78.5t143.5 30z" unicode="0"/>
<glyph glyph-name="one" d="M460 0h-233l82 465l-134 -72l-68 175l265 140h213z" unicode="1"/>
<glyph glyph-name="two" d="M589 0h-583l33 183l322 226q56 40 56 69q0 49 -53 49q-67 0 -87 -84l-213 31q27 117 112.5 185.5t209.5 68.5q71 0 131 -21t101.5 -70.5t41.5 -120.5q0 -47 -13.5 -84t-43.5 -68t-50 -46.5t-61 -42.5l-121 -81h252z" unicode="2"/>
<glyph glyph-name="three" d="M626 227q0 -50 -18.5 -92t-49.5 -70t-71.5 -47.5t-83.5 -28.5t-87 -9q-118 0 -200.5 54t-104.5 161l212 51q9 -34 34.5 -53t62.5 -19q28 0 50.5 13.5t22.5 38.5q0 33 -25.5 45t-76.5 12h-66l27 158h76q44 0 73.5 13.5t29.5 42.5q0 44 -56 44q-29 0 -53 -15t-33 -40 l-203 54q37 93 119.5 140.5t185.5 47.5q51 0 96 -9.5t86 -31t65 -62t24 -96.5q0 -61 -41.5 -102t-92.5 -52l-1 -4q47 -17 73 -55t26 -89z" unicode="3"/>
<glyph glyph-name="four" d="M367 307l33 188h-4l-153 -188h124zM643 126h-97l-22 -126h-210l22 126h-335l34 189l322 393h288l-71 -401h101z" unicode="4"/>
<glyph glyph-name="five" d="M627 255q0 -69 -28 -124t-73.5 -87t-97.5 -48t-106 -16q-118 0 -199 55t-108 156l215 58q8 -33 33 -53t59 -20q28 0 50 14.5t22 45.5q0 36 -27.5 50t-79.5 14q-83 0 -197 -22l100 430h477l-34 -193h-281l-14 -57q27 5 54 5q46 0 86 -10.5t74.5 -33.5t54.5 -65t20 -99z " unicode="5"/>
<glyph glyph-name="six" d="M249 236q0 -31 21.5 -50t50.5 -19q42 0 66 26t24 68q0 31 -20.5 50t-48.5 19q-43 0 -68 -26.5t-25 -67.5zM422 479q6 1 19 1q94 0 149.5 -60.5t55.5 -142.5q0 -124 -90 -209.5t-243 -85.5q-129 0 -211 60.5t-82 184.5q0 123 116 251l208 230h301l-207 -212z" unicode="6"/>
<glyph glyph-name="seven" d="M674 543l-355 -543h-276l366 515h-299l34 193h559z" unicode="7"/>
<glyph glyph-name="eight" d="M311 495q0 -22 14.5 -38t40.5 -16q30 0 48.5 18t18.5 45q0 26 -14.5 41t-39.5 15q-31 0 -49.5 -18t-18.5 -47zM505 371v-3q42 -17 74.5 -58t32.5 -93q0 -115 -82 -175t-225 -60q-48 0 -93 10t-86.5 32t-66 62.5t-24.5 94.5q0 77 48.5 128.5t111.5 67.5v4q-41 18 -64 52.5 t-23 78.5q0 69 44.5 119t109 72.5t138.5 22.5q106 0 178 -45.5t72 -135.5q0 -72 -43 -115.5t-102 -58.5zM255 215q0 -28 17 -43.5t40 -15.5q38 0 58 19.5t20 49.5q0 24 -17 42t-42 18q-33 0 -54.5 -20t-21.5 -50z" unicode="8"/>
<glyph glyph-name="nine" d="M442 472q0 31 -21.5 50t-50.5 19q-42 0 -66 -26t-24 -68q0 -31 20.5 -50t48.5 -19q43 0 68 26.5t25 67.5zM269 229q-6 -1 -19 -1q-94 0 -149.5 60.5t-55.5 142.5q0 124 90 209.5t243 85.5q129 0 211 -60.5t82 -184.5q0 -123 -116 -251l-208 -230h-301l207 212z" unicode="9"/>
<glyph glyph-name="colon" horiz-adv-x="375" unicode=":" d="M192 295q-50 0 -81.5 29.5t-31.5 70.5q0 55 36.5 93t93.5 38q49 0 81 -29.5t32 -69.5q0 -55 -36.5 -93.5t-93.5 -38.5zM136 -5q-50 0 -81.5 29.5t-31.5 70.5q0 55 36.5 93t93.5 38q49 0 81 -29.5t32 -69.5q0 -55 -36.5 -93.5t-93.5 -38.5z"/>
<glyph glyph-name="semicolon" horiz-adv-x="375" unicode=";" d="M192 295q-50 0 -81.5 29.5t-31.5 70.5q0 55 36.5 93t93.5 38q49 0 81 -29.5t32 -69.5q0 -55 -36.5 -93.5t-93.5 -38.5zM304 190l-167 -310h-182l137 310h212z"/>
<glyph glyph-name="less" horiz-adv-x="666" unicode="&lt;" d="M588 32l-510 203v134l510 203v-162q-46 -19 -137.5 -55.5t-136.5 -55.5l274 -103v-164z"/>
<glyph glyph-name="equal" horiz-adv-x="666" unicode="=" d="M56 282h554v-144h-554v144zM56 472h554v-144h-554v144z"/>
<glyph glyph-name="greater" horiz-adv-x="666" unicode="&gt;" d="M78 572l510 -203v-134l-510 -203v164l274 103q-45 19 -136.5 55.5t-137.5 55.5v162z"/>
<glyph glyph-name="question" horiz-adv-x="583" unicode="?" d="M267 -13q-52 0 -84 30t-32 72q0 56 37.5 95t95.5 39q50 0 82.5 -30t32.5 -72q0 -56 -37 -95t-95 -39zM441 330q-42 -24 -48 -55l-4 -26h-207l6 37q10 54 39 86.5t85 70.5l21 14q25 16 34 27.5t9 27.5q0 33 -41 33q-32 0 -50.5 -22.5t-24.5 -57.5l-202 36 q26 114 110 170.5t194 56.5q109 0 177 -44t68 -142q0 -75 -38.5 -118.5t-127.5 -93.5z"/>
<glyph glyph-name="at" horiz-adv-x="800" unicode="@" d="M457 406q0 17 -10.5 28t-28.5 11q-28 0 -52.5 -42.5t-24.5 -80.5q0 -41 38 -41q31 0 54.5 42t23.5 83zM546 160q-41 0 -71 16t-34 44h-2q-15 -24 -47 -42t-66 -18q-64 0 -98 38t-34 101q0 99 63 180.5t165 81.5q39 0 60 -15.5t24 -36.5h2l9 25h133l-40 -113 q-37 -107 -37 -125q0 -16 22 -16q38 0 62 40t24 107q0 195 -223 195q-130 0 -219.5 -82t-89.5 -219q0 -111 70 -171t191 -60q109 0 204 70l60 -83q-116 -95 -275 -95q-169 0 -273.5 86.5t-104.5 240.5q0 126 62.5 222.5t162 145.5t217.5 49q88 0 163 -31.5t123 -97 t48 -152.5q0 -53 -14.5 -101.5t-43.5 -90.5t-79 -67.5t-114 -25.5z"/>
<glyph glyph-name="A" horiz-adv-x="775" unicode="A" d="M445 285l-21 182l-101 -182h122zM720 0h-240l-16 108h-230l-59 -108h-258l435 708h244z"/>
<glyph glyph-name="B" horiz-adv-x="690" unicode="B" d="M341 287h-68l-19 -107h59q98 0 98 59q0 48 -70 48zM372 529h-58l-16 -97h64q76 0 76 54q0 43 -66 43zM456 708q85 0 146.5 -38t61.5 -117q0 -70 -39 -116.5t-104 -64.5v-2q50 -9 84.5 -50t34.5 -101q0 -105 -83.5 -162t-220.5 -57h-329l125 708h324z"/>
<glyph glyph-name="C" horiz-adv-x="686" unicode="C" d="M655 81q-113 -101 -286 -101q-158 0 -248 84.5t-90 228.5q0 183 121 309t305 126q88 0 159 -28t110 -71l-161 -166q-36 51 -114 51q-74 0 -121 -56.5t-47 -137.5q0 -54 34 -89t96 -35q69 0 128 55z"/>
<glyph glyph-name="D" horiz-adv-x="787" unicode="D" d="M324 512l-56 -313h75q85 0 133.5 54t48.5 128q0 58 -35 94.5t-104 36.5h-62zM7 0l125 708h293q63 0 121 -17t108 -51.5t80.5 -95t30.5 -138.5q0 -184 -121.5 -295t-310.5 -111h-326z"/>
<glyph glyph-name="E" horiz-adv-x="592" unicode="E" d="M499 0h-492l125 708h463l-34 -193h-245l-12 -68h234l-32 -180h-234l-13 -74h274z"/>
<glyph glyph-name="F" horiz-adv-x="569" unicode="F" d="M554 514h-230l-15 -82h218l-33 -188h-217l-43 -244h-227l125 708h456z"/>
<glyph glyph-name="G" horiz-adv-x="763" unicode="G" d="M726 629l-156 -164q-38 58 -119 58q-73 0 -126 -57t-53 -149q0 -62 35.5 -99t106.5 -37q36 0 63 11l11 62h-116l32 182h321l-68 -386q-131 -70 -272 -70q-162 0 -258 82.5t-96 230.5q0 184 118.5 309.5t302.5 125.5q91 0 163 -26.5t111 -72.5z"/>
<glyph glyph-name="H" horiz-adv-x="798" unicode="H" d="M671 0h-231l48 272h-202l-48 -272h-231l125 708h230l-43 -243h202l43 243h232z"/>
<glyph glyph-name="I" horiz-adv-x="367" unicode="I" d="M240 0h-233l125 708h233z"/>
<glyph glyph-name="J" horiz-adv-x="562" unicode="J" d="M489 255q-8 -44 -17.5 -77t-30.5 -72.5t-49.5 -65t-76 -43t-109.5 -17.5q-98 0 -163.5 47t-90.5 132l212 75q3 -19 15 -31t30 -12q38 0 48 60l81 457h232z"/>
<glyph glyph-name="K" horiz-adv-x="740" unicode="K" d="M718 0h-277l-155 298h-2l-52 -298h-225l125 708h224l-48 -271h3l224 271h282l-318 -342z"/>
<glyph glyph-name="L" horiz-adv-x="547" unicode="L" d="M479 0h-472l125 708h233l-90 -510h239z"/>
<glyph glyph-name="M" horiz-adv-x="1003" unicode="M" d="M876 0h-225l79 410h-6l-209 -410h-163l-63 410h-5l-61 -410h-216l125 708h295l62 -388h5l184 388h323z"/>
<glyph glyph-name="N" horiz-adv-x="791" unicode="N" d="M664 0h-233l-140 351h-4l-55 -351h-225l125 708h227l143 -369h4l58 369h225z"/>
<glyph glyph-name="O" horiz-adv-x="833" unicode="O" d="M572 387q0 56 -34.5 92.5t-95.5 36.5q-75 0 -122.5 -58t-47.5 -135q0 -56 34.5 -92.5t96.5 -36.5q75 0 122 57.5t47 135.5zM382 -18q-167 0 -259 88.5t-92 233.5q0 180 119.5 301t310.5 121q168 0 260 -88t92 -234q0 -180 -119.5 -301t-311.5 -121z"/>
<glyph glyph-name="P" horiz-adv-x="680" unicode="P" d="M346 405q102 0 102 66q0 56 -82 56h-35l-22 -122h37zM279 231l-42 -231h-230l125 708h264q135 0 208.5 -56.5t73.5 -157.5q0 -133 -86 -198t-245 -65h-68z"/>
<glyph glyph-name="Q" horiz-adv-x="863" unicode="Q" d="M572 391q0 55 -34.5 90.5t-95.5 35.5q-75 0 -122.5 -57t-47.5 -132q0 -55 34 -92t97 -37q77 0 123 57.5t46 134.5zM813 423q0 -82 -33.5 -149.5t-71.5 -94.5l-1 -4l116 7l-32 -182h-409q-160 0 -255.5 80.5t-95.5 219.5q0 180 121 303t309 123q161 0 256.5 -82t95.5 -221 z"/>
<glyph glyph-name="R" horiz-adv-x="704" unicode="R" d="M348 406q98 0 98 65q0 54 -80 54h-43l-21 -119h46zM659 0h-260l-97 259h-28l-44 -259h-223l125 708h291q117 0 185 -51.5t68 -144.5q0 -86 -41 -144t-114 -79z"/>
<glyph glyph-name="S" horiz-adv-x="601" unicode="S" d="M621 640l-148 -143q-40 45 -107 45q-30 0 -51.5 -13t-21.5 -36q0 -18 17 -29.5t58 -24.5q96 -32 145.5 -81t49.5 -126q0 -65 -29.5 -115.5t-77 -79t-101.5 -43t-110 -14.5q-85 0 -166 27t-130 75l158 146q22 -26 63 -43t74 -17q35 0 56 12t21 33q0 18 -18.5 32t-64.5 29 q-89 29 -135.5 72t-46.5 125q0 111 87 184t225 73q76 0 145.5 -24t107.5 -64z"/>
<glyph glyph-name="T" horiz-adv-x="583" unicode="T" d="M613 513h-173l-90 -513h-232l90 513h-179l35 195h584z"/>
<glyph glyph-name="U" horiz-adv-x="771" unicode="U" d="M696 260q-23 -131 -111 -204.5t-241 -73.5q-138 0 -221 59.5t-83 161.5q0 26 6 66l75 439h229l-73 -409q-2 -11 -2 -33q0 -36 21.5 -59.5t66.5 -23.5q29 0 50 9.5t32.5 27.5t17 34.5t10.5 40.5l75 413h225z"/>
<glyph glyph-name="V" horiz-adv-x="720" unicode="V" d="M820 708l-405 -708h-258l-102 708h249l32 -444h4l213 444h267z"/>
<glyph glyph-name="W" horiz-adv-x="1050" unicode="W" d="M1136 708l-334 -708h-238l-20 408h-4l-186 -408h-235l-55 708h245v-405h4l166 405h238l8 -405h4l166 405h241z"/>
<glyph glyph-name="X" horiz-adv-x="766" unicode="X" d="M720 0h-267l-89 211l-168 -211h-284l331 369l-173 339h263l77 -189l146 189h280l-306 -336z"/>
<glyph glyph-name="Y" horiz-adv-x="677" unicode="Y" d="M789 708l-349 -417l-51 -291h-231l51 291l-187 417h258l76 -219l151 219h282z"/>
<glyph glyph-name="Z" horiz-adv-x="668" unicode="Z" d="M565 0h-582l34 194l330 322h-262l34 192h563l-30 -168l-348 -343h296z"/>
<glyph glyph-name="bracketleft" horiz-adv-x="360" unicode="[" d="M203 -156h-249l157 888h249l-23 -133h-87l-110 -622h87z"/>
<glyph glyph-name="backslash" horiz-adv-x="455" unicode="\" d="M301 -59l-304 778l158 48l303 -778z"/>
<glyph glyph-name="bracketright" horiz-adv-x="360" unicode="]" d="M227 -156h-248l24 133h87l110 622h-87l23 133h248z"/>
<glyph glyph-name="asciicircum" horiz-adv-x="714" unicode="^" d="M255 343h-178l203 365h154q34 -61 100.5 -182.5t100.5 -182.5h-178l-101 187z"/>
<glyph glyph-name="underscore" horiz-adv-x="500" unicode="_" d="M0 -185v110h500v-110h-500z"/>
<glyph glyph-name="grave" horiz-adv-x="360" unicode="`" d="M3 728h208l126 -144h-165z"/>
<glyph glyph-name="a" horiz-adv-x="588" unicode="a" d="M504 81q-7 -41 -7 -81h-192q0 22 2 48h-2q-55 -62 -148 -62q-63 0 -110 35t-47 104q0 205 337 205q1 5 1 11q0 20 -17 30.5t-46 10.5q-63 0 -117 -46l-98 112q47 44 114.5 69t130.5 25q118 0 179.5 -48.5t61.5 -136.5q0 -37 -8 -83zM328 199l3 17h-13q-122 0 -122 -56 q0 -36 46 -36q33 0 56.5 21t29.5 54z"/>
<glyph glyph-name="b" horiz-adv-x="690" unicode="b" d="M437 283q0 33 -21 54.5t-59 21.5q-45 0 -73.5 -33.5t-28.5 -81.5q0 -34 21 -55t58 -21q47 0 75 33t28 82zM443 538q100 0 156 -63.5t56 -161.5q0 -136 -84 -231t-209 -95q-50 0 -91.5 19t-62.5 50h-2l-10 -56h-202l133 756h224l-48 -276h2q24 26 62 42t76 16z"/>
<glyph glyph-name="c" horiz-adv-x="504" unicode="c" d="M529 472l-127 -139q-19 28 -67 28q-49 0 -80 -32.5t-31 -79.5q0 -32 22 -54.5t63 -22.5q47 0 77 30l89 -151q-85 -67 -207 -67q-117 0 -188 64t-71 171q0 133 91.5 228t233.5 95q137 0 195 -70z"/>
<glyph glyph-name="d" horiz-adv-x="690" unicode="d" d="M227 244q0 -33 21 -54.5t59 -21.5q45 0 73.5 33.5t28.5 81.5q0 34 -21 55t-58 21q-47 0 -75 -33t-28 -82zM221 -13q-100 0 -156 63.5t-56 161.5q0 136 84 231t209 95q40 0 78 -16t56 -42h2l48 276h223l-133 -756h-201l10 56h-2q-52 -69 -162 -69z"/>
<glyph glyph-name="e" horiz-adv-x="622" unicode="e" d="M392 330q1 4 1 12q0 25 -18.5 40t-51.5 15q-37 0 -63.5 -21.5t-32.5 -45.5h165zM573 211h-358q-1 -3 -1 -7q0 -29 27.5 -42.5t58.5 -13.5q56 0 92 35l151 -104q-94 -95 -258 -95q-119 0 -197.5 62.5t-78.5 176.5q0 136 92.5 227.5t236.5 91.5q115 0 182 -63t67 -172 q0 -51 -14 -96z"/>
<glyph glyph-name="f" horiz-adv-x="418" unicode="f" d="M493 770l-36 -168q-20 9 -43 9q-33 0 -47.5 -18.5t-21.5 -54.5l-2 -12h111l-28 -161h-108l-65 -365h-223l65 365h-90l28 161h87l3 16q9 54 25.5 94t46.5 75.5t80 54.5t118 19q66 0 100 -15z"/>
<glyph glyph-name="g" horiz-adv-x="693" unicode="g" d="M224 242q0 -31 18.5 -54t62.5 -23q47 0 76 36t29 84q0 34 -21.5 54.5t-58.5 20.5q-49 0 -77.5 -36t-28.5 -82zM230 0q-107 0 -164 59t-57 154q0 137 82.5 231t210.5 94q41 0 80.5 -17.5t62.5 -51.5h3l9 57h211l-83 -473q-27 -153 -112.5 -223t-235.5 -70 q-78 0 -152.5 21.5t-120.5 60.5l106 154q31 -30 75.5 -46.5t84.5 -16.5q116 0 133 98l5 26h-3q-18 -21 -55 -39t-80 -18z"/>
<glyph glyph-name="h" horiz-adv-x="661" unicode="h" d="M552 0h-225l49 279q3 18 3 34q0 45 -46 45q-23 0 -40.5 -21t-24.5 -59l-49 -278h-225l133 756h225l-51 -291h2q26 31 66 52t83 21q82 0 121.5 -44t39.5 -111q0 -35 -6 -67z"/>
<glyph glyph-name="i" horiz-adv-x="335" unicode="i" d="M213 565q-49 0 -80 28.5t-31 68.5q0 54 35.5 91.5t91.5 37.5q48 0 79 -29t31 -68q0 -54 -35.5 -91.5t-90.5 -37.5zM219 0h-224l93 526h224z"/>
<glyph glyph-name="j" horiz-adv-x="341" unicode="j" d="M220 565q-49 0 -80 28.5t-31 68.5q0 54 35.5 91.5t91.5 37.5q48 0 79 -29t31 -68q0 -54 -35.5 -91.5t-90.5 -37.5zM227 1q-10 -55 -26 -96t-45.5 -78t-79.5 -56.5t-120 -19.5q-54 0 -92 12l38 182q18 -5 36 -5q55 0 66 67l92 519h224z"/>
<glyph glyph-name="k" horiz-adv-x="650" unicode="k" d="M260 229h-3l-39 -229h-224l133 756h225l-78 -431h3l148 201h273l-216 -250l130 -276h-262z"/>
<glyph glyph-name="l" horiz-adv-x="338" unicode="l" d="M223 0h-229l133 756h229z"/>
<glyph glyph-name="m" horiz-adv-x="971" unicode="m" d="M68 423q10 50 15 103h216q0 -9 -7 -68h4q25 34 65 57t89 23q107 0 144 -78q62 78 158 78q85 0 128 -50.5t43 -117.5q0 -24 -5 -51l-56 -319h-225l49 279q3 17 3 33q0 46 -41 46q-45 0 -60 -80l-49 -278h-224l49 277q3 15 3 30q0 51 -41 51q-20 0 -36 -20t-23 -60 l-49 -278h-224z"/>
<glyph glyph-name="n" horiz-adv-x="661" unicode="n" d="M68 423q10 50 15 103h216q0 -9 -7 -68h4q24 34 66.5 57t89.5 23q82 0 121.5 -44t39.5 -111q0 -35 -6 -67l-55 -316h-225l49 279q3 18 3 34q0 45 -46 45q-23 0 -40.5 -21t-24.5 -59l-50 -278h-224z"/>
<glyph glyph-name="o" horiz-adv-x="660" unicode="o" d="M407 283q0 34 -20.5 55t-58.5 21q-45 0 -73 -33.5t-28 -81.5q0 -34 20.5 -55t57.5 -21q47 0 74.5 33t27.5 82zM295 -16q-125 0 -205.5 62t-80.5 173q0 138 88 230.5t238 92.5q128 0 209 -62t81 -173q0 -138 -88.5 -230.5t-241.5 -92.5z"/>
<glyph glyph-name="p" horiz-adv-x="690" unicode="p" d="M437 283q0 33 -21 54.5t-59 21.5q-45 0 -73.5 -33.5t-28.5 -81.5q0 -34 21 -55t58 -21q47 0 75 33t28 82zM439 538q103 0 159.5 -63.5t56.5 -161.5q0 -136 -84 -231t-209 -95q-41 0 -79.5 15t-56.5 40h-2l-51 -282h-223l136 766h212l-10 -57h2q58 69 149 69z"/>
<glyph glyph-name="q" horiz-adv-x="690" unicode="q" d="M225 244q0 -33 21 -54.5t59 -21.5q45 0 73.5 33.5t28.5 81.5q0 34 -21 55t-58 21q-47 0 -75 -33t-28 -82zM222 -13q-100 0 -157 64t-57 161q0 136 84.5 231t209.5 95q44 0 82 -18t58 -51h4l11 57h211l-134 -766h-222l49 282h-2q-48 -55 -137 -55z"/>
<glyph glyph-name="r" horiz-adv-x="440" unicode="r" d="M69 423q10 50 15 103h215q-3 -33 -9 -64h3q54 75 134 75q27 0 42 -5l-42 -190q-16 5 -47 5q-49 0 -79.5 -26.5t-37.5 -65.5l-45 -255h-224z"/>
<glyph glyph-name="s" horiz-adv-x="494" unicode="s" d="M-45 54l114 136q52 -52 123 -52q43 0 43 23q0 20 -55 35q-75 22 -112.5 56.5t-37.5 95.5q0 93 74 144t174 51q63 0 120.5 -17.5t92.5 -49.5l-115 -132q-17 18 -47 30.5t-59 12.5q-45 0 -45 -23q0 -10 10 -15.5t37 -12.5q81 -20 123.5 -57.5t42.5 -103.5 q0 -67 -40.5 -112.5t-95 -63t-116.5 -17.5q-145 0 -231 72z"/>
<glyph glyph-name="t" horiz-adv-x="401" unicode="t" d="M389 365h-98l-27 -148q-2 -16 -2 -27q0 -21 11 -29.5t33 -8.5q24 0 44 6l-27 -154q-31 -18 -110 -18q-178 0 -178 135q0 24 5 51l35 193h-78l28 161h74l21 119h217l-21 -119h101z"/>
<glyph glyph-name="u" horiz-adv-x="658" unicode="u" d="M562 103q-10 -50 -15 -103h-216q0 9 7 68h-4q-24 -34 -66.5 -57t-89.5 -23q-82 0 -121.5 44t-39.5 111q0 35 6 67l55 316h225l-49 -279q-3 -18 -3 -34q0 -45 46 -45q23 0 40.5 21t24.5 59l50 278h224z"/>
<glyph glyph-name="v" horiz-adv-x="622" unicode="v" d="M666 526l-308 -526h-244l-89 526h236l20 -291h4l133 291h248z"/>
<glyph glyph-name="w" horiz-adv-x="963" unicode="w" d="M1000 526l-289 -526h-223l-27 274h-2l-137 -274h-222l-72 526h234l11 -279h4l127 279h217l18 -279h3l123 279h235z"/>
<glyph glyph-name="x" horiz-adv-x="620" unicode="x" d="M580 0h-245l-61 125l-111 -125h-259l260 271l-139 255h244l55 -116l99 116h252l-243 -255z"/>
<glyph glyph-name="y" horiz-adv-x="631" unicode="y" d="M144 -4l6 11l-126 519h248l32 -288h4l123 288h240l-305 -558q-60 -111 -120.5 -159.5t-168.5 -48.5q-65 0 -115 16l38 177q27 -12 53 -12q62 0 91 55z"/>
<glyph glyph-name="z" horiz-adv-x="552" unicode="z" d="M458 0h-485l28 158l237 202h-196l29 166h474l-26 -147l-254 -212h222z"/>
<glyph glyph-name="braceleft" horiz-adv-x="360" unicode="{" d="M220 -156h-95q-62 0 -92 34.5t-30 90.5q0 24 4 44l24 135q2 8 2 23q0 28 -13.5 38t-40.5 10l24 138q32 0 51 15t26 55l24 136q13 73 58.5 121t119.5 48h95l-24 -134h-36q-49 0 -59 -60l-24 -138q-9 -52 -41.5 -79.5t-64.5 -31.5v-2q25 -4 46.5 -25.5t21.5 -59.5 q0 -10 -3 -30l-23 -133q-3 -13 -3 -25q0 -36 41 -36h36z"/>
<glyph glyph-name="bar" horiz-adv-x="269" unicode="|" d="M49 -250v1000h172v-1000h-172z"/>
<glyph glyph-name="braceright" horiz-adv-x="360" unicode="}" d="M119 732h95q62 0 92 -34.5t30 -90.5q0 -24 -4 -44l-24 -135q-2 -8 -2 -23q0 -28 13.5 -38t40.5 -10l-24 -138q-32 0 -51 -15t-26 -55l-24 -136q-13 -73 -58.5 -121t-119.5 -48h-95l24 134h36q49 0 59 60l24 138q9 52 41.5 79.5t64.5 31.5v2q-25 4 -46.5 25.5t-21.5 59.5 q0 10 3 30l23 133q3 13 3 25q0 36 -41 36h-36z"/>
<glyph glyph-name="asciitilde" horiz-adv-x="666" unicode="~" d="M355 384q37 -24 53 -29.5t37 -5.5h4q49 0 84 67l74 -135q-65 -106 -159 -106q-61 0 -121 38q-55 34 -93 34q-25 0 -54.5 -17t-46.5 -49l-74 135q34 56 82 81t94 25q62 0 120 -38z"/>
<glyph glyph-name="uni00A0" horiz-adv-x="250" unicode=" "/>
<glyph glyph-name="exclamdown" horiz-adv-x="439" unicode="¡" d="M234 542q52 0 84 -30t32 -72q0 -56 -37.5 -95t-95.5 -39q-50 0 -82.5 30t-32.5 72q0 56 37 95t95 39zM92 271h233l-80 -450h-233z"/>
<glyph glyph-name="cent" d="M487 535q85 -13 126 -63l-127 -139q-19 28 -67 28q-49 0 -80 -32.5t-31 -79.5q0 -32 22 -54.5t63 -22.5q47 0 77 30l89 -151q-75 -58 -167 -65l-11 -59h-106l12 63q-89 17 -141.5 77.5t-52.5 151.5q0 124 81 216t209 105l11 59h106z" unicode="¢"/>
<glyph glyph-name="sterling" d="M698 653l-129 -149q-25 29 -67 29t-63.5 -24.5t-27.5 -55.5l-3 -14h149l-27 -157h-146l-17 -94h252l-33 -188h-567l33 188h92l17 94h-92l27 157h89l8 35q59 254 293 254q64 0 123.5 -21.5t88.5 -53.5z" unicode="£"/>
<glyph glyph-name="currency" horiz-adv-x="1000" unicode="¤" d="M502 410q-41 0 -68.5 -30t-27.5 -71q0 -43 27 -73t69 -30t69 30t27 73q0 41 -28 71t-68 30zM756 454q37 -63 37 -145q0 -84 -39 -150l92 -92l-107 -108l-97 97q-62 -32 -140 -32q-71 0 -142 34l-99 -99l-107 108l95 95q-36 63 -36 147q0 79 34 142l-93 93l108 107l96 -95 q66 34 144 34q77 0 143 -32l93 93l108 -107z"/>
<glyph glyph-name="yen" d="M763 708l-205 -254h100l-24 -137h-184l-9 -48h184l-24 -137h-184l-23 -132h-210l23 132h-181l24 137h181l9 48h-181l24 137h112l-110 254h229l62 -221l140 221h247z" unicode="¥"/>
<glyph glyph-name="brokenbar" horiz-adv-x="269" unicode="¦" d="M49 200h172v-406h-172v406zM49 718h172v-406h-172v406z"/>
<glyph glyph-name="section" horiz-adv-x="625" unicode="§" d="M389 261q0 21 -15 32.5t-49 24.5l-78 30q-23 -8 -23 -33q0 -17 14 -27.5t54 -25.5l77 -29q20 8 20 28zM585 300q0 -95 -91 -144q33 -33 33 -89q0 -52 -19.5 -92.5t-48.5 -64t-68 -38.5t-72.5 -20t-67.5 -5q-85 0 -164.5 32.5t-125.5 92.5l156 123q24 -35 64 -51.5 t78 -16.5q45 0 45 26q0 15 -19 26t-78 30q-41 13 -68.5 25.5t-55 32t-41 48.5t-13.5 67q0 51 28 88.5t71 59.5q-24 29 -24 76q0 48 18.5 87.5t48 63.5t67 40.5t73 23t69.5 6.5q90 0 156.5 -32.5t93.5 -82.5l-168 -109q-11 21 -38 33t-53 12q-46 0 -46 -25q0 -14 16.5 -23.5 t74.5 -28.5q38 -13 64 -25.5t52.5 -32t39.5 -48t13 -65.5z"/>
<glyph glyph-name="dieresis" horiz-adv-x="360" unicode="¨" d="M345 583q-41 0 -67 24t-26 58q0 45 30 76.5t77 31.5q40 0 66 -24.5t26 -57.5q0 -45 -30 -76.5t-76 -31.5zM94 583q-41 0 -67 24t-26 58q0 45 30 76.5t77 31.5q40 0 66 -24.5t26 -57.5q0 -45 -30 -76.5t-76 -31.5z"/>
<glyph glyph-name="copyright" horiz-adv-x="800" unicode="©" d="M80 353q0 -132 92.5 -225.5t224.5 -93.5t227.5 93.5t95.5 225.5q0 133 -93.5 227t-225.5 94q-133 0 -227 -94t-94 -227zM20 353q0 157 111.5 267t269.5 110q157 0 268 -110t111 -267q0 -156 -111 -265.5t-268 -109.5q-158 0 -269.5 109.5t-111.5 265.5zM596 515l-98 -80 q-26 36 -81 36q-45 0 -71.5 -35t-26.5 -82t27.5 -82.5t76.5 -35.5q53 0 80 33l92 -88q-67 -67 -174 -67q-106 0 -177 64.5t-71 174.5q0 107 72 172.5t176 65.5q52 0 99.5 -20t75.5 -56z"/>
<glyph glyph-name="ordfeminine" horiz-adv-x="390" unicode="ª" d="M358 474q-4 -32 -4 -44h-104q0 19 1 26h-1q-30 -33 -80 -33q-34 0 -59.5 19t-25.5 56q0 111 183 111v6q0 22 -34 22q-35 0 -63 -25l-54 61q56 51 133 51q64 0 97.5 -26.5t33.5 -73.5q0 -18 -5 -45zM262 538l2 9h-7q-66 0 -66 -30q0 -20 25 -20q18 0 30.5 11.5t15.5 29.5z "/>
<glyph glyph-name="guillemotleft" horiz-adv-x="583" unicode="«" d="M239 270l217 243l112 -81l-151 -171l83 -154l-133 -72zM6 282l217 243l110 -81l-151 -171l86 -166l-131 -72z"/>
<glyph glyph-name="logicalnot" horiz-adv-x="666" unicode="¬" d="M447 143v171h-410v144h568v-315h-158z"/>
<glyph glyph-name="uni00AD" horiz-adv-x="335" unicode="­" d="M279 199h-273l30 168h273z"/>
<glyph glyph-name="registered" horiz-adv-x="600" unicode="®" d="M148 492q0 -79 56.5 -135.5t136.5 -56.5q79 0 135 56.5t56 135.5q0 80 -56 136t-135 56q-80 0 -136.5 -56t-56.5 -136zM112 492q0 94 67 160.5t162 66.5q94 0 160.5 -66.5t66.5 -160.5t-66.5 -159.5t-160.5 -65.5q-95 0 -162 65.5t-67 159.5zM479 365h-100l-44 94h-16 v-94h-88v266h114q50 0 85.5 -20t35.5 -66q0 -55 -48 -74zM319 521h26q12 0 20 6.5t8 16.5q0 8 -8.5 13t-19.5 5h-26v-41z"/>
<glyph glyph-name="macron" horiz-adv-x="360" unicode="¯" d="M404 611h-358l16 95h358z"/>
<glyph glyph-name="degree" horiz-adv-x="440" unicode="°" d="M357 554q0 40 -28.5 68.5t-68.5 28.5t-68.5 -28.5t-28.5 -68.5t28.5 -68.5t68.5 -28.5t68.5 28.5t28.5 68.5zM439 554q0 -77 -51 -128t-128 -51t-128 51t-51 128t51 128t128 51t128 -51t51 -128z"/>
<glyph glyph-name="plusminus" horiz-adv-x="666" unicode="±" d="M31 30v152h604v-152h-604zM251 485v121h164v-121h220v-152h-220v-121h-164v121h-220v152h220z"/>
<glyph glyph-name="twosuperior" horiz-adv-x="450" unicode="²" d="M428 439h-367l20 114l202 141q37 26 37 47q0 29 -34 29q-42 0 -54 -53l-134 20q18 72 73 115.5t134 43.5q71 0 119 -33.5t48 -97.5q0 -38 -18.5 -69.5t-37.5 -47t-52 -36.5l-81 -50h166z"/>
<glyph glyph-name="threesuperior" horiz-adv-x="450" unicode="³" d="M445 581q0 -75 -58.5 -114t-133.5 -39q-73 0 -124 34t-65 100l131 32q5 -21 21 -33.5t39 -12.5q19 0 32 9t13 25q0 37 -63 37h-41l17 98h47q64 0 64 36q0 28 -35 28q-18 0 -33 -10t-20 -25l-126 33q23 58 74 87.5t115 29.5q69 0 118.5 -29.5t49.5 -95.5q0 -37 -24.5 -63 t-57.5 -35q28 -11 44 -35.5t16 -56.5z"/>
<glyph glyph-name="acute" horiz-adv-x="360" unicode="´" d="M463 728l-178 -144h-165l135 144h208z"/>
<glyph glyph-name="mu" horiz-adv-x="759" unicode="µ" d="M436 68h-4q-10 -28 -37 -54t-64 -26q-43 0 -59 22h-2l-45 -250h-223l136 766h225l-47 -267q-5 -30 -5 -45q0 -46 45 -46q27 0 43.5 23t22.5 57l50 278h224l-56 -319q-2 -14 -2 -20q0 -35 36 -35q6 0 30 6l-28 -154q-40 -18 -99 -18q-120 0 -141 82z"/>
<glyph glyph-name="paragraph" horiz-adv-x="643" unicode="¶" d="M501 -133h-151l124 703h-56l-124 -703h-150l81 463q-87 5 -135 43.5t-48 105.5q0 115 78.5 172t216.5 57h312z"/>
<glyph glyph-name="periodcentered" horiz-adv-x="354" unicode="·" d="M158 168q-54 0 -87.5 31t-33.5 75q0 59 39 99.5t100 40.5q52 0 86 -31.5t34 -74.5q0 -59 -39 -99.5t-99 -40.5z"/>
<glyph glyph-name="cedilla" horiz-adv-x="360" unicode="¸" d="M235 -130q0 -56 -48 -82.5t-116 -26.5q-75 0 -136 23l41 76q35 -16 85 -16q39 0 39 22q0 19 -34 19q-24 0 -43 -6l-36 34l90 88h113l-59 -54q6 1 17 1q31 0 59 -18t28 -60z"/>
<glyph glyph-name="onesuperior" horiz-adv-x="450" unicode="¹" d="M361 439h-147l52 293l-84 -45l-43 110l167 88h134z"/>
<glyph glyph-name="ordmasculine" horiz-adv-x="390" unicode="º" d="M282 586q0 18 -11.5 29.5t-31.5 11.5q-24 0 -39.5 -18.5t-15.5 -43.5q0 -18 11.5 -30t31.5 -12q25 0 40 18.5t15 44.5zM221 424q-67 0 -111 33.5t-44 93.5q0 75 48 125t129 50q69 0 113 -33.5t44 -93.5q0 -75 -48 -125t-131 -50z"/>
<glyph glyph-name="guillemotright" horiz-adv-x="583" unicode="»" d="M329 282l-217 -243l-112 81l151 171l-83 154l133 72zM562 270l-217 -243l-110 81l151 171l-86 166l131 72z"/>
<glyph glyph-name="onequarter" horiz-adv-x="1000" unicode="¼" d="M790 687l-485 -722l-85 54l484 720zM329 263h-147l52 292l-84 -45l-43 110l167 88h134zM744 193l20 118h-2l-96 -118h78zM917 80h-61l-14 -80h-132l14 80h-210l21 118l202 247h181l-44 -252h63z"/>
<glyph glyph-name="onehalf" horiz-adv-x="1000" unicode="½" d="M790 687l-485 -722l-85 54l484 720zM329 263h-147l52 292l-84 -45l-43 110l167 88h134zM914 0h-367l20 114l202 141q37 26 37 45q0 31 -34 31q-42 0 -54 -53l-134 20q18 72 73 115.5t134 43.5q71 0 119 -33.5t48 -97.5q0 -38 -18.5 -69.5t-37.5 -47t-52 -36.5l-81 -50 h166z"/>
<glyph glyph-name="threequarters" horiz-adv-x="1000" unicode="¾" d="M790 687l-485 -722l-85 54l484 720zM410 409q0 -75 -58.5 -114t-133.5 -39q-73 0 -124 33.5t-65 99.5l131 32q11 -45 60 -45q17 0 31 8.5t14 24.5q0 35 -63 35h-41l17 98h47q64 0 64 34q0 28 -35 28q-18 0 -33 -9.5t-20 -24.5l-126 33q23 58 74 87t115 29q70 0 119 -28.5 t49 -94.5q0 -37 -24.5 -63t-57.5 -35q60 -23 60 -89zM741 194l20 115h-1l-97 -115h78zM912 79h-59l-14 -79h-133l14 79h-214l21 119l213 247h177l-44 -251h59z"/>
<glyph glyph-name="questiondown" horiz-adv-x="583" unicode="¿" d="M300 542q52 0 84 -30t32 -72q0 -56 -37.5 -95t-95.5 -39q-50 0 -82.5 30t-32.5 72q0 56 37 95t95 39zM126 199q42 24 48 55l4 26h207l-6 -37q-10 -54 -39 -86.5t-85 -70.5l-21 -14q-25 -16 -34 -27.5t-9 -27.5q0 -33 41 -33q32 0 50.5 22.5t24.5 57.5l202 -36 q-26 -114 -110 -170.5t-194 -56.5q-109 0 -177 44t-68 142q0 75 38.5 118.5t127.5 93.5z"/>
<glyph glyph-name="Agrave" horiz-adv-x="775" unicode="À" d="M257 908h208l126 -144h-165zM445 285l-21 182l-101 -182h122zM720 0h-240l-16 108h-230l-59 -108h-258l435 708h244z"/>
<glyph glyph-name="Aacute" horiz-adv-x="775" unicode="Á" d="M717 908l-178 -144h-165l135 144h208zM445 285l-21 182l-101 -182h122zM720 0h-240l-16 108h-230l-59 -108h-258l435 708h244z"/>
<glyph glyph-name="Acircumflex" horiz-adv-x="775" unicode="Â" d="M697 764h-152l-55 69l-79 -69h-150l161 144h167zM445 285l-21 182l-101 -182h122zM720 0h-240l-16 108h-230l-59 -108h-258l435 708h244z"/>
<glyph glyph-name="Atilde" horiz-adv-x="775" unicode="Ã" d="M688 900q-15 -61 -52 -100t-87 -39q-39 0 -77 23q-38 22 -59 22q-31 0 -44 -36h-79q14 59 50.5 97t86.5 38q32 0 78 -24q41 -21 62 -21q27 0 43 40h78zM445 285l-21 182l-101 -182h122zM720 0h-240l-16 108h-230l-59 -108h-258l435 708h244z"/>
<glyph glyph-name="Adieresis" horiz-adv-x="775" unicode="Ä" d="M610 763q-41 0 -67 24t-26 58q0 45 30 76.5t77 31.5q40 0 66 -24.5t26 -57.5q0 -45 -30 -76.5t-76 -31.5zM359 763q-41 0 -67 24t-26 58q0 45 30 76.5t77 31.5q40 0 66 -24.5t26 -57.5q0 -45 -30 -76.5t-76 -31.5zM445 285l-21 182l-101 -182h122zM720 0h-240l-16 108 h-230l-59 -108h-258l435 708h244z"/>
<glyph glyph-name="Aring" horiz-adv-x="775" unicode="Å" d="M554 872q0 22 -14.5 37t-38.5 15q-30 0 -50.5 -24t-20.5 -57q0 -23 14 -37.5t38 -14.5q31 0 51.5 23.5t20.5 57.5zM478 745q-44 0 -71.5 26t-27.5 66q0 55 36 93.5t90 38.5q44 0 72 -25.5t28 -66.5q0 -55 -36 -93.5t-91 -38.5zM445 285l-21 182l-101 -182h122zM720 0 h-240l-16 108h-230l-59 -108h-258l435 708h244z"/>
<glyph glyph-name="AE" horiz-adv-x="1012" unicode="Æ" d="M485 287l40 228h-4l-148 -228h112zM1015 708l-34 -193h-245l-12 -68h234l-32 -180h-234l-13 -74h274l-34 -193h-485l19 109h-179l-72 -109h-260l483 708h590z"/>
<glyph glyph-name="Ccedilla" horiz-adv-x="686" unicode="Ç" d="M477 -130q0 -56 -48 -82.5t-116 -26.5q-75 0 -136 23l41 76q35 -16 85 -16q39 0 39 22q0 19 -34 19q-24 0 -43 -6l-36 34l73 72q-128 17 -199.5 99t-71.5 209q0 183 121 309t305 126q88 0 159 -28t110 -71l-161 -166q-36 51 -114 51q-74 0 -121 -56.5t-47 -137.5 q0 -54 34 -89t96 -35q69 0 128 55l114 -170q-100 -88 -244 -99l-38 -35q6 1 17 1q31 0 59 -18t28 -60z"/>
<glyph glyph-name="Egrave" horiz-adv-x="592" unicode="È" d="M154 908h208l126 -144h-165zM499 0h-492l125 708h463l-34 -193h-245l-12 -68h234l-32 -180h-234l-13 -74h274z"/>
<glyph glyph-name="Eacute" horiz-adv-x="592" unicode="É" d="M617 908l-178 -144h-165l135 144h208zM499 0h-492l125 708h463l-34 -193h-245l-12 -68h234l-32 -180h-234l-13 -74h274z"/>
<glyph glyph-name="Ecircumflex" horiz-adv-x="592" unicode="Ê" d="M596 764h-152l-55 69l-79 -69h-150l161 144h167zM499 0h-492l125 708h463l-34 -193h-245l-12 -68h234l-32 -180h-234l-13 -74h274z"/>
<glyph glyph-name="Edieresis" horiz-adv-x="592" unicode="Ë" d="M510 763q-41 0 -67 24t-26 58q0 45 30 76.5t77 31.5q40 0 66 -24.5t26 -57.5q0 -45 -30 -76.5t-76 -31.5zM259 763q-41 0 -67 24t-26 58q0 45 30 76.5t77 31.5q40 0 66 -24.5t26 -57.5q0 -45 -30 -76.5t-76 -31.5zM499 0h-492l125 708h463l-34 -193h-245l-12 -68h234 l-32 -180h-234l-13 -74h274z"/>
<glyph glyph-name="Igrave" horiz-adv-x="367" unicode="Ì" d="M32 908h208l126 -144h-165zM240 0h-233l125 708h233z"/>
<glyph glyph-name="Iacute" horiz-adv-x="367" unicode="Í" d="M480 908l-178 -144h-165l135 144h208zM240 0h-233l125 708h233z"/>
<glyph glyph-name="Icircumflex" horiz-adv-x="367" unicode="Î" d="M476 764h-152l-55 69l-79 -69h-150l161 144h167zM240 0h-233l125 708h233z"/>
<glyph glyph-name="Idieresis" horiz-adv-x="367" unicode="Ï" d="M385 763q-41 0 -67 24t-26 58q0 45 30 76.5t77 31.5q40 0 66 -24.5t26 -57.5q0 -45 -30 -76.5t-76 -31.5zM134 763q-41 0 -67 24t-26 58q0 45 30 76.5t77 31.5q40 0 66 -24.5t26 -57.5q0 -45 -30 -76.5t-76 -31.5zM240 0h-233l125 708h233z"/>
<glyph glyph-name="Eth" horiz-adv-x="787" unicode="Ð" d="M309 428h113l-25 -142h-113l-16 -87h75q85 0 133.5 54t48.5 128q0 58 -35 94.5t-104 36.5h-62zM57 286h-46l25 142h47l49 280h293q63 0 121 -17t108 -51.5t80.5 -95t30.5 -138.5q0 -184 -121.5 -295t-310.5 -111h-326z"/>
<glyph glyph-name="Ntilde" horiz-adv-x="791" unicode="Ñ" d="M680 900q-15 -61 -52 -100t-87 -39q-39 0 -77 23q-38 22 -59 22q-31 0 -44 -36h-79q14 59 50.5 97t86.5 38q32 0 78 -24q41 -21 62 -21q27 0 43 40h78zM664 0h-233l-140 351h-4l-55 -351h-225l125 708h227l143 -369h4l58 369h225z"/>
<glyph glyph-name="Ograve" horiz-adv-x="833" unicode="Ò" d="M271 908h208l126 -144h-165zM572 387q0 56 -34.5 92.5t-95.5 36.5q-75 0 -122.5 -58t-47.5 -135q0 -56 34.5 -92.5t96.5 -36.5q75 0 122 57.5t47 135.5zM382 -18q-167 0 -259 88.5t-92 233.5q0 180 119.5 301t310.5 121q168 0 260 -88t92 -234q0 -180 -119.5 -301 t-311.5 -121z"/>
<glyph glyph-name="Oacute" horiz-adv-x="833" unicode="Ó" d="M730 908l-178 -144h-165l135 144h208zM572 387q0 56 -34.5 92.5t-95.5 36.5q-75 0 -122.5 -58t-47.5 -135q0 -56 34.5 -92.5t96.5 -36.5q75 0 122 57.5t47 135.5zM382 -18q-167 0 -259 88.5t-92 233.5q0 180 119.5 301t310.5 121q168 0 260 -88t92 -234 q0 -180 -119.5 -301t-311.5 -121z"/>
<glyph glyph-name="Ocircumflex" horiz-adv-x="833" unicode="Ô" d="M711 764h-152l-55 69l-79 -69h-150l161 144h167zM572 387q0 56 -34.5 92.5t-95.5 36.5q-75 0 -122.5 -58t-47.5 -135q0 -56 34.5 -92.5t96.5 -36.5q75 0 122 57.5t47 135.5zM382 -18q-167 0 -259 88.5t-92 233.5q0 180 119.5 301t310.5 121q168 0 260 -88t92 -234 q0 -180 -119.5 -301t-311.5 -121z"/>
<glyph glyph-name="Otilde" horiz-adv-x="833" unicode="Õ" d="M702 900q-15 -61 -52 -100t-87 -39q-39 0 -77 23q-38 22 -59 22q-31 0 -44 -36h-79q14 59 50.5 97t86.5 38q32 0 78 -24q41 -21 62 -21q27 0 43 40h78zM572 387q0 56 -34.5 92.5t-95.5 36.5q-75 0 -122.5 -58t-47.5 -135q0 -56 34.5 -92.5t96.5 -36.5q75 0 122 57.5 t47 135.5zM382 -18q-167 0 -259 88.5t-92 233.5q0 180 119.5 301t310.5 121q168 0 260 -88t92 -234q0 -180 -119.5 -301t-311.5 -121z"/>
<glyph glyph-name="Odieresis" horiz-adv-x="833" unicode="Ö" d="M626 763q-41 0 -67 24t-26 58q0 45 30 76.5t77 31.5q40 0 66 -24.5t26 -57.5q0 -45 -30 -76.5t-76 -31.5zM375 763q-41 0 -67 24t-26 58q0 45 30 76.5t77 31.5q40 0 66 -24.5t26 -57.5q0 -45 -30 -76.5t-76 -31.5zM572 387q0 56 -34.5 92.5t-95.5 36.5q-75 0 -122.5 -58 t-47.5 -135q0 -56 34.5 -92.5t96.5 -36.5q75 0 122 57.5t47 135.5zM382 -18q-167 0 -259 88.5t-92 233.5q0 180 119.5 301t310.5 121q168 0 260 -88t92 -234q0 -180 -119.5 -301t-311.5 -121z"/>
<glyph glyph-name="multiply" horiz-adv-x="666" unicode="×" d="M164 575l171 -163l166 162l112 -104l-167 -165q29 -27 86.5 -82t86.5 -82l-114 -112q-28 28 -85 82.5t-86 82.5l-171 -165q-18 18 -55.5 52.5t-56.5 52.5l169 168l-172 162z"/>
<glyph glyph-name="Oslash" horiz-adv-x="833" unicode="Ø" d="M449 519q-90 0 -138 -59.5t-48 -141.5q0 -13 3 -28l240 220q-21 9 -57 9zM392 188q90 0 138 59t48 141q0 10 -4 30l-240 -220q23 -10 58 -10zM157 43l-108 -98l-80 80l109 99q-47 77 -47 180q0 180 119.5 301t310.5 121q129 0 221 -57l102 96l80 -81l-103 -93 q52 -78 52 -187q0 -180 -119.5 -301t-311.5 -121q-134 0 -225 61z"/>
<glyph glyph-name="Ugrave" horiz-adv-x="771" unicode="Ù" d="M233 908h208l126 -144h-165zM696 260q-23 -131 -111 -204.5t-241 -73.5q-138 0 -221 59.5t-83 161.5q0 26 6 66l75 439h229l-73 -409q-2 -11 -2 -33q0 -36 21.5 -59.5t66.5 -23.5q29 0 50 9.5t32.5 27.5t17 34.5t10.5 40.5l75 413h225z"/>
<glyph glyph-name="Uacute" horiz-adv-x="771" unicode="Ú" d="M702 908l-178 -144h-165l135 144h208zM696 260q-23 -131 -111 -204.5t-241 -73.5q-138 0 -221 59.5t-83 161.5q0 26 6 66l75 439h229l-73 -409q-2 -11 -2 -33q0 -36 21.5 -59.5t66.5 -23.5q29 0 50 9.5t32.5 27.5t17 34.5t10.5 40.5l75 413h225z"/>
<glyph glyph-name="Ucircumflex" horiz-adv-x="771" unicode="Û" d="M678 764h-152l-55 69l-79 -69h-150l161 144h167zM696 260q-23 -131 -111 -204.5t-241 -73.5q-138 0 -221 59.5t-83 161.5q0 26 6 66l75 439h229l-73 -409q-2 -11 -2 -33q0 -36 21.5 -59.5t66.5 -23.5q29 0 50 9.5t32.5 27.5t17 34.5t10.5 40.5l75 413h225z"/>
<glyph glyph-name="Udieresis" horiz-adv-x="771" unicode="Ü" d="M594 763q-41 0 -67 24t-26 58q0 45 30 76.5t77 31.5q40 0 66 -24.5t26 -57.5q0 -45 -30 -76.5t-76 -31.5zM343 763q-41 0 -67 24t-26 58q0 45 30 76.5t77 31.5q40 0 66 -24.5t26 -57.5q0 -45 -30 -76.5t-76 -31.5zM696 260q-23 -131 -111 -204.5t-241 -73.5 q-138 0 -221 59.5t-83 161.5q0 26 6 66l75 439h229l-73 -409q-2 -11 -2 -33q0 -36 21.5 -59.5t66.5 -23.5q29 0 50 9.5t32.5 27.5t17 34.5t10.5 40.5l75 413h225z"/>
<glyph glyph-name="Yacute" horiz-adv-x="677" unicode="Ý" d="M668 908l-178 -144h-165l135 144h208zM789 708l-349 -417l-51 -291h-231l51 291l-187 417h258l76 -219l151 219h282z"/>
<glyph glyph-name="Thorn" horiz-adv-x="690" unicode="Þ" d="M328 301q102 0 102 66q0 56 -82 56h-35l-22 -122h37zM261 127l-24 -127h-230l125 708h231l-18 -104h33q135 0 208.5 -56.5t73.5 -157.5q0 -133 -86 -198t-245 -65h-68z"/>
<glyph glyph-name="germandbls" horiz-adv-x="712" unicode="ß" d="M354 -12q-55 0 -96 11l28 164q19 -7 48 -7q95 0 95 90q0 34 -25.5 52.5t-64.5 18.5h-9l27 161h10q35 0 60.5 17t25.5 54q0 54 -59 54q-67 0 -85 -99l-89 -504h-227l90 509q8 44 20.5 79.5t37 70t58.5 58t87 37.5t120 14q37 0 72 -5.5t70.5 -19t61.5 -33.5t42.5 -53 t16.5 -74q0 -75 -40.5 -119t-103.5 -57v-2q52 -14 90.5 -57.5t38.5 -111.5q0 -121 -77 -184.5t-223 -63.5z"/>
<glyph glyph-name="agrave" horiz-adv-x="588" unicode="à" d="M119 728h208l126 -144h-165zM505 81q-7 -41 -7 -81h-192q0 22 2 48h-2q-55 -62 -148 -62q-63 0 -110 35t-47 104q0 205 337 205q1 5 1 11q0 20 -17 30.5t-46 10.5q-63 0 -117 -46l-98 112q47 44 114.5 69t130.5 25q118 0 179.5 -48.5t61.5 -136.5q0 -37 -8 -83zM329 199 l3 17h-13q-122 0 -122 -56q0 -36 46 -36q33 0 56.5 21t29.5 54z"/>
<glyph glyph-name="aacute" horiz-adv-x="588" unicode="á" d="M575 728l-178 -144h-165l135 144h208zM504 81q-7 -41 -7 -81h-192q0 22 2 48h-2q-55 -62 -148 -62q-63 0 -110 35t-47 104q0 205 337 205q1 5 1 11q0 20 -17 30.5t-46 10.5q-63 0 -117 -46l-98 112q47 44 114.5 69t130.5 25q118 0 179.5 -48.5t61.5 -136.5q0 -37 -8 -83z M328 199l3 17h-13q-122 0 -122 -56q0 -36 46 -36q33 0 56.5 21t29.5 54z"/>
<glyph glyph-name="acircumflex" horiz-adv-x="588" unicode="â" d="M551 584h-152l-55 69l-79 -69h-150l161 144h167zM504 81q-7 -41 -7 -81h-192q0 22 2 48h-2q-55 -62 -148 -62q-63 0 -110 35t-47 104q0 205 337 205q1 5 1 11q0 20 -17 30.5t-46 10.5q-63 0 -117 -46l-98 112q47 44 114.5 69t130.5 25q118 0 179.5 -48.5t61.5 -136.5 q0 -37 -8 -83zM328 199l3 17h-13q-122 0 -122 -56q0 -36 46 -36q33 0 56.5 21t29.5 54z"/>
<glyph glyph-name="atilde" horiz-adv-x="588" unicode="ã" d="M541 720q-15 -61 -52 -100t-87 -39q-39 0 -77 23q-38 22 -59 22q-31 0 -44 -36h-79q14 59 50.5 97t86.5 38q32 0 78 -24q41 -21 62 -21q27 0 43 40h78zM504 81q-7 -41 -7 -81h-192q0 22 2 48h-2q-55 -62 -148 -62q-63 0 -110 35t-47 104q0 205 337 205q1 5 1 11 q0 20 -17 30.5t-46 10.5q-63 0 -117 -46l-98 112q47 44 114.5 69t130.5 25q118 0 179.5 -48.5t61.5 -136.5q0 -37 -8 -83zM328 199l3 17h-13q-122 0 -122 -56q0 -36 46 -36q33 0 56.5 21t29.5 54z"/>
<glyph glyph-name="adieresis" horiz-adv-x="588" unicode="ä" d="M466 583q-41 0 -67 24t-26 58q0 45 30 76.5t77 31.5q40 0 66 -24.5t26 -57.5q0 -45 -30 -76.5t-76 -31.5zM215 583q-41 0 -67 24t-26 58q0 45 30 76.5t77 31.5q40 0 66 -24.5t26 -57.5q0 -45 -30 -76.5t-76 -31.5zM504 81q-7 -41 -7 -81h-192q0 22 2 48h-2 q-55 -62 -148 -62q-63 0 -110 35t-47 104q0 205 337 205q1 5 1 11q0 20 -17 30.5t-46 10.5q-63 0 -117 -46l-98 112q47 44 114.5 69t130.5 25q118 0 179.5 -48.5t61.5 -136.5q0 -37 -8 -83zM328 199l3 17h-13q-122 0 -122 -56q0 -36 46 -36q33 0 56.5 21t29.5 54z"/>
<glyph glyph-name="aring" horiz-adv-x="588" unicode="å" d="M409 692q0 22 -14.5 37t-38.5 15q-30 0 -50.5 -24t-20.5 -57q0 -23 14 -37.5t38 -14.5q31 0 51.5 23.5t20.5 57.5zM333 565q-44 0 -71.5 26t-27.5 66q0 55 36 93.5t90 38.5q44 0 72 -25.5t28 -66.5q0 -55 -36 -93.5t-91 -38.5zM504 81q-7 -41 -7 -81h-192q0 22 2 48h-2 q-55 -62 -148 -62q-63 0 -110 35t-47 104q0 205 337 205q1 5 1 11q0 20 -17 30.5t-46 10.5q-63 0 -117 -46l-98 112q47 44 114.5 69t130.5 25q118 0 179.5 -48.5t61.5 -136.5q0 -37 -8 -83zM328 199l3 17h-13q-122 0 -122 -56q0 -36 46 -36q33 0 56.5 21t29.5 54z"/>
<glyph glyph-name="ae" horiz-adv-x="922" unicode="æ" d="M692 330q1 4 1 12q0 25 -18.5 40t-51.5 15q-37 0 -63.5 -21.5t-32.5 -45.5h165zM638 542q115 0 182 -63t67 -172q0 -51 -14 -96h-358q-1 -3 -1 -7q0 -29 27.5 -42.5t58.5 -13.5q56 0 92 35l151 -104q-94 -95 -258 -95q-61 0 -112.5 19t-77.5 60q-58 -77 -196 -77 q-87 0 -143 33.5t-56 105.5q0 205 337 205q1 5 1 11q0 20 -17 30.5t-46 10.5q-63 0 -117 -46l-98 112q47 44 114.5 69t130.5 25q122 0 165 -61q59 61 168 61zM328 199l3 17h-13q-122 0 -122 -56q0 -36 46 -36q33 0 56.5 21t29.5 54z"/>
<glyph glyph-name="ccedilla" horiz-adv-x="504" unicode="ç" d="M367 -130q0 -56 -48 -82.5t-116 -26.5q-75 0 -136 23l41 76q35 -16 85 -16q39 0 39 22q0 19 -34 19q-24 0 -43 -6l-36 34l79 78q-88 17 -138.5 77.5t-50.5 150.5q0 133 91.5 228t233.5 95q137 0 195 -70l-127 -139q-19 28 -67 28q-49 0 -80 -32.5t-31 -79.5 q0 -32 22 -54.5t63 -22.5q47 0 77 30l89 -151q-72 -57 -170 -65l-42 -39q6 1 17 1q31 0 59 -18t28 -60z"/>
<glyph glyph-name="egrave" horiz-adv-x="622" unicode="è" d="M135 728h208l126 -144h-165zM392 330q1 4 1 12q0 25 -18.5 40t-51.5 15q-37 0 -63.5 -21.5t-32.5 -45.5h165zM573 211h-358q-1 -3 -1 -7q0 -29 27.5 -42.5t58.5 -13.5q56 0 92 35l151 -104q-94 -95 -258 -95q-119 0 -197.5 62.5t-78.5 176.5q0 136 92.5 227.5t236.5 91.5 q115 0 182 -63t67 -172q0 -51 -14 -96z"/>
<glyph glyph-name="eacute" horiz-adv-x="622" unicode="é" d="M601 728l-178 -144h-165l135 144h208zM392 330q1 4 1 12q0 25 -18.5 40t-51.5 15q-37 0 -63.5 -21.5t-32.5 -45.5h165zM573 211h-358q-1 -3 -1 -7q0 -29 27.5 -42.5t58.5 -13.5q56 0 92 35l151 -104q-94 -95 -258 -95q-119 0 -197.5 62.5t-78.5 176.5q0 136 92.5 227.5 t236.5 91.5q115 0 182 -63t67 -172q0 -51 -14 -96z"/>
<glyph glyph-name="ecircumflex" horiz-adv-x="622" unicode="ê" d="M581 584h-152l-55 69l-79 -69h-150l161 144h167zM392 330q1 4 1 12q0 25 -18.5 40t-51.5 15q-37 0 -63.5 -21.5t-32.5 -45.5h165zM573 211h-358q-1 -3 -1 -7q0 -29 27.5 -42.5t58.5 -13.5q56 0 92 35l151 -104q-94 -95 -258 -95q-119 0 -197.5 62.5t-78.5 176.5 q0 136 92.5 227.5t236.5 91.5q115 0 182 -63t67 -172q0 -51 -14 -96z"/>
<glyph glyph-name="edieresis" horiz-adv-x="622" unicode="ë" d="M494 583q-41 0 -67 24t-26 58q0 45 30 76.5t77 31.5q40 0 66 -24.5t26 -57.5q0 -45 -30 -76.5t-76 -31.5zM243 583q-41 0 -67 24t-26 58q0 45 30 76.5t77 31.5q40 0 66 -24.5t26 -57.5q0 -45 -30 -76.5t-76 -31.5zM392 330q1 4 1 12q0 25 -18.5 40t-51.5 15 q-37 0 -63.5 -21.5t-32.5 -45.5h165zM573 211h-358q-1 -3 -1 -7q0 -29 27.5 -42.5t58.5 -13.5q56 0 92 35l151 -104q-94 -95 -258 -95q-119 0 -197.5 62.5t-78.5 176.5q0 136 92.5 227.5t236.5 91.5q115 0 182 -63t67 -172q0 -51 -14 -96z"/>
<glyph glyph-name="igrave" horiz-adv-x="335" unicode="ì" d="M-21 728h208l126 -144h-165zM219 0h-224l93 526h224z"/>
<glyph glyph-name="iacute" horiz-adv-x="335" unicode="í" d="M434 728l-178 -144h-165l135 144h208zM219 0h-224l93 526h224z"/>
<glyph glyph-name="icircumflex" horiz-adv-x="335" unicode="î" d="M427 584h-152l-55 69l-79 -69h-150l161 144h167zM219 0h-224l93 526h224z"/>
<glyph glyph-name="idieresis" horiz-adv-x="335" unicode="ï" d="M340 583q-41 0 -67 24t-26 58q0 45 30 76.5t77 31.5q40 0 66 -24.5t26 -57.5q0 -45 -30 -76.5t-76 -31.5zM89 583q-41 0 -67 24t-26 58q0 45 30 76.5t77 31.5q40 0 66 -24.5t26 -57.5q0 -45 -30 -76.5t-76 -31.5zM219 0h-224l93 526h224z"/>
<glyph glyph-name="eth" horiz-adv-x="660" unicode="ð" d="M407 283q0 34 -20.5 55t-58.5 21q-45 0 -73 -33.5t-28 -81.5q0 -34 20.5 -55t57.5 -21q47 0 74.5 33t27.5 82zM332 534q20 0 36 -3l2 1q-18 26 -43 49l-114 -43l-94 89l114 43q-20 20 -61 49l205 94q43 -37 65 -65l115 42l105 -94l-136 -49q99 -133 99 -325 q0 -148 -88 -243t-242 -95q-125 0 -205.5 62t-80.5 173q0 139 83 227t240 88z"/>
<glyph glyph-name="ntilde" horiz-adv-x="661" unicode="ñ" d="M580 720q-15 -61 -52 -100t-87 -39q-39 0 -77 23q-38 22 -59 22q-31 0 -44 -36h-79q14 59 50.5 97t86.5 38q32 0 78 -24q41 -21 62 -21q27 0 43 40h78zM68 423q10 50 15 103h216q0 -9 -7 -68h4q24 34 66.5 57t89.5 23q82 0 121.5 -44t39.5 -111q0 -35 -6 -67l-55 -316 h-225l49 279q3 18 3 34q0 45 -46 45q-23 0 -40.5 -21t-24.5 -59l-50 -278h-224z"/>
<glyph glyph-name="ograve" horiz-adv-x="660" unicode="ò" d="M128 728h208l126 -144h-165zM407 283q0 34 -20.5 55t-58.5 21q-45 0 -73 -33.5t-28 -81.5q0 -34 20.5 -55t57.5 -21q47 0 74.5 33t27.5 82zM295 -16q-125 0 -205.5 62t-80.5 173q0 138 88 230.5t238 92.5q128 0 209 -62t81 -173q0 -138 -88.5 -230.5t-241.5 -92.5z"/>
<glyph glyph-name="oacute" horiz-adv-x="660" unicode="ó" d="M610 728l-178 -144h-165l135 144h208zM407 283q0 34 -20.5 55t-58.5 21q-45 0 -73 -33.5t-28 -81.5q0 -34 20.5 -55t57.5 -21q47 0 74.5 33t27.5 82zM295 -16q-125 0 -205.5 62t-80.5 173q0 138 88 230.5t238 92.5q128 0 209 -62t81 -173q0 -138 -88.5 -230.5 t-241.5 -92.5z"/>
<glyph glyph-name="ocircumflex" horiz-adv-x="660" unicode="ô" d="M592 584h-152l-55 69l-79 -69h-150l161 144h167zM407 283q0 34 -20.5 55t-58.5 21q-45 0 -73 -33.5t-28 -81.5q0 -34 20.5 -55t57.5 -21q47 0 74.5 33t27.5 82zM295 -16q-125 0 -205.5 62t-80.5 173q0 138 88 230.5t238 92.5q128 0 209 -62t81 -173q0 -138 -88.5 -230.5 t-241.5 -92.5z"/>
<glyph glyph-name="otilde" horiz-adv-x="660" unicode="õ" d="M582 720q-15 -61 -52 -100t-87 -39q-39 0 -77 23q-38 22 -59 22q-31 0 -44 -36h-79q14 59 50.5 97t86.5 38q32 0 78 -24q41 -21 62 -21q27 0 43 40h78zM407 283q0 34 -20.5 55t-58.5 21q-45 0 -73 -33.5t-28 -81.5q0 -34 20.5 -55t57.5 -21q47 0 74.5 33t27.5 82z M295 -16q-125 0 -205.5 62t-80.5 173q0 138 88 230.5t238 92.5q128 0 209 -62t81 -173q0 -138 -88.5 -230.5t-241.5 -92.5z"/>
<glyph glyph-name="odieresis" horiz-adv-x="660" unicode="ö" d="M508 583q-41 0 -67 24t-26 58q0 45 30 76.5t77 31.5q40 0 66 -24.5t26 -57.5q0 -45 -30 -76.5t-76 -31.5zM257 583q-41 0 -67 24t-26 58q0 45 30 76.5t77 31.5q40 0 66 -24.5t26 -57.5q0 -45 -30 -76.5t-76 -31.5zM407 283q0 34 -20.5 55t-58.5 21q-45 0 -73 -33.5 t-28 -81.5q0 -34 20.5 -55t57.5 -21q47 0 74.5 33t27.5 82zM295 -16q-125 0 -205.5 62t-80.5 173q0 138 88 230.5t238 92.5q128 0 209 -62t81 -173q0 -138 -88.5 -230.5t-241.5 -92.5z"/>
<glyph glyph-name="divide" horiz-adv-x="666" unicode="÷" d="M587 230h-508v147h508v-147zM235 111q0 38 29.5 65.5t69.5 27.5t68.5 -27.5t28.5 -65.5t-28.5 -66.5t-68.5 -28.5t-69.5 28.5t-29.5 66.5zM235 495q0 38 29.5 65.5t69.5 27.5t68.5 -27.5t28.5 -65.5q0 -40 -28.5 -67.5t-68.5 -27.5t-69.5 28t-29.5 67z"/>
<glyph glyph-name="oslash" horiz-adv-x="660" unicode="ø" d="M222 263q0 -11 1 -14l132 115q-8 4 -25 4q-50 0 -79 -32t-29 -73zM413 268q0 9 -2 15l-132 -114q9 -7 31 -7q50 0 76.5 32t26.5 74zM589 423q36 -49 36 -116q0 -138 -88.5 -230.5t-241.5 -92.5q-106 0 -171 44l-94 -82l-69 82l87 72q-39 47 -39 123q0 132 88.5 225.5 t237.5 93.5q109 0 177 -45l84 71l70 -81z"/>
<glyph glyph-name="ugrave" horiz-adv-x="658" unicode="ù" d="M122 728h208l126 -144h-165zM562 103q-10 -50 -15 -103h-216q0 9 7 68h-4q-24 -34 -66.5 -57t-89.5 -23q-82 0 -121.5 44t-39.5 111q0 35 6 67l55 316h225l-49 -279q-3 -18 -3 -34q0 -45 46 -45q23 0 40.5 21t24.5 59l50 278h224z"/>
<glyph glyph-name="uacute" horiz-adv-x="658" unicode="ú" d="M618 728l-178 -144h-165l135 144h208zM562 103q-10 -50 -15 -103h-216q0 9 7 68h-4q-24 -34 -66.5 -57t-89.5 -23q-82 0 -121.5 44t-39.5 111q0 35 6 67l55 316h225l-49 -279q-3 -18 -3 -34q0 -45 46 -45q23 0 40.5 21t24.5 59l50 278h224z"/>
<glyph glyph-name="ucircumflex" horiz-adv-x="658" unicode="û" d="M589 584h-152l-55 69l-79 -69h-150l161 144h167zM562 103q-10 -50 -15 -103h-216q0 9 7 68h-4q-24 -34 -66.5 -57t-89.5 -23q-82 0 -121.5 44t-39.5 111q0 35 6 67l55 316h225l-49 -279q-3 -18 -3 -34q0 -45 46 -45q23 0 40.5 21t24.5 59l50 278h224z"/>
<glyph glyph-name="udieresis" horiz-adv-x="658" unicode="ü" d="M503 583q-41 0 -67 24t-26 58q0 45 30 76.5t77 31.5q40 0 66 -24.5t26 -57.5q0 -45 -30 -76.5t-76 -31.5zM252 583q-41 0 -67 24t-26 58q0 45 30 76.5t77 31.5q40 0 66 -24.5t26 -57.5q0 -45 -30 -76.5t-76 -31.5zM562 103q-10 -50 -15 -103h-216q0 9 7 68h-4 q-24 -34 -66.5 -57t-89.5 -23q-82 0 -121.5 44t-39.5 111q0 35 6 67l55 316h225l-49 -279q-3 -18 -3 -34q0 -45 46 -45q23 0 40.5 21t24.5 59l50 278h224z"/>
<glyph glyph-name="yacute" horiz-adv-x="631" unicode="ý" d="M612 728l-178 -144h-165l135 144h208zM144 -4l6 11l-126 519h248l32 -288h4l123 288h240l-305 -558q-60 -111 -120.5 -159.5t-168.5 -48.5q-65 0 -115 16l38 177q27 -12 53 -12q62 0 91 55z"/>
<glyph glyph-name="thorn" horiz-adv-x="690" unicode="þ" d="M173 -240h-222l176 996h224l-48 -276h2q24 26 62 42t76 16q100 0 156 -63.5t56 -161.5q0 -136 -84 -231t-209 -95q-41 0 -79.5 15t-56.5 40h-2zM437 283q0 33 -21 54.5t-59 21.5q-45 0 -73.5 -33.5t-28.5 -81.5q0 -34 21 -55t58 -21q47 0 75 33t28 82z"/>
<glyph glyph-name="OE" horiz-adv-x="992" unicode="Œ" d="M449 196l56 313h-52q-85 0 -133.5 -54t-48.5 -128q0 -58 35 -94.5t104 -36.5h39zM463 708h532l-34 -193h-245l-12 -68h234l-32 -180h-234l-13 -74h274l-34 -193h-528q-63 0 -121 17t-108 51.5t-80.5 95t-30.5 138.5q0 184 121.5 295t310.5 111z"/>
<glyph glyph-name="oe" horiz-adv-x="1007" unicode="œ" d="M777 330q1 4 1 12q0 25 -18.5 40t-51.5 15q-37 0 -63.5 -21.5t-32.5 -45.5h165zM407 283q0 34 -20.5 55t-58.5 21q-45 0 -73 -33.5t-28 -81.5q0 -34 20.5 -55t57.5 -21q47 0 74.5 33t27.5 82zM483 54q-62 -70 -188 -70q-125 0 -205.5 62t-80.5 173q0 138 88 230.5 t238 92.5q127 0 191 -75q63 75 197 75q115 0 182 -63t67 -172q0 -51 -14 -96h-358q-1 -3 -1 -7q0 -29 27.5 -42.5t58.5 -13.5q56 0 92 35l151 -104q-94 -95 -258 -95q-58 0 -109.5 17.5t-77.5 52.5z"/>
<glyph glyph-name="Scaron" horiz-adv-x="601" unicode="Š" d="M614 908l-158 -144h-167l-111 144h150l55 -70l79 70h152zM621 640l-148 -143q-40 45 -107 45q-30 0 -51.5 -13t-21.5 -36q0 -18 17 -29.5t58 -24.5q96 -32 145.5 -81t49.5 -126q0 -65 -29.5 -115.5t-77 -79t-101.5 -43t-110 -14.5q-85 0 -166 27t-130 75l158 146 q22 -26 63 -43t74 -17q35 0 56 12t21 33q0 18 -18.5 32t-64.5 29q-89 29 -135.5 72t-46.5 125q0 111 87 184t225 73q76 0 145.5 -24t107.5 -64z"/>
<glyph glyph-name="scaron" horiz-adv-x="494" unicode="š" d="M520 728l-158 -144h-167l-111 144h150l55 -70l79 70h152zM-45 54l114 136q52 -52 123 -52q43 0 43 23q0 20 -55 35q-75 22 -112.5 56.5t-37.5 95.5q0 93 74 144t174 51q63 0 120.5 -17.5t92.5 -49.5l-115 -132q-17 18 -47 30.5t-59 12.5q-45 0 -45 -23q0 -10 10 -15.5 t37 -12.5q81 -20 123.5 -57.5t42.5 -103.5q0 -67 -40.5 -112.5t-95 -63t-116.5 -17.5q-145 0 -231 72z"/>
<glyph glyph-name="Ydieresis" horiz-adv-x="677" unicode="Ÿ" d="M537 763q-41 0 -67 24t-26 58q0 45 30 76.5t77 31.5q40 0 66 -24.5t26 -57.5q0 -45 -30 -76.5t-76 -31.5zM286 763q-41 0 -67 24t-26 58q0 45 30 76.5t77 31.5q40 0 66 -24.5t26 -57.5q0 -45 -30 -76.5t-76 -31.5zM789 708l-349 -417l-51 -291h-231l51 291l-187 417h258 l76 -219l151 219h282z"/>
<glyph glyph-name="circumflex" horiz-adv-x="360" unicode="ˆ" d="M438 584h-152l-55 69l-79 -69h-150l161 144h167z"/>
<glyph glyph-name="tilde" horiz-adv-x="360" unicode="˜" d="M431 720q-15 -61 -52 -100t-87 -39q-39 0 -77 23q-38 22 -59 22q-31 0 -44 -36h-79q14 59 50.5 97t86.5 38q32 0 78 -24q41 -21 62 -21q27 0 43 40h78z"/>
<glyph glyph-name="uni0394" horiz-adv-x="780" unicode="Δ" d="M464 177l-38 290l-166 -290h204zM675 0h-722l21 96l380 612h244l105 -578z"/>
<glyph glyph-name="uni03BC" horiz-adv-x="759" unicode="μ" d="M436 68h-4q-10 -28 -37 -54t-64 -26q-43 0 -59 22h-2l-45 -250h-223l136 766h225l-47 -267q-5 -30 -5 -45q0 -46 45 -46q27 0 43.5 23t22.5 57l50 278h224l-56 -319q-2 -14 -2 -20q0 -35 36 -35q6 0 30 6l-28 -154q-40 -18 -99 -18q-120 0 -141 82z"/>
<glyph glyph-name="pi" horiz-adv-x="761" unicode="π" d="M681 156l-26 -150q-52 -20 -103 -20q-167 0 -167 134q0 19 5 47l31 173h-78l-100 -340h-223l110 340h-87l33 186h675l-33 -186h-87l-21 -114q-4 -24 -4 -36q0 -38 45 -38q13 0 30 4z"/>
<glyph glyph-name="endash" horiz-adv-x="400" unicode="–" d="M19 225l22 120h340l-22 -120h-340z"/>
<glyph glyph-name="emdash" horiz-adv-x="600" unicode="—" d="M19 225l22 120h540l-22 -120h-540z"/>
<glyph glyph-name="quoteleft" horiz-adv-x="350" unicode="‘" d="M373 708l-124 -281h-185l149 281h160z"/>
<glyph glyph-name="quotesinglbase" horiz-adv-x="350" unicode="‚" d="M276 155l-147 -281h-161l123 281h185z"/>
<glyph glyph-name="quotedblleft" horiz-adv-x="562" unicode="“" d="M365 708l-128 -281h-180l148 281h160zM589 708l-123 -281h-180l143 281h160z"/>
<glyph glyph-name="quotedblright" horiz-adv-x="562" unicode="”" d="M362 708l-144 -281h-160l124 281h180zM590 708l-148 -281h-160l128 281h180z"/>
<glyph glyph-name="dagger" horiz-adv-x="617" unicode="†" d="M584 345h-187l-84 -478h-180l84 478h-182l29 166h181l35 197h180l-35 -197h188z"/>
<glyph glyph-name="daggerdbl" horiz-adv-x="617" unicode="‡" d="M530 37h-185l-30 -170h-179l30 170h-184l28 160h184l32 181h-184l28 160h183l30 170h179l-30 -170h186l-28 -160h-186l-32 -181h186z"/>
<glyph glyph-name="ellipsis" horiz-adv-x="1000" unicode="…" d="M795 -12q-54 0 -87.5 31t-33.5 75q0 59 39 99.5t100 40.5q52 0 86 -31.5t34 -74.5q0 -59 -39 -99.5t-99 -40.5zM461 -12q-54 0 -87.5 31t-33.5 75q0 59 39 99.5t100 40.5q52 0 86 -31.5t34 -74.5q0 -59 -39 -99.5t-99 -40.5zM127 -12q-54 0 -87.5 31t-33.5 75 q0 59 39 99.5t100 40.5q52 0 86 -31.5t34 -74.5q0 -59 -39 -99.5t-99 -40.5z"/>
<glyph glyph-name="perthousand" horiz-adv-x="1262" unicode="‰" d="M744 683l-547 -722l-86 58l546 720zM1095 181q0 21 -13 34.5t-36 13.5q-28 0 -45.5 -21.5t-17.5 -52.5q0 -21 13 -34.5t35 -13.5q29 0 46.5 21.5t17.5 52.5zM1023 -12q-77 0 -125 41t-48 113q0 87 57 146t146 59q78 0 126.5 -41t48.5 -113q0 -86 -58.5 -145.5 t-146.5 -59.5zM689 181q0 21 -13 34.5t-36 13.5q-28 0 -45.5 -21.5t-17.5 -52.5q0 -21 13 -34.5t35 -13.5q29 0 46.5 21.5t17.5 52.5zM617 -12q-77 0 -125 41t-48 113q0 87 57 146t146 59q78 0 126.5 -41t48.5 -113q0 -86 -58.5 -145.5t-146.5 -59.5zM297 554q0 21 -13 34.5 t-36 13.5q-28 0 -45.5 -21.5t-17.5 -52.5q0 -21 13 -34.5t35 -13.5q29 0 46.5 21.5t17.5 52.5zM225 361q-77 0 -125 41t-48 113q0 87 57 146t146 59q78 0 126.5 -41t48.5 -113q0 -86 -58.5 -145.5t-146.5 -59.5z"/>
<glyph glyph-name="guilsinglleft" horiz-adv-x="348" unicode="‹" d="M6 282l217 243l110 -81l-151 -171l86 -166l-131 -72z"/>
<glyph glyph-name="guilsinglright" horiz-adv-x="348" unicode="›" d="M327 278l-217 -243l-110 81l151 171l-86 167l131 71z"/>
<glyph glyph-name="fraction" horiz-adv-x="100" unicode="⁄" d="M340 687l-485 -722l-85 54l484 720z"/>
<glyph glyph-name="Euro" d="M123 335q0 18 7 41h-87l70 131h53q48 105 143 163t229 58q94 0 159 -24l-78 -163q-41 17 -95 17q-38 0 -73 -14t-51 -37h206l-64 -131h-201q-5 -18 -7 -41h197l-63 -129h-131q8 -24 39 -38t71 -14q74 0 125 27l16 -168q-62 -33 -180 -33q-121 0 -198 61.5t-91 164.5h-108 l65 129h47z" unicode="€"/>
<glyph glyph-name="trademark" horiz-adv-x="1000" unicode="™" d="M506 296v412h164l89 -248l83 248h163v-412h-112v245h-2l-92 -245h-91l-89 245h-2v-245h-111zM212 296v309h-112v103h346v-103h-112v-309h-122z"/>
<glyph glyph-name="partialdiff" horiz-adv-x="776" unicode="∂" d="M456 303v2q-27 16 -67 16q-35 0 -55 -19.5t-20 -55.5q0 -38 20.5 -57.5t42.5 -19.5q43 0 60 32.5t19 101.5zM664 360q0 -50 -6 -95.5t-25 -98t-50 -90.5t-85 -63.5t-125 -25.5q-121 0 -198 67.5t-77 181.5q0 103 68 169t193 66q48 0 87 -17q-9 79 -103 79q-79 0 -155 -63 l-95 154q110 97 263 97q69 0 123.5 -22.5t88.5 -58t56 -84t31 -97t9 -99.5z"/>
<glyph glyph-name="product" horiz-adv-x="765" unicode="∏" d="M711 -214h-190v837h-277v-837h-188v1000h655v-1000z"/>
<glyph glyph-name="summation" horiz-adv-x="684" unicode="∑" d="M664 -214h-637v133q47 63 141 187t140 186q-45 60 -135.5 180t-134.5 181v133h615v-163h-382q39 -55 118.5 -165t118.5 -165l-253 -344h409v-163z"/>
<glyph glyph-name="minus" horiz-adv-x="666" unicode="−" d="M74 376h518v-144h-518v144z"/>
<glyph glyph-name="radical" horiz-adv-x="601" unicode="√" d="M609 786l-217 -1000h-146q-23 47 -69.5 141.5t-68.5 141.5l-51 -23l-67 138q33 14 101 44.5t101 45.5q16 -34 48 -102.5t47 -102.5l148 717h174z"/>
<glyph glyph-name="infinity" horiz-adv-x="859" unicode="∞" d="M338 265q-60 56 -96 56q-22 0 -36.5 -16t-14.5 -39q0 -25 14.5 -39.5t39.5 -14.5q40 0 93 53zM668 266q0 26 -14.5 41t-39.5 15q-38 0 -93 -57q50 -54 96 -54q23 0 37 15.5t14 39.5zM814 269q0 -85 -53 -142.5t-144 -57.5q-101 0 -187 94q-42 -44 -84 -68.5t-100 -24.5 q-91 0 -146 56t-55 142q0 84 53.5 139.5t143.5 55.5q59 0 103 -26.5t85 -72.5q85 100 188 100q90 0 143 -55.5t53 -139.5z"/>
<glyph glyph-name="approxequal" horiz-adv-x="666" unicode="≈" d="M619 251q-5 -36 -15 -67t-28.5 -62t-51 -49t-75.5 -18q-44 0 -128 30.5t-114 30.5q-32 0 -40 -56h-121q7 87 49 148.5t121 61.5q42 0 122 -28t122 -28q24 0 36 37h123zM619 485q-9 -110 -57 -161t-116 -51q-42 0 -124 29.5t-115 29.5q-28 0 -38 -41h-121q7 83 50 138 t128 55q40 0 117 -26t115 -26q33 0 38 53h123z"/>
<glyph glyph-name="notequal" horiz-adv-x="666" unicode="≠" d="M597 58h-282l-74 -148q-23 12 -70.5 34t-71.5 33l44 81h-74v152h153q8 15 24.5 45t23.5 45h-201v152h280l78 147q23 -11 70 -33.5t70 -32.5q-7 -14 -21 -40.5t-22 -40.5h73v-152h-152q-8 -15 -24.5 -45t-23.5 -45h200v-152z"/>
<glyph glyph-name="lessequal" horiz-adv-x="666" unicode="≤" d="M588 163l-510 203v134l510 203v-162q-46 -19 -137.5 -55.5t-136.5 -55.5l274 -103v-164zM588 7h-510v139h510v-139z"/>
<glyph glyph-name="greaterequal" horiz-adv-x="666" unicode="≥" d="M588 366l-510 -203v164l274 103q-45 19 -137 55.5t-137 55.5v162l510 -203v-134zM588 7h-510v139h510v-139z"/>
<glyph glyph-name="lozenge" horiz-adv-x="619" unicode="◊" d="M395 356q-14 32 -43.5 98t-43.5 99l-42 -99t-42 -98q14 -33 42 -98.5t42 -97.5q14 32 43.5 97.5t43.5 98.5zM568 356l-190 -391h-140l-185 391q31 65 93.5 195.5t93.5 195.5h138z"/>
</font>
</defs>
</svg>
