<?xml version="1.0" encoding="UTF-8" standalone="no"?>
<!DOCTYPE svg  PUBLIC '-//W3C//DTD SVG 1.1//EN'  'http://www.w3.org/Graphics/SVG/1.1/DTD/svg11.dtd'>
<svg xmlns="http://www.w3.org/2000/svg">
<defs>
<font id="AvenirNextCyr-Heavy" horiz-adv-x="666">
<font-face underline-position="125" font-weight="800" descent="-200" panose-1="2 11 9 3 2 2 2 2 2 4" units-per-em="1000" unicode-range="U+0020-25CA" bbox="-163 -250 1237 971" x-height="526" underline-thickness="50" font-family="AvenirNextCyr" ascent="800" cap-height="708"/>
<missing-glyph horiz-adv-x="1000"/>
<glyph glyph-name=".notdef" horiz-adv-x="1000"/>
<glyph glyph-name=".null" horiz-adv-x="1000"/>
<glyph glyph-name=".null" horiz-adv-x="1000"/>
<glyph glyph-name="nonmarkingreturn" horiz-adv-x="333"/>
<glyph glyph-name="space" horiz-adv-x="250" unicode=" "/>
<glyph glyph-name="exclam" horiz-adv-x="448" unicode="!" d="M104 260v448h240v-448h-240zM224 -16q-52 0 -88 35t-36 86q0 50 36 85.5t88 35.5t88 -35.5t36 -85.5q0 -51 -36 -86t-88 -35z"/>
<glyph glyph-name="quotedbl" horiz-adv-x="556" unicode='&quot;' d="M81 426v282h173v-282h-173zM303 426v282h172v-282h-172z"/>
<glyph glyph-name="numbersign" horiz-adv-x="620" unicode="#" d="M294 387l-9 -66h41l10 66h-42zM480 387l-9 -66h77v-134h-95l-27 -187h-145l26 187h-40l-27 -187h-145l26 187h-76v134h95l10 66h-77v134h95l26 187h146l-27 -187h41l27 187h145l-27 -187h76v-134h-95z"/>
<glyph glyph-name="dollar" horiz-adv-x="700" unicode="$" d="M401 714q67 -4 132.5 -30t115.5 -70l-148 -147q-23 28 -57.5 43.5t-64.5 15.5q-58 0 -58 -31q0 -14 13 -21.5t51 -19.5q4 -1 6 -2q41 -13 65 -21.5t62 -28t58.5 -40t37 -54t16.5 -74.5q0 -106 -69.5 -169.5t-170.5 -71.5v-76h-102v75q-69 5 -135 32t-113 67l145 154 q26 -28 68 -47.5t84 -19.5q53 0 53 32q0 19 -22.5 30t-102.5 37q-85 28 -134 73.5t-49 128.5q0 99 62 158.5t155 74.5v74h102v-72z"/>
<glyph glyph-name="percent" horiz-adv-x="935" unicode="%" d="M306 -37l-98 53l420 723l97 -55zM711 241q-24 0 -42 -17.5t-18 -42.5q0 -24 18 -41t42 -17t41.5 17t17.5 41q0 25 -18 42.5t-41 17.5zM711 -12q-81 0 -139 56.5t-58 136.5q0 81 58 137.5t139 56.5t138.5 -56.5t57.5 -137.5q0 -80 -57.5 -136.5t-138.5 -56.5zM224 586 q-24 0 -42 -17.5t-18 -42.5q0 -24 18 -41t42 -17t41.5 17t17.5 41t-17.5 42t-41.5 18zM224 333q-81 0 -139 56.5t-58 136.5q0 81 58 137.5t139 56.5t138.5 -56.5t57.5 -137.5q0 -80 -57.5 -136.5t-138.5 -56.5z"/>
<glyph glyph-name="ampersand" horiz-adv-x="840" unicode="&amp;" d="M304 273q-39 -15 -39 -55q0 -27 20.5 -41t46.5 -14q41 0 60 21zM366 575q-21 0 -33.5 -13.5t-12.5 -32.5q0 -33 37 -60q53 21 53 60q0 20 -11.5 33t-32.5 13zM569 0l-49 51q-76 -65 -200 -65q-53 0 -101 12.5t-89 37.5t-65.5 68.5t-24.5 100.5q0 65 38.5 113.5 t100.5 75.5q-69 60 -69 145q0 49 23 87t61 59.5t81 32t89 10.5q100 0 172.5 -48t72.5 -144q0 -60 -36 -101.5t-101 -77.5l49 -46l55 79h249l-170 -207l192 -183h-278z"/>
<glyph glyph-name="quotesingle" horiz-adv-x="334" unicode="&apos;" d="M81 426v282h172v-282h-172z"/>
<glyph glyph-name="parenleft" horiz-adv-x="360" unicode="(" d="M18 288q0 124 38 247t111 223l153 -56q-133 -184 -133 -414t133 -414l-153 -56q-73 100 -111 223t-38 247z"/>
<glyph glyph-name="parenright" horiz-adv-x="360" unicode=")" d="M342 288q0 -124 -38 -247t-111 -223l-153 56q133 184 133 414t-133 414l153 56q73 -100 111 -223t38 -247z"/>
<glyph glyph-name="asterisk" horiz-adv-x="527" unicode="*" d="M385 467l72 -93l-121 -83l-74 95l-71 -90l-120 83l74 89l-117 37l48 130l114 -38v111h149v-112l116 35l44 -130z"/>
<glyph glyph-name="plus" d="M49 378h204v198h158v-198h206v-150h-204v-198h-158v198h-206v150z" unicode="+"/>
<glyph glyph-name="comma" horiz-adv-x="360" unicode="," d="M200 -120h-186l82 313h218z"/>
<glyph glyph-name="hyphen" horiz-adv-x="336" unicode="-" d="M30 199v172h276v-172h-276z"/>
<glyph glyph-name="period" horiz-adv-x="360" unicode="." d="M48 113q0 53 39.5 91.5t94.5 38.5q53 0 91.5 -38.5t38.5 -91.5q0 -54 -38.5 -91.5t-91.5 -37.5q-55 0 -94.5 37.5t-39.5 91.5z"/>
<glyph glyph-name="slash" horiz-adv-x="455" unicode="/" d="M154 -59l-157 48l303 778l158 -48z"/>
<glyph glyph-name="zero" horiz-adv-x="700" unicode="0" d="M350 523q-72 0 -72 -165q0 -171 72 -171t72 171q0 165 -72 165zM350 -20q-75 0 -132.5 24.5t-92 62.5t-56 90t-29.5 100.5t-8 100.5t8 99.5t29.5 98.5t56 88t92 60.5t132.5 23.5t133 -23.5t92 -60.5t56 -88t29.5 -98.5t7.5 -99.5t-7.5 -100.5t-29.5 -100.5t-56 -90 t-92 -62.5t-133 -24.5z"/>
<glyph glyph-name="one" horiz-adv-x="700" unicode="1" d="M288 0v456l-119 -82l-112 174l251 160h220v-708h-240z"/>
<glyph glyph-name="two" horiz-adv-x="700" unicode="2" d="M66 185l280 224q39 30 39 62q0 21 -13.5 35.5t-38.5 14.5q-29 0 -48 -23t-21 -62l-227 26q13 130 103 198t213 68q55 0 104 -13t90.5 -39.5t66 -72.5t24.5 -106q0 -55 -21.5 -99.5t-47.5 -69.5t-69 -55l-104 -74h244v-199h-574v185z"/>
<glyph glyph-name="three" horiz-adv-x="700" unicode="3" d="M533 375v-4q54 -17 87.5 -61.5t33.5 -95.5q0 -79 -45 -133.5t-110 -77.5t-141 -23q-117 0 -207.5 55t-117.5 163l222 52q6 -28 30.5 -49t59.5 -21q24 0 43 11.5t19 36.5q0 30 -26 41t-77 11h-68v164h76q84 0 84 51q0 21 -16.5 31t-39.5 10q-26 0 -46.5 -16t-25.5 -45 l-221 47q33 107 119.5 156.5t193.5 49.5q50 0 97.5 -12t89.5 -36t68 -66t26 -95q0 -57 -30 -93.5t-78 -50.5z"/>
<glyph glyph-name="four" horiz-adv-x="700" unicode="4" d="M375 490h-4l-118 -179h122v179zM588 125v-125h-216v125h-341v194l268 389h288v-397h96v-186h-95z"/>
<glyph glyph-name="five" horiz-adv-x="700" unicode="5" d="M650 238q0 -70 -26.5 -122.5t-70.5 -80.5t-93.5 -41.5t-104.5 -13.5q-113 0 -204 59t-110 159l220 56q6 -30 30 -51t56 -21q66 0 66 54q0 60 -126 60q-78 0 -185 -21l25 433h481v-198h-280l-4 -51q32 5 53 5q118 0 195.5 -57t77.5 -169z"/>
<glyph glyph-name="six" horiz-adv-x="700" unicode="6" d="M350 320q-32 0 -52.5 -20.5t-20.5 -50.5q0 -31 20.5 -52t52.5 -21q33 0 54 21t21 52q0 30 -21 50.5t-54 20.5zM407 486h11q98 0 170 -64t72 -172q0 -128 -89.5 -199t-220.5 -71q-132 0 -221 69t-89 199q0 111 88 233l162 227h289l-163 -211z"/>
<glyph glyph-name="seven" horiz-adv-x="700" unicode="7" d="M392 0h-276l269 510h-304v198h564v-169z"/>
<glyph glyph-name="eight" horiz-adv-x="700" unicode="8" d="M526 371v-3q52 -19 85 -63t33 -101q0 -112 -86 -168t-208 -56q-78 0 -142 21t-108 73t-44 129q0 56 32 99t86 65v3q-46 17 -76 57t-30 92q0 53 24 94.5t64.5 66t89.5 36.5t104 12q54 0 103 -12t90 -36.5t65 -66t24 -94.5q0 -54 -29 -93t-77 -55zM350 277q-29 0 -45.5 -17 t-16.5 -42t16.5 -41.5t45.5 -16.5t45.5 16.5t16.5 41.5t-16.5 42t-45.5 17zM350 551q-26 0 -42 -16t-16 -36q0 -21 16 -37.5t42 -16.5t42 16.5t16 37.5q0 20 -16 36t-42 16z"/>
<glyph glyph-name="nine" horiz-adv-x="700" unicode="9" d="M350 390q32 0 52.5 20.5t20.5 50.5q0 31 -20.5 52t-52.5 21q-33 0 -54 -21t-21 -52q0 -30 21 -50.5t54 -20.5zM293 222h-11q-98 0 -170 64t-72 172q0 128 89.5 199t220.5 71q132 0 221 -69t89 -199q0 -111 -88 -233l-162 -227h-289l167 216z"/>
<glyph glyph-name="colon" horiz-adv-x="380" unicode=":" d="M66 409q0 50 37 86t89 36q49 0 85.5 -36t36.5 -86t-36.5 -85.5t-85.5 -35.5q-52 0 -89 35t-37 86zM66 115q0 50 37 86t89 36q49 0 85.5 -36t36.5 -86t-36.5 -85.5t-85.5 -35.5q-52 0 -89 35t-37 86z"/>
<glyph glyph-name="semicolon" horiz-adv-x="380" unicode=";" d="M66 409q0 50 37 86t89 36q49 0 85.5 -36t36.5 -86t-36.5 -85.5t-85.5 -35.5q-52 0 -89 35t-37 86zM199 -120h-186l82 313h218z"/>
<glyph glyph-name="less" d="M588 32l-510 203v134l510 203v-162q-46 -19 -137.5 -55.5t-136.5 -55.5l274 -103v-164z" unicode="&lt;"/>
<glyph glyph-name="equal" d="M56 282h554v-144h-554v144zM56 472h554v-144h-554v144z" unicode="="/>
<glyph glyph-name="greater" d="M78 572l510 -203v-134l-510 -203v164l274 103q-45 19 -136.5 55.5t-137.5 55.5v162z" unicode="&gt;"/>
<glyph glyph-name="question" horiz-adv-x="587" unicode="?" d="M446 328q-36 -22 -36 -50v-26h-213v37q0 54 24 88t74 69l17 12q33 24 33 44q0 38 -42 38q-31 0 -46 -22t-15 -56l-215 28q12 121 90 179.5t190 58.5q50 0 95 -11t86 -34.5t65 -65.5t24 -99q0 -65 -32 -107.5t-99 -82.5zM304 -16q-52 0 -88 35t-36 86q0 50 36 85.5 t88 35.5t88 -35.5t36 -85.5q0 -51 -36 -86t-88 -35z"/>
<glyph glyph-name="at" horiz-adv-x="800" unicode="@" d="M405 443q-24 0 -42 -30.5t-18 -69.5q0 -60 41 -60q27 0 43.5 30.5t16.5 66.5q0 63 -41 63zM481 534h136l-19 -108q-18 -88 -18 -113q0 -30 24 -30q22 0 40 26.5t18 86.5q0 109 -67 166.5t-180 57.5q-115 0 -188.5 -75t-73.5 -191q0 -119 77 -190.5t201 -71.5 q123 0 205 68l75 -85q-112 -93 -294 -93q-169 0 -280.5 104.5t-111.5 266.5q0 158 114 265.5t275 107.5q155 0 261.5 -88.5t106.5 -243.5q0 -107 -57 -170.5t-158 -63.5q-84 0 -106 59h-2q-12 -23 -42.5 -41t-70.5 -18q-67 0 -108 50.5t-41 128.5q0 90 52 156.5t134 66.5 q36 0 60 -16t31 -36h2z"/>
<glyph glyph-name="A" horiz-adv-x="776" unicode="A" d="M443 286l-57 175l-58 -175h115zM-16 0l279 708h253l276 -708h-259l-37 104h-225l-35 -104h-252z"/>
<glyph glyph-name="B" horiz-adv-x="693" unicode="B" d="M529 371v-3q55 -13 94 -56t39 -105q0 -56 -23 -97.5t-63 -64.5t-87 -34t-102 -11h-321v708h291q276 0 276 -188q0 -109 -104 -149zM349 283h-61v-96h71q29 0 46 13t17 36q0 25 -22.5 36t-50.5 11zM347 523h-59v-87h64q57 0 57 47q0 40 -62 40z"/>
<glyph glyph-name="C" horiz-adv-x="696" unicode="C" d="M34 354q0 167 110.5 270.5t274.5 103.5q81 0 154.5 -26.5t122.5 -71.5l-146 -176q-39 53 -117 53q-61 0 -102 -42t-41 -111q0 -67 41.5 -109t101.5 -42q77 0 117 57l146 -175q-105 -105 -277 -105q-163 0 -274 104.5t-111 269.5z"/>
<glyph glyph-name="D" horiz-adv-x="788" unicode="D" d="M348 506h-53v-302h44q174 0 174 156q0 68 -44.5 107t-120.5 39zM350 0h-284v708h264q70 0 130 -10t115.5 -35.5t94 -64t61.5 -100t23 -140.5q0 -90 -33 -160.5t-90.5 -112.5t-128.5 -63.5t-152 -21.5z"/>
<glyph glyph-name="E" horiz-adv-x="603" unicode="E" d="M66 0v708h487v-198h-263v-61h247v-185h-247v-66h280v-198h-504z"/>
<glyph glyph-name="F" horiz-adv-x="581" unicode="F" d="M299 509v-75h216v-194h-215v-240h-234v708h478v-199h-245z"/>
<glyph glyph-name="G" horiz-adv-x="762" unicode="G" d="M426 -18q-170 0 -281 102t-111 270q0 167 110.5 270.5t273.5 103.5q82 0 157 -27t122 -74l-139 -167q-47 57 -126 57q-61 0 -106.5 -46t-45.5 -117q0 -78 40 -122.5t122 -44.5q36 0 56 10v54h-114v187h325v-387q-51 -30 -128.5 -49.5t-154.5 -19.5z"/>
<glyph glyph-name="H" horiz-adv-x="802" unicode="H" d="M498 0v269h-194v-269h-238v708h237v-240h194v240h239v-708h-238z"/>
<glyph glyph-name="I" horiz-adv-x="372" unicode="I" d="M66 0v708h240v-708h-240z"/>
<glyph glyph-name="J" horiz-adv-x="573" unicode="J" d="M248 -20q-94 0 -168 51.5t-95 128.5l204 78q10 -41 43 -41q39 0 39 55v456h239v-446q0 -42 -6.5 -78.5t-24 -75t-45.5 -66t-76 -45t-110 -17.5z"/>
<glyph glyph-name="K" horiz-adv-x="763" unicode="K" d="M489 0l-189 282h-2v-282h-232v708h231v-261h2l189 261h280l-266 -324l279 -384h-292z"/>
<glyph glyph-name="L" horiz-adv-x="549" unicode="L" d="M66 0v708h240v-504h235v-204h-475z"/>
<glyph glyph-name="M" horiz-adv-x="1008" unicode="M" d="M282 400h-5l11 -400h-222v708h311l128 -381h5l111 381h321v-708h-231l7 398l-6 1l-132 -399h-168z"/>
<glyph glyph-name="N" horiz-adv-x="791" unicode="N" d="M66 0v708h237l202 -359h4l-10 359h226v-708h-243l-196 338h-4l10 -338h-226z"/>
<glyph glyph-name="O" horiz-adv-x="855" unicode="O" d="M287 358q0 -69 39.5 -113.5t100.5 -44.5q60 0 100 44.5t40 113.5q0 68 -39.5 110t-100.5 42t-100.5 -42t-39.5 -110zM34 358q0 167 111 268.5t282 101.5t282.5 -101.5t111.5 -268.5q0 -168 -112 -273t-282 -105t-281.5 105t-111.5 273z"/>
<glyph glyph-name="P" horiz-adv-x="684" unicode="P" d="M353 523h-50v-114h50q30 0 51 15t21 44q0 55 -72 55zM370 228h-67v-228h-237v708h304q58 0 107 -12t91.5 -38t67 -74t24.5 -114q0 -63 -24.5 -111t-66 -76t-92 -41.5t-107.5 -13.5z"/>
<glyph glyph-name="Q" horiz-adv-x="864" unicode="Q" d="M287 358q0 -69 39.5 -113.5t100.5 -44.5q60 0 100 44.5t40 113.5q0 68 -39.5 110t-100.5 42t-100.5 -42t-39.5 -110zM740 184v-4l112 7v-187h-438q-172 0 -276 95t-104 267q0 161 111.5 263.5t281.5 102.5q168 0 277.5 -100.5t109.5 -256.5q0 -57 -22.5 -109.5 t-51.5 -77.5z"/>
<glyph glyph-name="R" horiz-adv-x="714" unicode="R" d="M294 523v-114h47q83 0 83 59q0 55 -73 55h-57zM66 0v708h305q56 0 104 -11t90.5 -36t67 -71.5t24.5 -111.5q0 -64 -32.5 -114t-91.5 -77l180 -287h-274l-136 253h-7v-253h-230z"/>
<glyph glyph-name="S" horiz-adv-x="617" unicode="S" d="M298 -20q-84 0 -163.5 29t-134.5 78l145 158q26 -29 68 -49t84 -20q53 0 53 33q0 19 -23 31t-102 38q-85 28 -134 75t-49 132q0 63 26.5 111.5t70.5 76.5t94.5 41.5t105.5 13.5q71 0 143.5 -28t126.5 -77l-148 -151q-23 28 -57.5 44.5t-64.5 16.5q-58 0 -58 -32 q0 -15 14 -22.5t56 -21.5q29 -10 46 -15.5t45.5 -17.5t46 -23t39 -29t33.5 -37t20.5 -45.5t8.5 -56.5q0 -120 -87 -186.5t-205 -66.5z"/>
<glyph glyph-name="T" horiz-adv-x="600" unicode="T" d="M419 507v-507h-238v507h-174v201h586v-201h-174z"/>
<glyph glyph-name="U" horiz-adv-x="775" unicode="U" d="M384 -20q-159 0 -243.5 83t-84.5 215v430h238v-404q0 -51 24.5 -79.5t69.5 -28.5t69.5 28.5t24.5 79.5v404h237v-430q0 -131 -87.5 -214.5t-247.5 -83.5z"/>
<glyph glyph-name="V" horiz-adv-x="739" unicode="V" d="M235 0l-251 708h269l117 -438h4l112 438h269l-256 -708h-264z"/>
<glyph glyph-name="W" horiz-adv-x="1077" unicode="W" d="M536 400l-103 -400h-240l-193 708h252l76 -398h4l82 398h249l89 -398h4l77 398h244l-197 -708h-240l-100 400h-4z"/>
<glyph glyph-name="X" horiz-adv-x="800" unicode="X" d="M521 0l-128 207l-123 -207h-282l253 369l-240 339h287l112 -186l107 186h280l-236 -336l261 -372h-291z"/>
<glyph glyph-name="Y" horiz-adv-x="738" unicode="Y" d="M481 290v-290h-238v290l-267 418h287l112 -208l107 208h280z"/>
<glyph glyph-name="Z" horiz-adv-x="672" unicode="Z" d="M44 0v199l265 312h-254v197h565v-172l-282 -333h290v-203h-584z"/>
<glyph glyph-name="bracketleft" horiz-adv-x="360" unicode="[" d="M42 -156v888h252v-137h-87v-614h87v-137h-252z"/>
<glyph glyph-name="backslash" horiz-adv-x="455" unicode="\" d="M301 -59l-304 778l158 48l303 -778z"/>
<glyph glyph-name="bracketright" horiz-adv-x="360" unicode="]" d="M318 732v-888h-252v137h87v614h-87v137h252z"/>
<glyph glyph-name="asciicircum" horiz-adv-x="714" unicode="^" d="M255 343h-178l203 365h154q34 -61 100.5 -182.5t100.5 -182.5h-178l-101 187z"/>
<glyph glyph-name="underscore" horiz-adv-x="500" unicode="_" d="M0 -185v110h500v-110h-500z"/>
<glyph glyph-name="grave" horiz-adv-x="360" unicode="`" d="M118 584l-154 144h212l111 -144h-169z"/>
<glyph glyph-name="a" horiz-adv-x="591" unicode="a" d="M332 332v2q0 47 -60 47q-57 0 -111 -45l-115 114q47 45 113.5 70.5t136.5 25.5q72 0 123 -20.5t78.5 -59t39.5 -84.5t12 -105v-277h-209v42h-2q-18 -28 -54.5 -42t-74.5 -14q-72 0 -127.5 41.5t-55.5 127.5q0 52 27 89t74.5 55t97 25.5t107.5 7.5zM347 218h-13 q-113 0 -113 -52q0 -20 17 -30.5t36 -10.5q33 0 53 21t20 54v18z"/>
<glyph glyph-name="b" horiz-adv-x="694" unicode="b" d="M448 265q0 36 -23 61.5t-63 25.5q-39 0 -64.5 -25.5t-25.5 -61.5q0 -38 25 -63.5t65 -25.5t63 25t23 64zM662 265q0 -112 -64 -195.5t-176 -83.5q-49 0 -93.5 19t-66.5 50h-2v-55h-207v756h230v-272h2q23 26 60.5 41t76.5 15q111 0 175.5 -82.5t64.5 -192.5z"/>
<glyph glyph-name="c" horiz-adv-x="526" unicode="c" d="M339 -20q-135 0 -221 77.5t-86 205.5q0 126 88 204.5t222 78.5q53 0 106.5 -16.5t84.5 -40.5l-115 -166q-24 29 -69 29q-36 0 -63 -23.5t-27 -65.5t27 -64.5t63 -22.5q44 0 70 28l116 -162q-34 -27 -87 -44.5t-109 -17.5z"/>
<glyph glyph-name="d" horiz-adv-x="694" unicode="d" d="M246 265q0 -39 23 -64t63 -25t65 25.5t25 63.5q0 36 -25.5 61.5t-64.5 25.5q-40 0 -63 -25.5t-23 -61.5zM32 265q0 110 64.5 192.5t175.5 82.5q39 0 76.5 -15t60.5 -41h2v272h230v-756h-207v55h-2q-22 -31 -66.5 -50t-93.5 -19q-112 0 -176 83.5t-64 195.5z"/>
<glyph glyph-name="e" horiz-adv-x="630" unicode="e" d="M602 258q0 -25 -2 -49h-354q3 -27 30 -43.5t60 -16.5q57 0 86 37l164 -83q-35 -57 -102 -90t-154 -33q-79 0 -145.5 31t-109.5 97t-43 155q0 127 84 205t209 78q123 0 200 -81.5t77 -206.5zM244 333h159q0 28 -21 46t-55 18q-35 0 -57.5 -19.5t-25.5 -44.5z"/>
<glyph glyph-name="f" horiz-adv-x="424" unicode="f" d="M426 598q-22 9 -45 9q-61 0 -61 -74v-7h111v-165h-111v-361h-230v361h-90v165h90v12q0 248 246 248q67 0 105 -15z"/>
<glyph glyph-name="g" horiz-adv-x="697" unicode="g" d="M246 265q0 -39 23 -64t63 -25t65 25.5t25 63.5q0 36 -25.5 61.5t-64.5 25.5q-40 0 -63 -25.5t-23 -61.5zM32 265q0 110 64.5 192.5t175.5 82.5q99 0 149 -67h3v53h217v-472q0 -83 -27.5 -142.5t-76 -91.5t-103.5 -46t-121 -14q-167 0 -281 77l101 153q72 -56 160 -56 q53 0 88.5 26.5t35.5 72.5v23h-3q-20 -24 -58.5 -40t-83.5 -16q-116 0 -178 76t-62 189z"/>
<glyph glyph-name="h" d="M430 540q53 0 91.5 -19t58.5 -52.5t29 -70t9 -78.5v-320h-232v280q0 72 -50 72q-22 0 -37 -18.5t-15 -54.5v-279h-231v756h231v-288h2q21 31 59 51.5t85 20.5z" unicode="h"/>
<glyph glyph-name="i" horiz-adv-x="339" unicode="i" d="M50 678q0 48 36 83t85 35q47 0 82.5 -35t35.5 -83q0 -49 -35 -83t-83 -34q-50 0 -85.5 34t-35.5 83zM54 0v526h231v-526h-231z"/>
<glyph glyph-name="j" horiz-adv-x="346" unicode="j" d="M57 678q0 48 35.5 83t84.5 35q48 0 83.5 -35t35.5 -83q0 -49 -35 -83t-84 -34t-84.5 34t-35.5 83zM292 12q0 -252 -237 -252q-56 0 -96 12l12 188q18 -5 37 -5q53 0 53 64v507h231v-514z"/>
<glyph glyph-name="k" horiz-adv-x="670" unicode="k" d="M287 229h-3v-229h-231v756h231v-431h3l125 201h268l-170 -237l169 -289h-269z"/>
<glyph glyph-name="l" horiz-adv-x="342" unicode="l" d="M53 0v756h236v-756h-236z"/>
<glyph glyph-name="m" horiz-adv-x="976" unicode="m" d="M606 0h-231v276q0 40 -10 58t-33 18q-19 0 -33.5 -17.5t-14.5 -55.5v-279h-231v526h225v-58h2q23 30 61.5 51t87.5 21q108 0 150 -76q60 76 160 76q53 0 92 -21.5t59 -56.5t29 -70.5t9 -71.5v-320h-231v280q0 41 -10 56.5t-33 15.5q-21 0 -34.5 -19t-13.5 -54v-279z"/>
<glyph glyph-name="n" d="M53 0v526h225v-58h2q21 31 61.5 51.5t88.5 20.5q53 0 91.5 -19t58.5 -52.5t29 -70t9 -78.5v-320h-232v280q0 72 -50 72q-23 0 -37.5 -19t-14.5 -53v-280h-231z" unicode="n"/>
<glyph glyph-name="o" horiz-adv-x="664" unicode="o" d="M331 352q-37 0 -61 -26t-24 -61q0 -37 24.5 -63t61.5 -26t61.5 26t24.5 63q0 35 -25 61t-62 26zM632 265q0 -131 -88 -208t-213 -77t-212 77t-87 208q0 130 87 205.5t212 75.5t213 -75.5t88 -205.5z"/>
<glyph glyph-name="p" horiz-adv-x="694" unicode="p" d="M448 265q0 36 -23 61.5t-63 25.5q-39 0 -64.5 -25.5t-25.5 -61.5q0 -38 25 -63.5t65 -25.5t63 25t23 64zM423 -14q-40 0 -77.5 14.5t-61.5 40.5h-2v-281h-229v766h217v-53h2q28 32 69 49.5t81 17.5q111 0 175.5 -82.5t64.5 -192.5q0 -112 -64 -195.5t-175 -83.5z"/>
<glyph glyph-name="q" horiz-adv-x="694" unicode="q" d="M246 265q0 -39 23 -64t63 -25t65 25.5t25 63.5q0 36 -25.5 61.5t-64.5 25.5q-40 0 -63 -25.5t-23 -61.5zM271 -14q-111 0 -175 83.5t-64 195.5q0 110 64.5 192.5t175.5 82.5q40 0 81 -17.5t69 -49.5h2v53h217v-766h-229v281h-2q-24 -26 -61.5 -40.5t-77.5 -14.5z"/>
<glyph glyph-name="r" horiz-adv-x="445" unicode="r" d="M53 0v526h222v-60h2q18 33 52 53.5t77 20.5q27 0 44 -5l-18 -196q-21 6 -49 6q-44 0 -71.5 -26t-27.5 -64v-255h-231z"/>
<glyph glyph-name="s" horiz-adv-x="513" unicode="s" d="M484 167q0 -50 -22 -88t-58 -58.5t-74.5 -30.5t-78.5 -10q-68 0 -134 19.5t-113 55.5l113 131q54 -49 119 -49q33 0 33 21q0 12 -17.5 20t-65.5 19q-60 14 -104 52.5t-44 107.5q0 64 39 109t89 62.5t103 17.5q128 0 229 -68l-108 -129q-53 34 -102 34q-39 0 -39 -22 q0 -10 13 -15.5t57 -14.5q71 -15 118 -54.5t47 -109.5z"/>
<glyph glyph-name="t" horiz-adv-x="421" unicode="t" d="M282 -14q-105 0 -156.5 46t-51.5 141v188h-74v165h73v118h224v-118h114v-165h-114v-140q0 -36 15.5 -50.5t46.5 -14.5q24 0 42 6v-158q-43 -18 -119 -18z"/>
<glyph glyph-name="u" horiz-adv-x="663" unicode="u" d="M610 526v-526h-225v58h-2q-21 -31 -61.5 -51.5t-88.5 -20.5q-53 0 -91.5 19t-58.5 52.5t-29 70t-9 78.5v320h232v-278q0 -72 50 -72q23 0 37.5 19t14.5 53v278h231z"/>
<glyph glyph-name="v" horiz-adv-x="638" unicode="v" d="M192 0l-200 526h256l75 -284h4l72 284h247l-203 -526h-251z"/>
<glyph glyph-name="w" horiz-adv-x="973" unicode="w" d="M483 270l-79 -270h-229l-180 526h247l66 -272h4l68 272h222l73 -272h3l64 272h236l-182 -526h-230l-81 270h-2z"/>
<glyph glyph-name="x" horiz-adv-x="675" unicode="x" d="M419 0l-81 119l-86 -119h-260l203 270l-189 256h262l76 -110l75 110h254l-189 -256l199 -270h-264z"/>
<glyph glyph-name="y" horiz-adv-x="638" unicode="y" d="M201 9l4 11l-213 506h256l78 -277h4l69 277h247l-216 -558q-41 -105 -103.5 -156.5t-172.5 -51.5q-69 0 -131 16l29 190q34 -12 65 -12q63 0 84 55z"/>
<glyph glyph-name="z" horiz-adv-x="557" unicode="z" d="M33 0v161l197 194h-192v171h479v-150l-213 -205h219v-171h-490z"/>
<glyph glyph-name="braceleft" horiz-adv-x="360" unicode="{" d="M0 217v142q33 0 49.5 15t16.5 55v132q0 74 36.5 122.5t111.5 48.5h96v-137h-34q-51 0 -51 -60v-135q0 -52 -27 -79.5t-58 -31.5v-2q31 -4 58 -31.5t27 -79.5v-135q0 -60 51 -60h34v-137h-96q-75 0 -111.5 48.5t-36.5 122.5v132q0 40 -16.5 55t-49.5 15z"/>
<glyph glyph-name="bar" horiz-adv-x="269" unicode="|" d="M49 -250v1000h172v-1000h-172z"/>
<glyph glyph-name="braceright" horiz-adv-x="360" unicode="}" d="M360 359v-142q-33 0 -49 -15t-16 -55v-132q0 -74 -37 -122.5t-112 -48.5h-96v137h34q50 0 50 60v135q0 52 27 79.5t58 31.5v2q-31 4 -58 31.5t-27 79.5v135q0 60 -50 60h-34v137h96q75 0 112 -48.5t37 -122.5v-132q0 -40 16 -55t49 -15z"/>
<glyph glyph-name="asciitilde" d="M355 384q37 -24 53 -29.5t37 -5.5h4q49 0 84 67l74 -135q-65 -106 -159 -106q-61 0 -121 38q-55 34 -93 34q-25 0 -54.5 -17t-46.5 -49l-74 135q34 56 82 81t94 25q62 0 120 -38z" unicode="~"/>
<glyph glyph-name="uni00A0" horiz-adv-x="250" unicode=" "/>
<glyph glyph-name="exclamdown" horiz-adv-x="448" unicode="¡" d="M104 270h240v-448h-240v448zM224 546q52 0 88 -35t36 -86q0 -50 -36 -85.5t-88 -35.5t-88 35.5t-36 85.5q0 51 36 86t88 35z"/>
<glyph glyph-name="cent" horiz-adv-x="700" unicode="¢" d="M341 -13q-110 16 -176.5 90t-66.5 186q0 109 67 183t176 92v64h109v-61q92 -8 149 -52l-115 -166q-24 29 -69 29q-36 0 -63 -23.5t-27 -65.5t27 -64.5t63 -22.5q44 0 70 28l116 -162q-60 -48 -151 -57v-57h-109v59z"/>
<glyph glyph-name="sterling" horiz-adv-x="700" unicode="£" d="M553 495q-28 31 -72 31q-80 0 -80 -75v-9h145v-162h-145v-87h251v-193h-572v193h92v87h-92v162h92v28q0 102 74.5 180t208.5 78q147 0 232 -81z"/>
<glyph glyph-name="currency" horiz-adv-x="1000" unicode="¤" d="M502 410q-41 0 -68.5 -30t-27.5 -71q0 -43 27 -73t69 -30t69 30t27 73q0 41 -28 71t-68 30zM756 454q37 -63 37 -145q0 -84 -39 -150l92 -92l-107 -108l-97 97q-62 -32 -140 -32q-71 0 -142 34l-99 -99l-107 108l95 95q-36 63 -36 147q0 79 34 142l-93 93l108 107l96 -95 q66 34 144 34q77 0 143 -32l93 93l108 -107z"/>
<glyph glyph-name="yen" horiz-adv-x="700" unicode="¥" d="M544 458h100v-140h-184v-47h184v-140h-184v-131h-216v131h-181v140h181v47h-181v140h100l-158 250h253l98 -217l98 217h247z"/>
<glyph glyph-name="brokenbar" horiz-adv-x="269" unicode="¦" d="M49 200h172v-406h-172v406zM49 718h172v-406h-172v406z"/>
<glyph glyph-name="section" horiz-adv-x="650" unicode="§" d="M332 316l-82 29q-16 -9 -16 -28q0 -18 15 -27.5t52 -22.5q7 -3 11 -4l81 -28q13 8 13 26q0 17 -18.5 29.5t-55.5 25.5zM539 158q45 -30 45 -102q0 -58 -26.5 -101t-70 -65.5t-90 -33t-96.5 -10.5q-86 0 -166.5 35.5t-124.5 97.5l157 130q27 -40 67.5 -59t77.5 -19 q15 0 26.5 6t11.5 15q0 15 -18.5 25t-82.5 28q-112 33 -161 72t-49 115q0 82 71 128q-41 38 -41 110q0 52 25.5 91.5t66 61.5t83.5 33t86 11q96 0 166 -34t105 -96l-166 -110q-15 25 -41 40.5t-50 15.5q-43 0 -43 -23q0 -12 18 -20.5t80 -27.5q105 -32 155 -74.5t50 -119.5 q0 -80 -65 -120z"/>
<glyph glyph-name="dieresis" horiz-adv-x="360" unicode="¨" d="M-44 678q0 40 30 69.5t71 29.5q40 0 69.5 -29.5t29.5 -69.5q0 -41 -29.5 -69.5t-69.5 -28.5q-42 0 -71.5 28.5t-29.5 69.5zM205 678q0 40 30 69.5t71 29.5q40 0 69.5 -29.5t29.5 -69.5q0 -41 -29.5 -69.5t-69.5 -28.5q-42 0 -71.5 28.5t-29.5 69.5z"/>
<glyph glyph-name="copyright" horiz-adv-x="800" unicode="©" d="M80 353q0 -132 92.5 -225.5t224.5 -93.5t227.5 93.5t95.5 225.5q0 133 -93.5 227t-225.5 94q-133 0 -227 -94t-94 -227zM20 353q0 157 111.5 267t269.5 110q157 0 268 -110t111 -267q0 -156 -111 -265.5t-268 -109.5q-158 0 -269.5 109.5t-111.5 265.5zM596 515l-98 -80 q-26 36 -81 36q-45 0 -71.5 -35t-26.5 -82t27.5 -82.5t76.5 -35.5q53 0 80 33l92 -88q-67 -67 -174 -67q-106 0 -177 64.5t-71 174.5q0 107 72 172.5t176 65.5q52 0 99.5 -20t75.5 -56z"/>
<glyph glyph-name="ordfeminine" horiz-adv-x="390" unicode="ª" d="M221 610v1q0 25 -35 25t-66 -24l-69 61q60 52 148 52q83 0 116.5 -39t33.5 -106v-149h-124v23h-1q-20 -30 -76 -30q-43 0 -76 22t-33 69q0 95 182 95zM229 547h-8q-64 0 -64 -27q0 -10 9.5 -15t20.5 -5q19 0 30.5 10.5t11.5 27.5v9z"/>
<glyph glyph-name="guillemotleft" horiz-adv-x="580" unicode="«" d="M193 26l-176 248l176 248l129 -83l-115 -165l115 -165zM422 26l-175 248l175 248l130 -83l-115 -165l115 -165z"/>
<glyph glyph-name="logicalnot" d="M447 143v171h-410v144h568v-315h-158z" unicode="¬"/>
<glyph glyph-name="uni00AD" horiz-adv-x="336" unicode="­" d="M30 199v172h276v-172h-276z"/>
<glyph glyph-name="registered" horiz-adv-x="600" unicode="®" d="M108 492q0 -79 56.5 -135.5t136.5 -56.5q79 0 135 56.5t56 135.5q0 80 -56 136t-135 56q-80 0 -136.5 -56t-56.5 -136zM72 492q0 94 67 160.5t162 66.5q94 0 160.5 -66.5t66.5 -160.5t-66.5 -159.5t-160.5 -65.5q-95 0 -162 65.5t-67 159.5zM439 365h-100l-44 94h-16v-94 h-88v266h114q50 0 85.5 -20t35.5 -66q0 -55 -48 -74zM279 521h26q12 0 20 6.5t8 16.5q0 8 -8.5 13t-19.5 5h-26v-41z"/>
<glyph glyph-name="macron" horiz-adv-x="360" unicode="¯" d="M0 611v96h360v-96h-360z"/>
<glyph glyph-name="degree" horiz-adv-x="440" unicode="°" d="M317 554q0 40 -28.5 68.5t-68.5 28.5t-68.5 -28.5t-28.5 -68.5t28.5 -68.5t68.5 -28.5t68.5 28.5t28.5 68.5zM399 554q0 -77 -51 -128t-128 -51t-128 51t-51 128t51 128t128 51t128 -51t51 -128z"/>
<glyph glyph-name="plusminus" d="M31 30v152h604v-152h-604zM251 485v121h164v-121h220v-152h-220v-121h-164v121h-220v152h220z" unicode="±"/>
<glyph glyph-name="twosuperior" horiz-adv-x="450" unicode="²" d="M415 439h-362v117l182 147q19 17 19 33q0 30 -32 30q-18 0 -30.5 -14.5t-13.5 -38.5l-143 16q8 83 64.5 125.5t134.5 42.5q74 0 127 -36t53 -109q0 -49 -22.5 -80t-64.5 -61l-66 -46h154v-126z"/>
<glyph glyph-name="threesuperior" horiz-adv-x="450" unicode="³" d="M349 674v-1q33 -11 50 -38t17 -61q0 -72 -53.5 -109t-126.5 -37q-72 0 -127.5 34t-71.5 103l136 33q4 -19 18 -32t35 -13q40 0 40 30q0 33 -63 33h-42v103h47q51 0 51 31q0 11 -9 19t-26 8q-15 0 -28 -11t-16 -29l-134 31q19 67 73 98t120 31t117.5 -31.5t51.5 -93.5 q0 -69 -59 -98z"/>
<glyph glyph-name="acute" horiz-adv-x="360" unicode="´" d="M242 584h-169l111 144h212z"/>
<glyph glyph-name="mu" horiz-adv-x="746" unicode="µ" d="M716 166v-162q-38 -18 -111 -18q-99 0 -135 72h-2q-13 -26 -40 -49t-67 -23q-38 0 -59 18h-2v-228h-236v750h236v-277q0 -73 48 -73q29 0 41.5 22.5t12.5 50.5v277h236v-313q0 -31 11 -42t36 -11q11 0 31 6z"/>
<glyph glyph-name="paragraph" horiz-adv-x="646" unicode="¶" d="M432 -133v699h-52v-699h-154v463q-100 5 -156.5 53t-56.5 132q0 58 21 97.5t60 59.5t81.5 28t97.5 8h314v-841h-155z"/>
<glyph glyph-name="periodcentered" horiz-adv-x="360" unicode="·" d="M48 289q0 53 39.5 91.5t94.5 38.5q53 0 91.5 -38.5t38.5 -91.5q0 -54 -38.5 -91.5t-91.5 -37.5q-55 0 -94.5 37.5t-39.5 91.5z"/>
<glyph glyph-name="cedilla" horiz-adv-x="360" unicode="¸" d="M159 -240q-75 0 -133 23l34 78q37 -16 85 -16q40 0 40 21q0 18 -37 18q-23 0 -41 -6l-44 34l75 88h117l-50 -53q5 1 16 1q41 0 71.5 -19.5t30.5 -65.5q0 -38 -28.5 -62.5t-63 -32.5t-72.5 -8z"/>
<glyph glyph-name="onesuperior" horiz-adv-x="450" unicode="¹" d="M198 439v288l-75 -52l-71 110l158 100h139v-446h-151z"/>
<glyph glyph-name="ordmasculine" horiz-adv-x="390" unicode="º" d="M195 622q-20 0 -32.5 -13.5t-12.5 -32.5q0 -20 13 -34t33 -14t33 14t13 34q0 18 -13.5 32t-33.5 14zM357 576q0 -71 -47 -112.5t-115 -41.5q-66 0 -113 41.5t-47 112.5q0 69 47 109.5t113 40.5q68 0 115 -40.5t47 -109.5z"/>
<glyph glyph-name="guillemotright" horiz-adv-x="580" unicode="»" d="M158 26l-130 83l115 165l-115 165l130 83l175 -248zM388 26l-130 83l115 165l-115 165l130 83l175 -248z"/>
<glyph glyph-name="onequarter" horiz-adv-x="1000" unicode="¼" d="M386 -27l-99 40l346 726l99 -45zM198 262v288l-75 -52l-71 110l158 100h139v-446h-151zM773 309h-2l-75 -113h77v113zM907 79v-79h-136v79h-215v122l169 245h182v-250h60v-117h-60z"/>
<glyph glyph-name="onehalf" horiz-adv-x="1000" unicode="½" d="M386 -27l-99 40l346 726l99 -45zM614 117l182 147q19 17 19 33q0 30 -32 30q-18 0 -30.5 -14.5t-13.5 -38.5l-143 16q8 83 65 125.5t134 42.5q74 0 127 -36t53 -109q0 -49 -22.5 -80t-64.5 -61l-66 -46h154v-126h-362v117zM198 262v288l-75 -52l-71 110l158 100h139v-446 h-151z"/>
<glyph glyph-name="threequarters" horiz-adv-x="1000" unicode="¾" d="M386 -27l-99 40l346 726l99 -45zM349 496q32 -10 49.5 -37.5t17.5 -61.5q0 -72 -53.5 -109t-126.5 -37q-72 0 -127.5 34t-71.5 103l136 33q4 -18 18 -31.5t33 -13.5q42 0 42 30q0 33 -63 33h-42v103h47q51 0 51 31q0 11 -9 19t-26 8q-15 0 -28 -11t-16 -29l-134 31 q19 67 73 98t120 31t117.5 -31.5t51.5 -93.5q0 -74 -59 -99zM773 309h-2l-75 -113h77v113zM907 79v-79h-136v79h-215v122l169 245h182v-250h60v-117h-60z"/>
<glyph glyph-name="questiondown" horiz-adv-x="587" unicode="¿" d="M136 202q36 22 36 50v26h213v-37q0 -54 -24 -88t-74 -69l-17 -12q-33 -24 -33 -44q0 -38 42 -38q31 0 46 22t15 56l215 -28q-12 -121 -90 -179.5t-190 -58.5q-50 0 -95 11t-86 34.5t-65 65.5t-24 99q0 65 32 107.5t99 82.5zM278 546q52 0 88 -35t36 -86q0 -50 -36 -85.5 t-88 -35.5t-88 35.5t-36 85.5q0 51 36 86t88 35z"/>
<glyph glyph-name="Agrave" horiz-adv-x="776" unicode="À" d="M331 764l-154 144h212l111 -144h-169zM443 286l-57 175l-58 -175h115zM-16 0l279 708h253l276 -708h-259l-37 104h-225l-35 -104h-252z"/>
<glyph glyph-name="Aacute" horiz-adv-x="776" unicode="Á" d="M447 764h-169l111 144h212zM443 286l-57 175l-58 -175h115zM-16 0l279 708h253l276 -708h-259l-37 104h-225l-35 -104h-252z"/>
<glyph glyph-name="Acircumflex" horiz-adv-x="776" unicode="Â" d="M456 764l-67 68l-67 -68h-152l137 144h169l134 -144h-154zM443 286l-57 175l-58 -175h115zM-16 0l279 708h253l276 -708h-259l-37 104h-225l-35 -104h-252z"/>
<glyph glyph-name="Atilde" horiz-adv-x="776" unicode="Ã" d="M578 900q-3 -61 -33.5 -100t-80.5 -39q-38 0 -81 23q-41 22 -63 22q-30 0 -37 -36h-80q3 59 33 97.5t80 38.5q37 0 83 -24q43 -22 65 -22q28 0 35 40h79zM443 286l-57 175l-58 -175h115zM-16 0l279 708h253l276 -708h-259l-37 104h-225l-35 -104h-252z"/>
<glyph glyph-name="Adieresis" horiz-adv-x="776" unicode="Ä" d="M166 858q0 40 30 69.5t71 29.5q40 0 69.5 -29.5t29.5 -69.5q0 -41 -29.5 -69.5t-69.5 -28.5q-42 0 -71.5 28.5t-29.5 69.5zM415 858q0 40 30 69.5t71 29.5q40 0 69.5 -29.5t29.5 -69.5q0 -41 -29.5 -69.5t-69.5 -28.5q-42 0 -71.5 28.5t-29.5 69.5zM443 286l-57 175 l-58 -175h115zM-16 0l279 708h253l276 -708h-259l-37 104h-225l-35 -104h-252z"/>
<glyph glyph-name="Aring" horiz-adv-x="776" unicode="Å" d="M449 857q0 25 -17.5 42t-42.5 17t-42.5 -17t-17.5 -42t17.5 -42t42.5 -17t42.5 17t17.5 42zM504 857q0 -48 -34 -81t-81 -33t-81 33t-34 81t34 81t81 33t81 -33t34 -81zM443 286l-57 175l-58 -175h115zM-16 0l279 708h253l276 -708h-259l-37 104h-225l-35 -104h-252z"/>
<glyph glyph-name="AE" horiz-adv-x="1014" unicode="Æ" d="M488 510l-102 -224h106v224h-4zM492 0v104h-177l-49 -104h-266l354 708h610v-198h-253v-61h237v-185h-237v-66h270v-198h-489z"/>
<glyph glyph-name="Ccedilla" horiz-adv-x="696" unicode="Ç" d="M389 -240q-75 0 -133 23l34 78q37 -16 85 -16q40 0 40 21q0 18 -37 18q-23 0 -41 -6l-44 34l62 73q-140 20 -230.5 120.5t-90.5 248.5q0 167 110.5 270.5t274.5 103.5q81 0 154.5 -26.5t122.5 -71.5l-146 -176q-39 53 -117 53q-61 0 -102 -42t-41 -111q0 -67 41.5 -109 t101.5 -42q77 0 117 57l146 -175q-87 -87 -228 -102l-33 -36q5 1 16 1q41 0 71.5 -19.5t30.5 -65.5q0 -38 -28.5 -62.5t-63 -32.5t-72.5 -8z"/>
<glyph glyph-name="Egrave" horiz-adv-x="603" unicode="È" d="M262 764l-154 144h212l111 -144h-169zM66 0v708h487v-198h-263v-61h247v-185h-247v-66h280v-198h-504z"/>
<glyph glyph-name="Eacute" horiz-adv-x="603" unicode="É" d="M361 764h-169l111 144h212zM66 0v708h487v-198h-263v-61h247v-185h-247v-66h280v-198h-504z"/>
<glyph glyph-name="Ecircumflex" horiz-adv-x="603" unicode="Ê" d="M378 764l-67 68l-67 -68h-152l137 144h169l134 -144h-154zM66 0v708h487v-198h-263v-61h247v-185h-247v-66h280v-198h-504z"/>
<glyph glyph-name="Edieresis" horiz-adv-x="603" unicode="Ë" d="M87 858q0 40 30 69.5t71 29.5q40 0 69.5 -29.5t29.5 -69.5q0 -41 -29.5 -69.5t-69.5 -28.5q-42 0 -71.5 28.5t-29.5 69.5zM336 858q0 40 30 69.5t71 29.5q40 0 69.5 -29.5t29.5 -69.5q0 -41 -29.5 -69.5t-69.5 -28.5q-42 0 -71.5 28.5t-29.5 69.5zM66 0v708h487v-198 h-263v-61h247v-185h-247v-66h280v-198h-504z"/>
<glyph glyph-name="Igrave" horiz-adv-x="372" unicode="Ì" d="M136 764l-154 144h212l111 -144h-169zM66 0v708h240v-708h-240z"/>
<glyph glyph-name="Iacute" horiz-adv-x="372" unicode="Í" d="M235 764h-169l111 144h212zM66 0v708h240v-708h-240z"/>
<glyph glyph-name="Icircumflex" horiz-adv-x="372" unicode="Î" d="M254 764l-67 68l-67 -68h-152l137 144h169l134 -144h-154zM66 0v708h240v-708h-240z"/>
<glyph glyph-name="Idieresis" horiz-adv-x="372" unicode="Ï" d="M-36 858q0 40 30 69.5t71 29.5q40 0 69.5 -29.5t29.5 -69.5q0 -41 -29.5 -69.5t-69.5 -28.5q-42 0 -71.5 28.5t-29.5 69.5zM213 858q0 40 30 69.5t71 29.5q40 0 69.5 -29.5t29.5 -69.5q0 -41 -29.5 -69.5t-69.5 -28.5q-42 0 -71.5 28.5t-29.5 69.5zM66 0v708h240v-708 h-240z"/>
<glyph glyph-name="Eth" horiz-adv-x="788" unicode="Ð" d="M295 428h128v-142h-128v-82h44q174 0 174 156q0 68 -44.5 107t-120.5 39h-53v-78zM66 286h-54v142h54v280h264q70 0 130 -10t115.5 -35.5t94 -64t61.5 -100t23 -140.5q0 -90 -33 -160.5t-90.5 -112.5t-128.5 -63.5t-152 -21.5h-284v286z"/>
<glyph glyph-name="Ntilde" horiz-adv-x="791" unicode="Ñ" d="M587 900q-3 -61 -33.5 -100t-80.5 -39q-38 0 -81 23q-41 22 -63 22q-30 0 -37 -36h-80q3 59 33 97.5t80 38.5q37 0 83 -24q43 -22 65 -22q28 0 35 40h79zM66 0v708h237l202 -359h4l-10 359h226v-708h-243l-196 338h-4l10 -338h-226z"/>
<glyph glyph-name="Ograve" horiz-adv-x="855" unicode="Ò" d="M369 764l-154 144h212l111 -144h-169zM287 358q0 -69 39.5 -113.5t100.5 -44.5q60 0 100 44.5t40 113.5q0 68 -39.5 110t-100.5 42t-100.5 -42t-39.5 -110zM34 358q0 167 111 268.5t282 101.5t282.5 -101.5t111.5 -268.5q0 -168 -112 -273t-282 -105t-281.5 105 t-111.5 273z"/>
<glyph glyph-name="Oacute" horiz-adv-x="855" unicode="Ó" d="M488 764h-169l111 144h212zM287 358q0 -69 39.5 -113.5t100.5 -44.5q60 0 100 44.5t40 113.5q0 68 -39.5 110t-100.5 42t-100.5 -42t-39.5 -110zM34 358q0 167 111 268.5t282 101.5t282.5 -101.5t111.5 -268.5q0 -168 -112 -273t-282 -105t-281.5 105t-111.5 273z"/>
<glyph glyph-name="Ocircumflex" horiz-adv-x="855" unicode="Ô" d="M493 764l-67 68l-67 -68h-152l137 144h169l134 -144h-154zM287 358q0 -69 39.5 -113.5t100.5 -44.5q60 0 100 44.5t40 113.5q0 68 -39.5 110t-100.5 42t-100.5 -42t-39.5 -110zM34 358q0 167 111 268.5t282 101.5t282.5 -101.5t111.5 -268.5q0 -168 -112 -273t-282 -105 t-281.5 105t-111.5 273z"/>
<glyph glyph-name="Otilde" horiz-adv-x="855" unicode="Õ" d="M615 900q-3 -61 -33.5 -100t-80.5 -39q-38 0 -81 23q-41 22 -63 22q-30 0 -37 -36h-80q3 59 33 97.5t80 38.5q37 0 83 -24q43 -22 65 -22q28 0 35 40h79zM287 358q0 -69 39.5 -113.5t100.5 -44.5q60 0 100 44.5t40 113.5q0 68 -39.5 110t-100.5 42t-100.5 -42t-39.5 -110 zM34 358q0 167 111 268.5t282 101.5t282.5 -101.5t111.5 -268.5q0 -168 -112 -273t-282 -105t-281.5 105t-111.5 273z"/>
<glyph glyph-name="Odieresis" horiz-adv-x="855" unicode="Ö" d="M203 858q0 40 30 69.5t71 29.5q40 0 69.5 -29.5t29.5 -69.5q0 -41 -29.5 -69.5t-69.5 -28.5q-42 0 -71.5 28.5t-29.5 69.5zM452 858q0 40 30 69.5t71 29.5q40 0 69.5 -29.5t29.5 -69.5q0 -41 -29.5 -69.5t-69.5 -28.5q-42 0 -71.5 28.5t-29.5 69.5zM287 358 q0 -69 39.5 -113.5t100.5 -44.5q60 0 100 44.5t40 113.5q0 68 -39.5 110t-100.5 42t-100.5 -42t-39.5 -110zM34 358q0 167 111 268.5t282 101.5t282.5 -101.5t111.5 -268.5q0 -168 -112 -273t-282 -105t-281.5 105t-111.5 273z"/>
<glyph glyph-name="multiply" d="M164 575l171 -163l166 162l112 -104l-167 -165q29 -27 86.5 -82t86.5 -82l-114 -112q-28 28 -85 82.5t-86 82.5l-171 -165q-18 18 -55.5 52.5t-56.5 52.5l169 168l-172 162z" unicode="×"/>
<glyph glyph-name="Oslash" horiz-adv-x="855" unicode="Ø" d="M425 191q73 0 113 48t40 118q0 38 -10 63l-201 -220q22 -9 58 -9zM427 522q-73 0 -113 -48.5t-40 -118.5q0 -39 9 -62l201 220q-23 9 -57 9zM427 -20q-136 0 -214 60l-93 -101l-94 80l92 100q-84 96 -84 239q0 168 111 269t283 101q116 0 210 -53l90 102l94 -81l-89 -96 q88 -97 88 -242q0 -168 -112 -273t-282 -105z"/>
<glyph glyph-name="Ugrave" horiz-adv-x="775" unicode="Ù" d="M329 764l-154 144h212l111 -144h-169zM384 -20q-159 0 -243.5 83t-84.5 215v430h238v-404q0 -51 24.5 -79.5t69.5 -28.5t69.5 28.5t24.5 79.5v404h237v-430q0 -131 -87.5 -214.5t-247.5 -83.5z"/>
<glyph glyph-name="Uacute" horiz-adv-x="775" unicode="Ú" d="M449 764h-169l111 144h212zM384 -20q-159 0 -243.5 83t-84.5 215v430h238v-404q0 -51 24.5 -79.5t69.5 -28.5t69.5 28.5t24.5 79.5v404h237v-430q0 -131 -87.5 -214.5t-247.5 -83.5z"/>
<glyph glyph-name="Ucircumflex" horiz-adv-x="775" unicode="Û" d="M455 764l-67 68l-67 -68h-152l137 144h169l134 -144h-154zM384 -20q-159 0 -243.5 83t-84.5 215v430h238v-404q0 -51 24.5 -79.5t69.5 -28.5t69.5 28.5t24.5 79.5v404h237v-430q0 -131 -87.5 -214.5t-247.5 -83.5z"/>
<glyph glyph-name="Udieresis" horiz-adv-x="775" unicode="Ü" d="M165 858q0 40 30 69.5t71 29.5q40 0 69.5 -29.5t29.5 -69.5q0 -41 -29.5 -69.5t-69.5 -28.5q-42 0 -71.5 28.5t-29.5 69.5zM414 858q0 40 30 69.5t71 29.5q40 0 69.5 -29.5t29.5 -69.5q0 -41 -29.5 -69.5t-69.5 -28.5q-42 0 -71.5 28.5t-29.5 69.5zM384 -20 q-159 0 -243.5 83t-84.5 215v430h238v-404q0 -51 24.5 -79.5t69.5 -28.5t69.5 28.5t24.5 79.5v404h237v-430q0 -131 -87.5 -214.5t-247.5 -83.5z"/>
<glyph glyph-name="Yacute" horiz-adv-x="738" unicode="Ý" d="M455 764h-169l111 144h212zM481 290v-290h-238v290l-267 418h287l112 -208l107 208h280z"/>
<glyph glyph-name="Thorn" horiz-adv-x="684" unicode="Þ" d="M353 422h-50v-114h50q30 0 51 15t21 44q0 55 -72 55zM370 127h-67v-127h-237v708h237v-101h67q58 0 107 -12t91.5 -38t67 -74t24.5 -114q0 -63 -24.5 -111t-66 -76t-92 -41.5t-107.5 -13.5z"/>
<glyph glyph-name="germandbls" horiz-adv-x="727" unicode="ß" d="M557 410q62 -16 99.5 -63.5t37.5 -123.5q0 -117 -74 -178t-197 -61q-49 0 -108 14v169q30 -10 57 -10q41 0 65.5 19t24.5 58q0 81 -105 81h-34v169h33q29 0 48 15t19 43q0 24 -17 37.5t-44 13.5q-39 0 -58.5 -26t-19.5 -67v-500h-231v493q0 131 81.5 203t237.5 72 q76 0 138 -20.5t104 -68.5t42 -117q0 -58 -27.5 -96.5t-71.5 -55.5z"/>
<glyph glyph-name="agrave" horiz-adv-x="591" unicode="à" d="M240 584l-154 144h212l111 -144h-169zM332 332v2q0 47 -60 47q-57 0 -111 -45l-115 114q47 45 113.5 70.5t136.5 25.5q72 0 123 -20.5t78.5 -59t39.5 -84.5t12 -105v-277h-209v42h-2q-18 -28 -54.5 -42t-74.5 -14q-72 0 -127.5 41.5t-55.5 127.5q0 52 27 89t74.5 55 t97 25.5t107.5 7.5zM347 218h-13q-113 0 -113 -52q0 -20 17 -30.5t36 -10.5q33 0 53 21t20 54v18z"/>
<glyph glyph-name="aacute" horiz-adv-x="591" unicode="á" d="M360 584h-169l111 144h212zM332 332v2q0 47 -60 47q-57 0 -111 -45l-115 114q47 45 113.5 70.5t136.5 25.5q72 0 123 -20.5t78.5 -59t39.5 -84.5t12 -105v-277h-209v42h-2q-18 -28 -54.5 -42t-74.5 -14q-72 0 -127.5 41.5t-55.5 127.5q0 52 27 89t74.5 55t97 25.5 t107.5 7.5zM347 218h-13q-113 0 -113 -52q0 -20 17 -30.5t36 -10.5q33 0 53 21t20 54v18z"/>
<glyph glyph-name="acircumflex" horiz-adv-x="591" unicode="â" d="M367 584l-67 68l-67 -68h-152l137 144h169l134 -144h-154zM332 332v2q0 47 -60 47q-57 0 -111 -45l-115 114q47 45 113.5 70.5t136.5 25.5q72 0 123 -20.5t78.5 -59t39.5 -84.5t12 -105v-277h-209v42h-2q-18 -28 -54.5 -42t-74.5 -14q-72 0 -127.5 41.5t-55.5 127.5 q0 52 27 89t74.5 55t97 25.5t107.5 7.5zM347 218h-13q-113 0 -113 -52q0 -20 17 -30.5t36 -10.5q33 0 53 21t20 54v18z"/>
<glyph glyph-name="atilde" horiz-adv-x="591" unicode="ã" d="M489 720q-3 -61 -33.5 -100t-80.5 -39q-38 0 -81 23q-41 22 -63 22q-30 0 -37 -36h-80q3 59 33 97.5t80 38.5q37 0 83 -24q43 -22 65 -22q28 0 35 40h79zM332 332v2q0 47 -60 47q-57 0 -111 -45l-115 114q47 45 113.5 70.5t136.5 25.5q72 0 123 -20.5t78.5 -59 t39.5 -84.5t12 -105v-277h-209v42h-2q-18 -28 -54.5 -42t-74.5 -14q-72 0 -127.5 41.5t-55.5 127.5q0 52 27 89t74.5 55t97 25.5t107.5 7.5zM347 218h-13q-113 0 -113 -52q0 -20 17 -30.5t36 -10.5q33 0 53 21t20 54v18z"/>
<glyph glyph-name="adieresis" horiz-adv-x="591" unicode="ä" d="M77 678q0 40 30 69.5t71 29.5q40 0 69.5 -29.5t29.5 -69.5q0 -41 -29.5 -69.5t-69.5 -28.5q-42 0 -71.5 28.5t-29.5 69.5zM326 678q0 40 30 69.5t71 29.5q40 0 69.5 -29.5t29.5 -69.5q0 -41 -29.5 -69.5t-69.5 -28.5q-42 0 -71.5 28.5t-29.5 69.5zM332 332v2q0 47 -60 47 q-57 0 -111 -45l-115 114q47 45 113.5 70.5t136.5 25.5q72 0 123 -20.5t78.5 -59t39.5 -84.5t12 -105v-277h-209v42h-2q-18 -28 -54.5 -42t-74.5 -14q-72 0 -127.5 41.5t-55.5 127.5q0 52 27 89t74.5 55t97 25.5t107.5 7.5zM347 218h-13q-113 0 -113 -52q0 -20 17 -30.5 t36 -10.5q33 0 53 21t20 54v18z"/>
<glyph glyph-name="aring" horiz-adv-x="591" unicode="å" d="M361 677q0 25 -17.5 42t-42.5 17t-42.5 -17t-17.5 -42t17.5 -42t42.5 -17t42.5 17t17.5 42zM416 677q0 -48 -34 -81t-81 -33t-81 33t-34 81t34 81t81 33t81 -33t34 -81zM332 332v2q0 47 -60 47q-57 0 -111 -45l-115 114q47 45 113.5 70.5t136.5 25.5q72 0 123 -20.5 t78.5 -59t39.5 -84.5t12 -105v-277h-209v42h-2q-18 -28 -54.5 -42t-74.5 -14q-72 0 -127.5 41.5t-55.5 127.5q0 52 27 89t74.5 55t97 25.5t107.5 7.5zM347 218h-13q-113 0 -113 -52q0 -20 17 -30.5t36 -10.5q33 0 53 21t20 54v18z"/>
<glyph glyph-name="ae" horiz-adv-x="916" unicode="æ" d="M530 333h159q0 28 -21 46t-55 18q-35 0 -57.5 -19.5t-25.5 -44.5zM345 216h-12q-109 0 -109 -50q0 -19 16.5 -29t34.5 -10q31 0 50.5 20t19.5 52v17zM616 -20q-52 0 -103 22.5t-80 59.5q-59 -76 -204 -76q-81 0 -142 41.5t-61 127.5q0 52 27 89t74.5 55t97 25.5 t107.5 7.5v2q0 47 -60 47q-58 0 -111 -45l-115 114q47 45 113.5 70.5t136.5 25.5q110 0 158 -61q66 61 157 61q123 0 200 -81.5t77 -206.5q0 -25 -2 -49h-354q3 -27 30 -43.5t60 -16.5q57 0 86 37l164 -83q-35 -57 -102 -90t-154 -33z"/>
<glyph glyph-name="ccedilla" horiz-adv-x="526" unicode="ç" d="M283 -240q-75 0 -133 23l34 78q37 -16 85 -16q40 0 40 21q0 18 -37 18q-23 0 -41 -6l-44 34l66 78q-101 22 -161 94.5t-60 178.5q0 126 88 204.5t222 78.5q53 0 106.5 -16.5t84.5 -40.5l-115 -166q-24 29 -69 29q-36 0 -63 -23.5t-27 -65.5t27 -64.5t63 -22.5q44 0 70 28 l116 -162q-69 -55 -174 -61l-32 -34q5 1 16 1q41 0 71.5 -19.5t30.5 -65.5q0 -38 -28.5 -62.5t-63 -32.5t-72.5 -8z"/>
<glyph glyph-name="egrave" horiz-adv-x="630" unicode="è" d="M268 584l-154 144h212l111 -144h-169zM602 258q0 -25 -2 -49h-354q3 -27 30 -43.5t60 -16.5q57 0 86 37l164 -83q-35 -57 -102 -90t-154 -33q-79 0 -145.5 31t-109.5 97t-43 155q0 127 84 205t209 78q123 0 200 -81.5t77 -206.5zM244 333h159q0 28 -21 46t-55 18 q-35 0 -57.5 -19.5t-25.5 -44.5z"/>
<glyph glyph-name="eacute" horiz-adv-x="630" unicode="é" d="M388 584h-169l111 144h212zM602 258q0 -25 -2 -49h-354q3 -27 30 -43.5t60 -16.5q57 0 86 37l164 -83q-35 -57 -102 -90t-154 -33q-79 0 -145.5 31t-109.5 97t-43 155q0 127 84 205t209 78q123 0 200 -81.5t77 -206.5zM244 333h159q0 28 -21 46t-55 18q-35 0 -57.5 -19.5 t-25.5 -44.5z"/>
<glyph glyph-name="ecircumflex" horiz-adv-x="630" unicode="ê" d="M399 584l-67 68l-67 -68h-152l137 144h169l134 -144h-154zM602 258q0 -25 -2 -49h-354q3 -27 30 -43.5t60 -16.5q57 0 86 37l164 -83q-35 -57 -102 -90t-154 -33q-79 0 -145.5 31t-109.5 97t-43 155q0 127 84 205t209 78q123 0 200 -81.5t77 -206.5zM244 333h159 q0 28 -21 46t-55 18q-35 0 -57.5 -19.5t-25.5 -44.5z"/>
<glyph glyph-name="edieresis" horiz-adv-x="630" unicode="ë" d="M106 678q0 40 30 69.5t71 29.5q40 0 69.5 -29.5t29.5 -69.5q0 -41 -29.5 -69.5t-69.5 -28.5q-42 0 -71.5 28.5t-29.5 69.5zM355 678q0 40 30 69.5t71 29.5q40 0 69.5 -29.5t29.5 -69.5q0 -41 -29.5 -69.5t-69.5 -28.5q-42 0 -71.5 28.5t-29.5 69.5zM602 258q0 -25 -2 -49 h-354q3 -27 30 -43.5t60 -16.5q57 0 86 37l164 -83q-35 -57 -102 -90t-154 -33q-79 0 -145.5 31t-109.5 97t-43 155q0 127 84 205t209 78q123 0 200 -81.5t77 -206.5zM244 333h159q0 28 -21 46t-55 18q-35 0 -57.5 -19.5t-25.5 -44.5z"/>
<glyph glyph-name="igrave" horiz-adv-x="339" unicode="ì" d="M114 584l-154 144h212l111 -144h-169zM54 0v526h231v-526h-231z"/>
<glyph glyph-name="iacute" horiz-adv-x="339" unicode="í" d="M231 584h-169l111 144h212zM54 0v526h231v-526h-231z"/>
<glyph glyph-name="icircumflex" horiz-adv-x="339" unicode="î" d="M239 584l-67 68l-67 -68h-152l137 144h169l134 -144h-154zM54 0v526h231v-526h-231z"/>
<glyph glyph-name="idieresis" horiz-adv-x="339" unicode="ï" d="M-52 678q0 40 30 69.5t71 29.5q40 0 69.5 -29.5t29.5 -69.5q0 -41 -29.5 -69.5t-69.5 -28.5q-42 0 -71.5 28.5t-29.5 69.5zM197 678q0 40 30 69.5t71 29.5q40 0 69.5 -29.5t29.5 -69.5q0 -41 -29.5 -69.5t-69.5 -28.5q-42 0 -71.5 28.5t-29.5 69.5zM54 0v526h231v-526 h-231z"/>
<glyph glyph-name="eth" horiz-adv-x="664" unicode="ð" d="M349 531l2 1q-23 23 -55 49l-107 -43l-110 89l107 43q-26 21 -70 49l176 94q47 -33 85 -68l112 45l121 -94l-127 -49q74 -78 111.5 -161.5t37.5 -188.5q0 -154 -86.5 -235.5t-214.5 -81.5q-125 0 -212 77t-87 208q0 125 79.5 197.5t201.5 72.5q15 0 36 -4zM331 352 q-37 0 -61 -26t-24 -61q0 -37 24.5 -63t61.5 -26t61.5 26t24.5 63q0 35 -25 61t-62 26z"/>
<glyph glyph-name="ntilde" d="M519 720q-3 -61 -33.5 -100t-80.5 -39q-38 0 -81 23q-41 22 -63 22q-30 0 -37 -36h-80q3 59 33 97.5t80 38.5q37 0 83 -24q43 -22 65 -22q28 0 35 40h79zM53 0v526h225v-58h2q21 31 61.5 51.5t88.5 20.5q53 0 91.5 -19t58.5 -52.5t29 -70t9 -78.5v-320h-232v280 q0 72 -50 72q-23 0 -37.5 -19t-14.5 -53v-280h-231z" unicode="ñ"/>
<glyph glyph-name="ograve" horiz-adv-x="664" unicode="ò" d="M272 584l-154 144h212l111 -144h-169zM331 352q-37 0 -61 -26t-24 -61q0 -37 24.5 -63t61.5 -26t61.5 26t24.5 63q0 35 -25 61t-62 26zM632 265q0 -131 -88 -208t-213 -77t-212 77t-87 208q0 130 87 205.5t212 75.5t213 -75.5t88 -205.5z"/>
<glyph glyph-name="oacute" horiz-adv-x="664" unicode="ó" d="M393 584h-169l111 144h212zM331 352q-37 0 -61 -26t-24 -61q0 -37 24.5 -63t61.5 -26t61.5 26t24.5 63q0 35 -25 61t-62 26zM632 265q0 -131 -88 -208t-213 -77t-212 77t-87 208q0 130 87 205.5t212 75.5t213 -75.5t88 -205.5z"/>
<glyph glyph-name="ocircumflex" horiz-adv-x="664" unicode="ô" d="M399 584l-67 68l-67 -68h-152l137 144h169l134 -144h-154zM331 352q-37 0 -61 -26t-24 -61q0 -37 24.5 -63t61.5 -26t61.5 26t24.5 63q0 35 -25 61t-62 26zM632 265q0 -131 -88 -208t-213 -77t-212 77t-87 208q0 130 87 205.5t212 75.5t213 -75.5t88 -205.5z"/>
<glyph glyph-name="otilde" horiz-adv-x="664" unicode="õ" d="M521 720q-3 -61 -33.5 -100t-80.5 -39q-38 0 -81 23q-41 22 -63 22q-30 0 -37 -36h-80q3 59 33 97.5t80 38.5q37 0 83 -24q43 -22 65 -22q28 0 35 40h79zM331 352q-37 0 -61 -26t-24 -61q0 -37 24.5 -63t61.5 -26t61.5 26t24.5 63q0 35 -25 61t-62 26zM632 265 q0 -131 -88 -208t-213 -77t-212 77t-87 208q0 130 87 205.5t212 75.5t213 -75.5t88 -205.5z"/>
<glyph glyph-name="odieresis" horiz-adv-x="664" unicode="ö" d="M108 678q0 40 30 69.5t71 29.5q40 0 69.5 -29.5t29.5 -69.5q0 -41 -29.5 -69.5t-69.5 -28.5q-42 0 -71.5 28.5t-29.5 69.5zM357 678q0 40 30 69.5t71 29.5q40 0 69.5 -29.5t29.5 -69.5q0 -41 -29.5 -69.5t-69.5 -28.5q-42 0 -71.5 28.5t-29.5 69.5zM331 352 q-37 0 -61 -26t-24 -61q0 -37 24.5 -63t61.5 -26t61.5 26t24.5 63q0 35 -25 61t-62 26zM632 265q0 -131 -88 -208t-213 -77t-212 77t-87 208q0 130 87 205.5t212 75.5t213 -75.5t88 -205.5z"/>
<glyph glyph-name="divide" d="M587 230h-508v147h508v-147zM235 111q0 38 29.5 65.5t69.5 27.5t68.5 -27.5t28.5 -65.5t-28.5 -66.5t-68.5 -28.5t-69.5 28.5t-29.5 66.5zM235 495q0 38 29.5 65.5t69.5 27.5t68.5 -27.5t28.5 -65.5q0 -40 -28.5 -67.5t-68.5 -27.5t-69.5 28t-29.5 67z" unicode="÷"/>
<glyph glyph-name="oslash" horiz-adv-x="664" unicode="ø" d="M324 366q-40 0 -64 -25t-24 -65q0 -12 2 -20l107 108q-6 2 -21 2zM334 170q40 0 64 25t24 64q0 13 -3 21l-107 -107q6 -3 22 -3zM649 490l-69 -68q52 -58 52 -157q0 -127 -87.5 -206t-213.5 -79q-91 0 -155 43l-80 -80l-86 84l76 75q-54 62 -54 162q0 127 86 204.5 t213 77.5q95 0 158 -43l73 71z"/>
<glyph glyph-name="ugrave" horiz-adv-x="663" unicode="ù" d="M263 584l-154 144h212l111 -144h-169zM610 526v-526h-225v58h-2q-21 -31 -61.5 -51.5t-88.5 -20.5q-53 0 -91.5 19t-58.5 52.5t-29 70t-9 78.5v320h232v-278q0 -72 50 -72q23 0 37.5 19t14.5 53v278h231z"/>
<glyph glyph-name="uacute" horiz-adv-x="663" unicode="ú" d="M401 584h-169l111 144h212zM610 526v-526h-225v58h-2q-21 -31 -61.5 -51.5t-88.5 -20.5q-53 0 -91.5 19t-58.5 52.5t-29 70t-9 78.5v320h232v-278q0 -72 50 -72q23 0 37.5 19t14.5 53v278h231z"/>
<glyph glyph-name="ucircumflex" horiz-adv-x="663" unicode="û" d="M394 584l-67 68l-67 -68h-152l137 144h169l134 -144h-154zM610 526v-526h-225v58h-2q-21 -31 -61.5 -51.5t-88.5 -20.5q-53 0 -91.5 19t-58.5 52.5t-29 70t-9 78.5v320h232v-278q0 -72 50 -72q23 0 37.5 19t14.5 53v278h231z"/>
<glyph glyph-name="udieresis" horiz-adv-x="663" unicode="ü" d="M104 678q0 40 30 69.5t71 29.5q40 0 69.5 -29.5t29.5 -69.5q0 -41 -29.5 -69.5t-69.5 -28.5q-42 0 -71.5 28.5t-29.5 69.5zM353 678q0 40 30 69.5t71 29.5q40 0 69.5 -29.5t29.5 -69.5q0 -41 -29.5 -69.5t-69.5 -28.5q-42 0 -71.5 28.5t-29.5 69.5zM610 526v-526h-225v58 h-2q-21 -31 -61.5 -51.5t-88.5 -20.5q-53 0 -91.5 19t-58.5 52.5t-29 70t-9 78.5v320h232v-278q0 -72 50 -72q23 0 37.5 19t14.5 53v278h231z"/>
<glyph glyph-name="yacute" horiz-adv-x="638" unicode="ý" d="M407 584h-169l111 144h212zM201 9l4 11l-213 506h256l78 -277h4l69 277h247l-216 -558q-41 -105 -103.5 -156.5t-172.5 -51.5q-69 0 -131 16l29 190q34 -12 65 -12q63 0 84 55z"/>
<glyph glyph-name="thorn" horiz-adv-x="694" unicode="þ" d="M448 265q0 36 -23 61.5t-63 25.5q-39 0 -64.5 -25.5t-25.5 -61.5q0 -38 25 -63.5t65 -25.5t63 25t23 64zM422 540q111 0 175.5 -82.5t64.5 -192.5q0 -112 -64 -195.5t-175 -83.5q-40 0 -77.5 14.5t-61.5 40.5h-2v-281h-229v996h229v-271h2q24 26 61.5 40.5t76.5 14.5z "/>
<glyph glyph-name="OE" horiz-adv-x="1007" unicode="Œ" d="M444 198h43v312h-34q-79 0 -123.5 -40.5t-44.5 -121.5q0 -68 44.5 -109t114.5 -41zM452 708h505v-198h-253v-61h238v-185h-238v-66h270v-198h-522q-70 0 -129.5 11t-113.5 36.5t-92 65.5t-60.5 102t-22.5 141q0 90 33.5 159.5t92.5 110.5t132.5 61.5t159.5 20.5z"/>
<glyph glyph-name="oe" horiz-adv-x="995" unicode="œ" d="M609 333h159q0 28 -21 46t-55 18q-35 0 -57.5 -19.5t-25.5 -44.5zM331 352q-37 0 -61 -26t-24 -61q0 -37 24.5 -63t61.5 -26t61.5 26t24.5 63q0 35 -25 61t-62 26zM693 546q121 0 197.5 -81.5t76.5 -206.5q0 -25 -2 -49h-354q3 -27 30 -43.5t60 -16.5q57 0 86 37l164 -83 q-35 -57 -102 -90t-151 -33q-59 0 -109.5 20.5t-77.5 51.5q-62 -72 -180 -72q-125 0 -212 77t-87 208q0 130 87 205.5t212 75.5q59 0 106 -22t74 -56q71 78 182 78z"/>
<glyph glyph-name="Scaron" horiz-adv-x="617" unicode="Š" d="M404 908h154l-134 -144h-169l-137 144h152l67 -68zM298 -20q-84 0 -163.5 29t-134.5 78l145 158q26 -29 68 -49t84 -20q53 0 53 33q0 19 -23 31t-102 38q-85 28 -134 75t-49 132q0 63 26.5 111.5t70.5 76.5t94.5 41.5t105.5 13.5q71 0 143.5 -28t126.5 -77l-148 -151 q-23 28 -57.5 44.5t-64.5 16.5q-58 0 -58 -32q0 -15 14 -22.5t56 -21.5q29 -10 46 -15.5t45.5 -17.5t46 -23t39 -29t33.5 -37t20.5 -45.5t8.5 -56.5q0 -120 -87 -186.5t-205 -66.5z"/>
<glyph glyph-name="scaron" horiz-adv-x="513" unicode="š" d="M342 728h154l-134 -144h-169l-137 144h152l67 -68zM484 167q0 -50 -22 -88t-58 -58.5t-74.5 -30.5t-78.5 -10q-68 0 -134 19.5t-113 55.5l113 131q54 -49 119 -49q33 0 33 21q0 12 -17.5 20t-65.5 19q-60 14 -104 52.5t-44 107.5q0 64 39 109t89 62.5t103 17.5 q128 0 229 -68l-108 -129q-53 34 -102 34q-39 0 -39 -22q0 -10 13 -15.5t57 -14.5q71 -15 118 -54.5t47 -109.5z"/>
<glyph glyph-name="Ydieresis" horiz-adv-x="738" unicode="Ÿ" d="M151 858q0 40 30 69.5t71 29.5q40 0 69.5 -29.5t29.5 -69.5q0 -41 -29.5 -69.5t-69.5 -28.5q-42 0 -71.5 28.5t-29.5 69.5zM400 858q0 40 30 69.5t71 29.5q40 0 69.5 -29.5t29.5 -69.5q0 -41 -29.5 -69.5t-69.5 -28.5q-42 0 -71.5 28.5t-29.5 69.5zM481 290v-290h-238 v290l-267 418h287l112 -208l107 208h280z"/>
<glyph glyph-name="circumflex" horiz-adv-x="360" unicode="ˆ" d="M246 584l-67 68l-67 -68h-152l137 144h169l134 -144h-154z"/>
<glyph glyph-name="tilde" horiz-adv-x="360" unicode="˜" d="M367 720q-3 -61 -33.5 -100t-80.5 -39q-38 0 -81 23q-41 22 -63 22q-30 0 -37 -36h-80q3 59 33 97.5t80 38.5q37 0 83 -24q43 -22 65 -22q28 0 35 40h79z"/>
<glyph glyph-name="uni0394" horiz-adv-x="782" unicode="Δ" d="M388 461l-101 -279h199zM754 132v-132h-727v132l238 576h253z"/>
<glyph glyph-name="uni03BC" horiz-adv-x="746" unicode="μ" d="M716 166v-162q-38 -18 -111 -18q-99 0 -135 72h-2q-13 -26 -40 -49t-67 -23q-38 0 -59 18h-2v-228h-236v750h236v-277q0 -73 48 -73q29 0 41.5 22.5t12.5 50.5v277h236v-313q0 -31 11 -42t36 -11q11 0 31 6z"/>
<glyph glyph-name="pi" horiz-adv-x="800" unicode="π" d="M737 4q-48 -18 -127 -18q-82 0 -122.5 35.5t-40.5 114.5v217h-105l-36 -353h-209l51 353h-103v173h720v-173h-109v-163q0 -34 36 -34q22 0 45 6v-158z"/>
<glyph glyph-name="endash" horiz-adv-x="400" unicode="–" d="M30 225v120h340v-120h-340z"/>
<glyph glyph-name="emdash" horiz-adv-x="600" unicode="—" d="M30 225v120h540v-120h-540z"/>
<glyph glyph-name="quoteleft" horiz-adv-x="342" unicode="‘" d="M231 426h-189l99 282h164z"/>
<glyph glyph-name="quotesinglbase" horiz-adv-x="342" unicode="‚" d="M111 156h189l-99 -282h-164z"/>
<glyph glyph-name="quotedblleft" horiz-adv-x="568" unicode="“" d="M226 426h-184l99 282h164zM457 426h-184l94 282h164z"/>
<glyph glyph-name="quotedblright" horiz-adv-x="568" unicode="”" d="M342 708h184l-99 -282h-164zM111 708h184l-94 -282h-164z"/>
<glyph glyph-name="dagger" horiz-adv-x="619" unicode="†" d="M399 341v-474h-184v474h-181v170h180v197h184v-197h187v-170h-186z"/>
<glyph glyph-name="daggerdbl" horiz-adv-x="619" unicode="‡" d="M401 36v-169h-183v169h-184v164h184v175h-184v164h183v169h183v-169h185v-164h-185v-175h185v-164h-184z"/>
<glyph glyph-name="ellipsis" horiz-adv-x="1000" unicode="…" d="M699 113q0 53 39.5 91.5t94.5 38.5q53 0 91.5 -38.5t38.5 -91.5q0 -54 -38.5 -91.5t-91.5 -37.5q-55 0 -94.5 37.5t-39.5 91.5zM366 113q0 53 39.5 91.5t94.5 38.5q53 0 91.5 -38.5t38.5 -91.5q0 -54 -38.5 -91.5t-91.5 -37.5q-55 0 -94.5 37.5t-39.5 91.5zM34 113 q0 53 39.5 91.5t94.5 38.5q53 0 91.5 -38.5t38.5 -91.5q0 -54 -38.5 -91.5t-91.5 -37.5q-55 0 -94.5 37.5t-39.5 91.5z"/>
<glyph glyph-name="perthousand" horiz-adv-x="1264" unicode="‰" d="M307 -27l-99 40l346 726l99 -45zM1053 225q-23 0 -39.5 -16.5t-16.5 -39.5q0 -22 16.5 -38t39.5 -16q22 0 38.5 16t16.5 38q0 23 -16.5 39.5t-38.5 16.5zM1053 -12q-76 0 -130.5 53t-54.5 128q0 76 54.5 129t130.5 53t130 -53t54 -129q0 -75 -54 -128t-130 -53zM651 225 q-23 0 -39.5 -16.5t-16.5 -39.5q0 -22 16.5 -38t39.5 -16q22 0 38.5 16t16.5 38q0 23 -16.5 39.5t-38.5 16.5zM651 -12q-76 0 -130.5 53t-54.5 128q0 76 54.5 129t130.5 53t130 -53t54 -129q0 -75 -54 -128t-130 -53zM212 594q-23 0 -39.5 -16.5t-16.5 -39.5q0 -22 16.5 -38 t39.5 -16q22 0 38.5 16t16.5 38q0 23 -16.5 39.5t-38.5 16.5zM212 357q-76 0 -130.5 53t-54.5 128q0 76 54.5 129t130.5 53t130 -53t54 -129q0 -75 -54 -128t-130 -53z"/>
<glyph glyph-name="guilsinglleft" horiz-adv-x="350" unicode="‹" d="M193 26l-176 248l176 248l129 -83l-115 -165l115 -165z"/>
<glyph glyph-name="guilsinglright" horiz-adv-x="350" unicode="›" d="M158 26l-130 83l115 165l-115 165l130 83l175 -248z"/>
<glyph glyph-name="fraction" horiz-adv-x="100" unicode="⁄" d="M-64 -27l-99 40l346 726l99 -45z"/>
<glyph glyph-name="Euro" horiz-adv-x="700" unicode="€" d="M119 335q-1 9 -1 22q0 10 1 19h-87l47 131h58q37 107 133 164t226 57q100 0 167 -24l-66 -167q-51 17 -106 17q-38 0 -72 -12.5t-48 -34.5h232l-46 -131h-227q-1 -9 -1 -19q0 -13 1 -22h217l-43 -129h-145q12 -21 47.5 -34t74.5 -13q76 0 122 27l30 -173 q-64 -33 -175 -33q-122 0 -208 60.5t-115 165.5h-105l42 129h47z"/>
<glyph glyph-name="trademark" horiz-adv-x="1000" unicode="™" d="M446 296v412h164l89 -248l83 248h163v-412h-112v245h-2l-92 -245h-91l-89 245h-2v-245h-111zM152 296v309h-112v103h346v-103h-112v-309h-122z"/>
<glyph glyph-name="partialdiff" horiz-adv-x="776" unicode="∂" d="M456 303v2q-27 16 -67 16q-35 0 -55 -19.5t-20 -55.5q0 -38 20.5 -57.5t42.5 -19.5q43 0 60 32.5t19 101.5zM664 360q0 -50 -6 -95.5t-25 -98t-50 -90.5t-85 -63.5t-125 -25.5q-121 0 -198 67.5t-77 181.5q0 103 68 169t193 66q48 0 87 -17q-9 79 -103 79q-79 0 -155 -63 l-95 154q110 97 263 97q69 0 123.5 -22.5t88.5 -58t56 -84t31 -97t9 -99.5z"/>
<glyph glyph-name="product" horiz-adv-x="765" unicode="∏" d="M711 -214h-190v837h-277v-837h-188v1000h655v-1000z"/>
<glyph glyph-name="summation" horiz-adv-x="684" unicode="∑" d="M664 -214h-637v133q47 63 141 187t140 186q-45 60 -135.5 180t-134.5 181v133h615v-163h-382q39 -55 118.5 -165t118.5 -165l-253 -344h409v-163z"/>
<glyph glyph-name="minus" d="M74 376h518v-144h-518v144z" unicode="−"/>
<glyph glyph-name="radical" horiz-adv-x="601" unicode="√" d="M609 786l-217 -1000h-146q-23 47 -69.5 141.5t-68.5 141.5l-51 -23l-67 138q33 14 101 44.5t101 45.5q16 -34 48 -102.5t47 -102.5l148 717h174z"/>
<glyph glyph-name="infinity" horiz-adv-x="859" unicode="∞" d="M338 265q-60 56 -96 56q-22 0 -36.5 -16t-14.5 -39q0 -25 14.5 -39.5t39.5 -14.5q40 0 93 53zM668 266q0 26 -14.5 41t-39.5 15q-38 0 -93 -57q50 -54 96 -54q23 0 37 15.5t14 39.5zM814 269q0 -85 -53 -142.5t-144 -57.5q-101 0 -187 94q-42 -44 -84 -68.5t-100 -24.5 q-91 0 -146 56t-55 142q0 84 53.5 139.5t143.5 55.5q59 0 103 -26.5t85 -72.5q85 100 188 100q90 0 143 -55.5t53 -139.5z"/>
<glyph glyph-name="approxequal" d="M619 251q-5 -36 -15 -67t-28.5 -62t-51 -49t-75.5 -18q-44 0 -128 30.5t-114 30.5q-32 0 -40 -56h-121q7 87 49 148.5t121 61.5q42 0 122 -28t122 -28q24 0 36 37h123zM619 485q-9 -110 -57 -161t-116 -51q-42 0 -124 29.5t-115 29.5q-28 0 -38 -41h-121q7 83 50 138 t128 55q40 0 117 -26t115 -26q33 0 38 53h123z" unicode="≈"/>
<glyph glyph-name="notequal" d="M597 58h-282l-74 -148q-23 12 -70.5 34t-71.5 33l44 81h-74v152h153q8 15 24.5 45t23.5 45h-201v152h280l78 147q23 -11 70 -33.5t70 -32.5q-7 -14 -21 -40.5t-22 -40.5h73v-152h-152q-8 -15 -24.5 -45t-23.5 -45h200v-152z" unicode="≠"/>
<glyph glyph-name="lessequal" d="M588 163l-510 203v134l510 203v-162q-46 -19 -137.5 -55.5t-136.5 -55.5l274 -103v-164zM588 7h-510v139h510v-139z" unicode="≤"/>
<glyph glyph-name="greaterequal" d="M588 366l-510 -203v164l274 103q-45 19 -137 55.5t-137 55.5v162l510 -203v-134zM588 7h-510v139h510v-139z" unicode="≥"/>
<glyph glyph-name="lozenge" horiz-adv-x="619" unicode="◊" d="M395 356q-14 32 -43.5 98t-43.5 99l-42 -99t-42 -98q14 -33 42 -98.5t42 -97.5q14 32 43.5 97.5t43.5 98.5zM568 356l-190 -391h-140l-185 391q31 65 93.5 195.5t93.5 195.5h138z"/>
</font>
</defs>
</svg>
