<?xml version="1.0" encoding="UTF-8" standalone="no"?>
<!DOCTYPE svg  PUBLIC '-//W3C//DTD SVG 1.1//EN'  'http://www.w3.org/Graphics/SVG/1.1/DTD/svg11.dtd'>
<svg xmlns="http://www.w3.org/2000/svg">
<defs>
<font id="AvenirNextCyr-Demi" horiz-adv-x="610">
<font-face underline-position="125" font-weight="700" descent="-200" panose-1="2 11 7 3 2 2 2 2 2 4" units-per-em="1000" unicode-range="U+0020-25CA" bbox="-214 -250 1192 957" x-height="480" underline-thickness="50" font-family="AvenirNextCyr" ascent="800" cap-height="708"/>
<missing-glyph horiz-adv-x="1000"/>
<glyph glyph-name=".notdef" horiz-adv-x="1000"/>
<glyph glyph-name=".null" horiz-adv-x="1000"/>
<glyph glyph-name=".null" horiz-adv-x="1000"/>
<glyph glyph-name="nonmarkingreturn" horiz-adv-x="333"/>
<glyph glyph-name="space" horiz-adv-x="250" unicode=" "/>
<glyph glyph-name="exclam" horiz-adv-x="340" unicode="!" d="M90 70q0 32 23.5 55t56.5 23t56.5 -22t23.5 -54t-23.5 -55t-56.5 -23q-32 0 -56 22t-24 54zM230 708v-486h-120v486h120z"/>
<glyph glyph-name="quotedbl" horiz-adv-x="459" unicode='&quot;' d="M267 444v264h102v-264h-102zM90 444v264h102v-264h-102z"/>
<glyph glyph-name="numbersign" horiz-adv-x="592" unicode="#" d="M356 415h-103l-17 -122h103zM107 0l30 209h-90v84h101l18 122h-90v84h101l30 209h88l-30 -209h103l30 209h87l-30 -209h90v-84h-102l-17 -122h90v-84h-100l-31 -209h-87l30 209h-104l-30 -209h-87z"/>
<glyph glyph-name="dollar" d="M330 298v-206q42 2 67.5 30.5t25.5 72.5q0 41 -24 64.5t-69 38.5zM276 430v188q-38 -4 -63.5 -27.5t-25.5 -64.5q0 -70 89 -96zM330 786v-66q128 -2 208 -71l-81 -84q-48 53 -127 53v-202q46 -14 77.5 -28.5t66 -39t52 -61.5t17.5 -85q0 -99 -62 -155t-151 -58v-72h-54 v72q-144 5 -235 93l88 84q27 -32 68 -52.5t79 -21.5v222q-102 28 -155.5 73t-53.5 133q0 85 62 138.5t147 59.5v68h54z" unicode="$"/>
<glyph glyph-name="percent" horiz-adv-x="930" unicode="%" d="M215 6l416 734l83 -38l-416 -734zM316 534q0 38 -26 64t-64 26t-64 -26t-26 -64t26 -64t64 -26t64 26t26 64zM40 534q0 77 54.5 131.5t131.5 54.5t131.5 -54.5t54.5 -131.5t-54.5 -131.5t-131.5 -54.5t-131.5 54.5t-54.5 131.5zM794 174q0 38 -26 64t-64 26t-64 -26 t-26 -64t26 -64t64 -26t64 26t26 64zM518 174q0 77 54.5 131.5t131.5 54.5t131.5 -54.5t54.5 -131.5t-54.5 -131.5t-131.5 -54.5t-131.5 54.5t-54.5 131.5z"/>
<glyph glyph-name="ampersand" horiz-adv-x="741" unicode="&amp;" d="M421 159l-151 157q-98 -36 -98 -119q0 -49 36.5 -80t80.5 -31q79 0 132 73zM328 629q-35 0 -59 -22.5t-24 -56.5q0 -56 63 -113q102 43 102 113q0 33 -23.5 56t-58.5 23zM712 374l-142 -205l165 -169h-160l-78 81q-81 -95 -212 -95q-99 0 -168 54.5t-69 151.5 q0 135 154 201q-76 78 -76 159q0 85 59.5 129.5t140.5 44.5q82 0 139 -44.5t57 -127.5q0 -121 -145 -188l116 -121l82 129h137z"/>
<glyph glyph-name="quotesingle" horiz-adv-x="282" unicode="&apos;" d="M90 444v264h102v-264h-102z"/>
<glyph glyph-name="parenleft" horiz-adv-x="330" unicode="(" d="M36 288q0 242 146 444l84 -55q-127 -176 -127 -389t127 -389l-84 -55q-146 202 -146 444z"/>
<glyph glyph-name="parenright" horiz-adv-x="330" unicode=")" d="M294 288q0 -242 -146 -444l-84 55q127 176 127 389t-127 389l84 55q146 -202 146 -444z"/>
<glyph glyph-name="asterisk" horiz-adv-x="463" unicode="*" d="M274 708v-142l135 44l26 -80l-136 -44l86 -117l-69 -50l-86 118l-84 -115l-67 51l86 113l-137 47l26 80l136 -47v142h84z"/>
<glyph glyph-name="plus" horiz-adv-x="666" unicode="+" d="M62 354h220v220h102v-220h220v-102h-220v-220h-102v220h-220v102z"/>
<glyph glyph-name="comma" horiz-adv-x="260" unicode="," d="M24 -126l70 264h116l-85 -264h-101z"/>
<glyph glyph-name="hyphen" horiz-adv-x="320" unicode="-" d="M280 297v-102h-240v102h240z"/>
<glyph glyph-name="period" horiz-adv-x="260" unicode="." d="M50 70q0 32 23.5 55t56.5 23t56.5 -22t23.5 -54t-23.5 -55t-56.5 -23q-32 0 -56 22t-24 54z"/>
<glyph glyph-name="slash" horiz-adv-x="389" unicode="/" d="M386 726l-312 -774l-83 30l312 776z"/>
<glyph glyph-name="zero" d="M432 354q0 44 -5 85.5t-17.5 86.5t-39 72.5t-64.5 27.5t-65 -27.5t-40 -72.5t-18 -86.5t-5 -85.5q0 -43 5 -85t18 -86.5t40 -71.5t65 -27t64.5 27t39 72t17.5 86t5 85zM555 354q0 -174 -65 -273t-184 -99q-120 0 -185.5 99t-65.5 273t65.5 273t185.5 99q119 0 184 -99 t65 -273z" unicode="0"/>
<glyph glyph-name="one" d="M279 0v562l-140 -115l-70 83l221 178h109v-708h-120z" unicode="1"/>
<glyph glyph-name="two" d="M69 0v110l273 268q72 70 72 139q0 49 -32 79t-81 30q-50 0 -81.5 -33.5t-38.5 -87.5l-117 18q11 89 77 146t162 57q98 0 167 -55t69 -152q0 -63 -29.5 -112.5t-84.5 -101.5l-204 -195h319v-110h-471z" unicode="2"/>
<glyph glyph-name="three" d="M212 321v96h32q151 0 151 107q0 46 -32.5 74t-79.5 28q-43 0 -72.5 -25t-40.5 -66l-113 29q19 72 83 117t148 45q98 0 163 -51t65 -143q0 -57 -35 -101.5t-92 -58.5v-2q65 -13 105.5 -59t40.5 -111q0 -103 -74 -160.5t-173 -57.5q-94 0 -162 41t-95 126l112 35 q13 -44 50 -72t91 -28q53 0 91.5 29t38.5 88q0 43 -28.5 71.5t-65 38.5t-78.5 10h-30z" unicode="3"/>
<glyph glyph-name="four" d="M348 250v317h-2l-201 -317h203zM348 0v147h-327v106l301 455h144v-458h99v-103h-99v-147h-118z" unicode="4"/>
<glyph glyph-name="five" d="M505 708v-108h-289l-7 -153q33 9 83 9q107 0 175.5 -59.5t68.5 -164.5q0 -114 -74 -182t-184 -68q-87 0 -149 41t-90 114l109 40q15 -42 50.5 -67.5t82.5 -25.5q56 0 94 36.5t38 98.5q0 75 -45.5 108t-112.5 33q-89 0 -165 -39l12 387h403z" unicode="5"/>
<glyph glyph-name="six" d="M167 222q0 -57 37.5 -97.5t98.5 -40.5t98.5 38.5t37.5 101.5q0 60 -37 99t-97 39q-61 0 -99.5 -39t-38.5 -101zM295 708h146l-181 -262l1 -1q29 12 75 12q94 0 160 -65.5t66 -161.5q0 -111 -73.5 -179.5t-184.5 -68.5t-185 70t-74 173q0 57 17.5 102.5t55.5 106.5z" unicode="6"/>
<glyph glyph-name="seven" d="M51 600v108h481v-110l-283 -598h-141l298 600h-355z" unicode="7"/>
<glyph glyph-name="eight" d="M305 322q-52 0 -87.5 -34t-35.5 -87q0 -54 34.5 -86t88.5 -32q53 0 87.5 32t34.5 86q0 52 -35.5 86.5t-86.5 34.5zM305 627q-45 0 -73.5 -27.5t-28.5 -72.5q0 -44 28 -73.5t74 -29.5q43 0 73 30t30 73q0 44 -30.5 72t-72.5 28zM305 726q96 0 160 -52t64 -140 q0 -60 -30 -102t-80 -58v-2q57 -14 95 -61t38 -111q0 -102 -70.5 -160t-176.5 -58t-176.5 58t-70.5 160q0 65 38.5 111.5t94.5 60.5v2q-110 40 -110 155q0 88 64.5 142.5t159.5 54.5z" unicode="8"/>
<glyph glyph-name="nine" d="M442 486q0 58 -38 99t-98 41q-61 0 -98.5 -39.5t-37.5 -102.5q0 -60 37 -99t97 -39q61 0 99.5 39t38.5 101zM314 0h-146l182 263l-1 1q-29 -13 -76 -13q-94 0 -160 65.5t-66 161.5q0 111 73.5 179.5t184.5 68.5t185 -70t74 -173q0 -57 -17.5 -102.5t-55.5 -106.5z" unicode="9"/>
<glyph glyph-name="colon" horiz-adv-x="300" unicode=":" d="M70 408q0 32 23.5 55t56.5 23t56.5 -22t23.5 -54t-23.5 -55t-56.5 -23q-32 0 -56 22t-24 54zM70 70q0 32 23.5 55t56.5 23t56.5 -22t23.5 -54t-23.5 -55t-56.5 -23q-32 0 -56 22t-24 54z"/>
<glyph glyph-name="semicolon" horiz-adv-x="300" unicode=";" d="M70 409q0 32 23.5 55t56.5 23t56.5 -22t23.5 -54t-23.5 -55t-56.5 -23q-32 0 -56 22t-24 54zM40 -126l70 264h122l-85 -264h-107z"/>
<glyph glyph-name="less" horiz-adv-x="666" unicode="&lt;" d="M586 42l-506 225v72l506 225v-110l-338 -151l338 -151v-110z"/>
<glyph glyph-name="equal" horiz-adv-x="666" unicode="=" d="M80 264h506v-102h-506v102zM80 444h506v-102h-506v102z"/>
<glyph glyph-name="greater" horiz-adv-x="666" unicode="&gt;" d="M80 564l506 -225v-72l-506 -225v110l338 151l-338 151v110z"/>
<glyph glyph-name="question" horiz-adv-x="519" unicode="?" d="M190 70q0 32 23.5 55t56.5 23t56.5 -22t23.5 -54t-23.5 -55t-56.5 -23q-32 0 -56 22t-24 54zM328 209h-118v38q0 48 14 79t52 67l45 43q46 42 46 89q0 40 -25.5 66t-68.5 26q-45 0 -72.5 -30.5t-29.5 -73.5l-123 11q11 94 75 148t158 54q91 0 152 -51t61 -142 q0 -58 -23 -94t-77 -83q-41 -36 -53.5 -57.5t-12.5 -63.5v-26z"/>
<glyph glyph-name="at" horiz-adv-x="800" unicode="@" d="M670 163l55 -60q-114 -121 -311 -121q-171 0 -276.5 103.5t-105.5 267.5q0 159 111.5 266t270.5 107q70 0 132.5 -20.5t112.5 -59t79.5 -101t29.5 -140.5q0 -115 -58 -180t-140 -65q-39 0 -63.5 19t-24.5 48h-5q-17 -28 -49 -47.5t-73 -19.5q-66 0 -104 44.5t-38 117.5 q0 89 55.5 158t140.5 69q37 0 63.5 -15.5t34.5 -39.5h1l8 40h89l-39 -189q-9 -54 -9 -63q0 -40 32 -40q39 0 64.5 42.5t25.5 112.5q0 118 -73.5 183t-193.5 65q-125 0 -204 -83.5t-79 -209.5q0 -131 82 -209t212 -78q143 0 247 98zM412 467q-44 0 -71 -46.5t-27 -100.5 q0 -30 14.5 -53.5t49.5 -23.5q50 0 75 43.5t25 92.5q0 88 -66 88z"/>
<glyph glyph-name="A" horiz-adv-x="706" unicode="A" d="M240 270h220l-109 288zM-8 0l308 708h109l305 -708h-144l-66 162h-307l-64 -162h-141z"/>
<glyph glyph-name="B" horiz-adv-x="647" unicode="B" d="M204 312v-206h113q158 0 158 106q0 54 -37 77t-116 23h-118zM204 604v-184h112q63 0 96 25t33 71q0 47 -34 67.5t-106 20.5h-101zM78 0v708h276q90 0 153.5 -44t63.5 -134q0 -58 -33 -98t-90 -57v-2q69 -9 111 -53t42 -114q0 -55 -22.5 -96.5t-61.5 -64.5t-85 -34 t-99 -11h-255z"/>
<glyph glyph-name="C" horiz-adv-x="696" unicode="C" d="M685 618l-96 -76q-26 36 -70.5 54.5t-90.5 18.5q-108 0 -176.5 -74t-68.5 -185q0 -116 65.5 -188.5t174.5 -72.5q112 0 172 82l101 -71q-99 -124 -274 -124q-166 0 -272 104.5t-106 269.5q0 167 108.5 268.5t275.5 101.5q74 0 145.5 -27.5t111.5 -80.5z"/>
<glyph glyph-name="D" horiz-adv-x="764" unicode="D" d="M204 110h105q41 0 78.5 7t74.5 24.5t63.5 44t43 70t16.5 98.5q0 246 -276 246h-105v-490zM78 0v708h251q74 0 140 -18.5t124 -58t92.5 -111t34.5 -166.5q0 -89 -34.5 -159t-92 -111.5t-125 -62.5t-139.5 -21h-251z"/>
<glyph glyph-name="E" d="M78 0v708h469v-110h-343v-180h325v-106h-325v-200h361v-112h-487z" unicode="E"/>
<glyph glyph-name="F" horiz-adv-x="573" unicode="F" d="M78 0v708h457v-110h-331v-194h312v-106h-312v-298h-126z"/>
<glyph glyph-name="G" horiz-adv-x="773" unicode="G" d="M698 404v-367q-115 -55 -267 -55q-171 0 -279 104t-108 270q0 167 108.5 268.5t275.5 101.5q82 0 153.5 -24t115.5 -65l-87 -94q-28 31 -77 51.5t-104 20.5q-110 0 -178 -74t-68 -185q0 -115 68.5 -188t183.5 -73q81 0 141 25v180h-149v104h271z"/>
<glyph glyph-name="H" horiz-adv-x="739" unicode="H" d="M78 0v708h126v-286h331v286h126v-708h-126v314h-331v-314h-126z"/>
<glyph glyph-name="I" horiz-adv-x="282" unicode="I" d="M78 0v708h126v-708h-126z"/>
<glyph glyph-name="J" horiz-adv-x="498" unicode="J" d="M426 708v-479q0 -34 -5 -65.5t-19.5 -65.5t-37 -59t-61.5 -41t-90 -16q-83 0 -136 42t-72 114l116 33q9 -35 33 -55.5t57 -20.5q51 0 70 35.5t19 102.5v475h126z"/>
<glyph glyph-name="K" horiz-adv-x="689" unicode="K" d="M78 0v708h126v-306h3l296 306h170l-331 -327l353 -381h-177l-311 355h-3v-355h-126z"/>
<glyph glyph-name="L" horiz-adv-x="511" unicode="L" d="M78 0v708h126v-596h301v-112h-427z"/>
<glyph glyph-name="M" horiz-adv-x="920" unicode="M" d="M78 0v708h197l184 -503h3l182 503h198v-708h-125v569h-2l-215 -569h-88l-212 569h-2v-569h-120z"/>
<glyph glyph-name="N" horiz-adv-x="780" unicode="N" d="M78 0v708h167l329 -530h2v530h126v-708h-160l-336 547h-2v-547h-126z"/>
<glyph glyph-name="O" horiz-adv-x="849" unicode="O" d="M181 356q0 -114 68 -187.5t175 -73.5q108 0 176 73.5t68 187.5q0 111 -67.5 185t-176.5 74q-108 0 -175.5 -74t-67.5 -185zM44 356q0 168 106.5 269t272.5 101q168 0 275 -101t107 -269q0 -165 -107.5 -269.5t-274.5 -104.5q-165 0 -272 104.5t-107 269.5z"/>
<glyph glyph-name="P" d="M204 399h88q157 0 157 104q0 57 -41.5 78t-111.5 21h-92v-203zM78 0v708h231q267 0 267 -205q0 -110 -76 -160t-199 -50h-97v-293h-126z" unicode="P"/>
<glyph glyph-name="Q" horiz-adv-x="852" unicode="Q" d="M416 613q-103 0 -172 -71t-69 -179q0 -113 66 -183t173 -70q106 0 173.5 70t67.5 183q0 109 -66.5 179.5t-172.5 70.5zM841 102v-102h-427q-172 0 -274.5 96.5t-102.5 266.5q0 160 107.5 261.5t271.5 101.5t270 -101.5t106 -261.5q0 -88 -36 -154.5t-90 -104.5v-2h175z "/>
<glyph glyph-name="R" horiz-adv-x="629" unicode="R" d="M204 403h103q152 0 152 103q0 52 -41 74t-100 22h-114v-199zM78 0v708h246q71 0 127.5 -18.5t95 -66t38.5 -118.5q0 -75 -43 -124.5t-119 -66.5l189 -314h-152l-164 300h-92v-300h-126z"/>
<glyph glyph-name="S" horiz-adv-x="574" unicode="S" d="M521 650l-82 -90q-20 27 -56.5 44t-73.5 17q-49 0 -87 -24.5t-38 -72.5q0 -24 8.5 -40.5t30 -29.5t40.5 -20t56 -19q35 -11 57.5 -19t54 -25.5t50 -37.5t32 -52.5t13.5 -72.5q0 -109 -73.5 -167.5t-184.5 -58.5q-71 0 -136.5 26.5t-106.5 74.5l90 84q26 -35 69 -56.5 t86 -21.5q51 0 89.5 26t38.5 79q0 18 -5 32.5t-18.5 26.5t-23.5 19.5t-35.5 17t-36.5 13.5t-44 14q-38 12 -65 25t-55.5 35.5t-43.5 58t-15 82.5q0 101 76.5 154.5t182.5 53.5q56 0 111.5 -19.5t94.5 -56.5z"/>
<glyph glyph-name="T" horiz-adv-x="568" unicode="T" d="M221 0v598h-217v110h560v-110h-217v-598h-126z"/>
<glyph glyph-name="U" horiz-adv-x="714" unicode="U" d="M642 708v-448q0 -126 -80.5 -202t-204.5 -76t-204.5 76t-80.5 202v448h126v-443q0 -71 38 -120.5t121 -49.5t121 49.5t38 120.5v443h126z"/>
<glyph glyph-name="V" horiz-adv-x="653" unicode="V" d="M270 0l-280 708h141l195 -545h4l197 545h136l-284 -708h-109z"/>
<glyph glyph-name="W" horiz-adv-x="1004" unicode="W" d="M213 0l-207 708h138l137 -520h2l156 520h130l153 -520h2l140 520h134l-207 -708h-122l-166 531h-2l-166 -531h-122z"/>
<glyph glyph-name="X" horiz-adv-x="658" unicode="X" d="M4 0l245 378l-220 330h152l146 -242l144 242h145l-216 -333l254 -375h-159l-173 278l-166 -278h-152z"/>
<glyph glyph-name="Y" horiz-adv-x="622" unicode="Y" d="M249 0v307l-266 401h154l178 -298l180 298h146l-266 -401v-307h-126z"/>
<glyph glyph-name="Z" horiz-adv-x="611" unicode="Z" d="M35 0v114l385 484h-379v110h529v-114l-387 -482h393v-112h-541z"/>
<glyph glyph-name="bracketleft" horiz-adv-x="330" unicode="[" d="M252 732v-78h-90v-732h90v-78h-192v888h192z"/>
<glyph glyph-name="backslash" horiz-adv-x="389" unicode="\" d="M3 726l83 32l312 -776l-83 -30z"/>
<glyph glyph-name="bracketright" horiz-adv-x="330" unicode="]" d="M78 -156v78h90v732h-90v78h192v-888h-192z"/>
<glyph glyph-name="asciicircum" horiz-adv-x="666" unicode="^" d="M187 343h-118l223 365h82l223 -365h-118l-147 239z"/>
<glyph glyph-name="underscore" horiz-adv-x="500" unicode="_" d="M500 -75v-75h-500v75h500z"/>
<glyph glyph-name="grave" horiz-adv-x="260" unicode="`" d="M78 708l99 -144h-94l-141 144h136z"/>
<glyph glyph-name="a" horiz-adv-x="550" unicode="a" d="M368 202v17h-27q-183 0 -183 -80q0 -32 24.5 -46t59.5 -14q61 0 93.5 32.5t32.5 90.5zM370 0v61h-3q-18 -32 -58.5 -52.5t-90.5 -20.5q-69 0 -124.5 36.5t-55.5 112.5q0 41 20.5 71.5t51.5 47.5t77.5 27.5t88 13.5t92.5 3v12q0 42 -31 65t-79 23q-76 0 -131 -55l-62 73 q82 76 203 76q62 0 105.5 -17.5t66.5 -48t32.5 -64t9.5 -72.5v-292h-112z"/>
<glyph glyph-name="b" horiz-adv-x="635" unicode="b" d="M469 242q0 62 -36.5 108t-101.5 46q-63 0 -102 -48t-39 -108t39 -107t102 -47q65 0 101.5 47t36.5 109zM74 756h120v-337h3q60 75 161 75q102 0 167.5 -72t65.5 -180t-64.5 -182t-171.5 -74q-51 0 -96 22.5t-69 63.5h-2v-72h-114v756z"/>
<glyph glyph-name="c" horiz-adv-x="488" unicode="c" d="M482 419l-82 -72q-14 20 -42 33.5t-57 13.5q-62 0 -97 -46.5t-35 -107.5q0 -62 36 -108t100 -46q66 0 101 43l75 -76q-62 -67 -177 -67q-110 0 -185 69t-75 185q0 114 74 184t183 70q53 0 103 -20t78 -55z"/>
<glyph glyph-name="d" horiz-adv-x="634" unicode="d" d="M165 242q0 -62 36.5 -109t101.5 -47q63 0 102 47t39 107t-39 108t-102 48q-65 0 -101.5 -46t-36.5 -108zM560 756v-756h-114v72h-2q-24 -41 -69 -63.5t-96 -22.5q-107 0 -171.5 74t-64.5 182t65.5 180t167.5 72q101 0 161 -75h3v337h120z"/>
<glyph glyph-name="e" horiz-adv-x="574" unicode="e" d="M530 234q0 -21 -1 -32h-365q4 -50 44 -84t93 -34q83 0 127 62l80 -64q-71 -96 -206 -96q-113 0 -185.5 68t-72.5 183t72 186t182 71q104 0 168 -67t64 -193zM164 288h246q0 50 -29 83t-84 33q-53 0 -91 -33t-42 -83z"/>
<glyph glyph-name="f" horiz-adv-x="324" unicode="f" d="M91 0v384h-91v96h91v71q0 97 45 157t149 60q36 0 61 -7l-8 -102q-23 7 -46 7q-81 0 -81 -108v-78h111v-96h-111v-384h-120z"/>
<glyph glyph-name="g" horiz-adv-x="632" unicode="g" d="M304 396q-63 0 -100.5 -43.5t-37.5 -109.5q0 -61 37.5 -106.5t99.5 -45.5q64 0 103.5 44.5t39.5 107.5q0 64 -39 108.5t-103 44.5zM446 480h114v-437q0 -134 -67.5 -208.5t-203.5 -74.5q-61 0 -127 21t-111 58l69 93q71 -68 168 -68q152 0 152 165v35h-2 q-54 -72 -157 -72q-105 0 -171 72.5t-66 177.5q0 107 64.5 179.5t170.5 72.5q113 0 165 -86h2v72z"/>
<glyph glyph-name="h" horiz-adv-x="584" unicode="h" d="M339 494q88 0 132.5 -56.5t44.5 -137.5v-300h-120v264q0 127 -89 127q-54 0 -83.5 -38.5t-29.5 -90.5v-262h-120v756h120v-343h2q16 33 54.5 57t88.5 24z"/>
<glyph glyph-name="i" horiz-adv-x="268" unicode="i" d="M57 643q0 29 22 50.5t54 21.5q33 0 55.5 -20.5t22.5 -51.5t-22.5 -51.5t-55.5 -20.5q-32 0 -54 21.5t-22 50.5zM74 0v480h120v-480h-120z"/>
<glyph glyph-name="j" horiz-adv-x="268" unicode="j" d="M57 643q0 29 22 50.5t54 21.5q33 0 55.5 -20.5t22.5 -51.5t-22.5 -51.5t-55.5 -20.5q-32 0 -54 21.5t-22 50.5zM74 480h120v-509q0 -47 -7.5 -82t-25.5 -66t-53.5 -47t-87.5 -16q-30 0 -54 6l10 102q15 -4 33 -4q39 0 52 26.5t13 75.5v514z"/>
<glyph glyph-name="k" horiz-adv-x="543" unicode="k" d="M74 0v756h120v-478h3l182 202h154l-208 -217l221 -263h-159l-190 246h-3v-246h-120z"/>
<glyph glyph-name="l" horiz-adv-x="268" unicode="l" d="M74 0v756h120v-756h-120z"/>
<glyph glyph-name="m" horiz-adv-x="890" unicode="m" d="M645 494q88 0 132.5 -56.5t44.5 -137.5v-300h-120v266q0 128 -90 128q-52 0 -79 -39.5t-27 -92.5v-262h-120v290q0 47 -22.5 75.5t-66.5 28.5q-51 0 -78 -38.5t-27 -91.5v-264h-120v480h114v-77h2q17 39 56 65t93 26q105 0 150 -91q50 91 158 91z"/>
<glyph glyph-name="n" horiz-adv-x="582" unicode="n" d="M72 0v480h114v-77h2q17 38 57.5 64.5t91.5 26.5q88 0 132.5 -56.5t44.5 -137.5v-300h-120v266q0 128 -90 128q-54 0 -83 -38.5t-29 -91.5v-264h-120z"/>
<glyph glyph-name="o" d="M166 242q0 -62 36 -109t103 -47t103 47t36 109t-36 108t-103 46t-103 -46t-36 -108zM44 242q0 111 75 181.5t186 70.5t186 -70.5t75 -181.5q0 -112 -75.5 -184t-185.5 -72t-185.5 72t-75.5 184z" unicode="o"/>
<glyph glyph-name="p" horiz-adv-x="633" unicode="p" d="M467 242q0 62 -36.5 108t-101.5 46q-63 0 -102 -48t-39 -108t39 -107t102 -47q65 0 101.5 47t36.5 109zM72 480h115v-67h3q21 33 63.5 57t102.5 24q102 0 167.5 -72t65.5 -180t-64.5 -182t-171.5 -74q-50 0 -93 21t-66 57h-2v-304h-120v720z"/>
<glyph glyph-name="q" horiz-adv-x="632" unicode="q" d="M165 242q0 -62 36.5 -109t101.5 -47q63 0 102 47t39 107t-39 108t-102 48q-65 0 -101.5 -46t-36.5 -108zM560 480v-720h-120v304h-2q-23 -36 -66 -57t-93 -21q-107 0 -171.5 74t-64.5 182t65.5 180t167.5 72q60 0 102.5 -24t63.5 -57h3v67h115z"/>
<glyph glyph-name="r" horiz-adv-x="364" unicode="r" d="M72 0v480h115v-80h2q20 43 57 68.5t83 25.5q17 0 29 -3v-110q-20 5 -37 5q-31 0 -55 -10t-37.5 -25t-22 -33.5t-11.5 -33.5t-3 -27v-257h-120z"/>
<glyph glyph-name="s" horiz-adv-x="444" unicode="s" d="M413 421l-78 -69q-17 22 -45 37t-60 15t-54.5 -13t-22.5 -39q0 -25 23 -37t81 -26q31 -7 55 -16.5t48.5 -25.5t38 -42t13.5 -59q0 -82 -56.5 -121t-143.5 -39q-57 0 -110 21t-87 58l79 74q46 -60 123 -60q31 0 54 14t23 43q0 28 -24.5 41.5t-85.5 27.5 q-65 16 -103.5 45.5t-38.5 90.5q0 75 56 114t135 39q54 0 103 -19t77 -54z"/>
<glyph glyph-name="t" horiz-adv-x="340" unicode="t" d="M87 384h-84v96h84v139h118v-139h120v-96h-120v-223q0 -36 13 -55t50 -19q31 0 51 10l4 -94q-34 -13 -80 -13q-88 0 -122 45.5t-34 124.5v224z"/>
<glyph glyph-name="u" horiz-adv-x="582" unicode="u" d="M510 480v-480h-114v77h-2q-17 -38 -57.5 -64.5t-91.5 -26.5q-88 0 -132.5 56.5t-44.5 137.5v300h120v-266q0 -128 90 -128q54 0 83 38.5t29 91.5v264h120z"/>
<glyph glyph-name="v" horiz-adv-x="513" unicode="v" d="M194 0l-194 480h131l126 -350h2l127 350h127l-191 -480h-128z"/>
<glyph glyph-name="w" horiz-adv-x="804" unicode="w" d="M171 0l-167 480h130l100 -344h2l103 344h128l104 -344h2l102 344h125l-166 -480h-122l-109 336h-2l-108 -336h-122z"/>
<glyph glyph-name="x" horiz-adv-x="537" unicode="x" d="M-1 0l195 255l-173 225h144l104 -149l107 149h138l-172 -225l196 -255h-146l-125 175l-126 -175h-142z"/>
<glyph glyph-name="y" horiz-adv-x="513" unicode="y" d="M206 0l-206 480h133l134 -349h2l119 349h125l-227 -583q-28 -71 -67.5 -104t-114.5 -33q-33 0 -62 7l10 104q22 -7 45 -7q36 0 52 16.5t33 58.5z"/>
<glyph glyph-name="z" horiz-adv-x="482" unicode="z" d="M34 0v106l259 278h-247v96h390v-106l-260 -276h272v-98h-414z"/>
<glyph glyph-name="braceleft" horiz-adv-x="330" unicode="{" d="M10 244v88q27 0 48 16t21 54v198q0 64 37 98t91 34h73v-84h-55q-44 0 -44 -60v-188q0 -52 -32.5 -79.5t-65.5 -31.5v-2q15 -1 29.5 -6.5t31 -17.5t27 -36t10.5 -57v-182q0 -60 44 -60h55v-84h-73q-54 0 -91 34t-37 98v191q0 42 -21 59.5t-48 17.5z"/>
<glyph glyph-name="bar" horiz-adv-x="222" unicode="|" d="M60 750h102v-1000h-102v1000z"/>
<glyph glyph-name="braceright" horiz-adv-x="330" unicode="}" d="M320 332v-88q-27 0 -48 -17.5t-21 -59.5v-191q0 -64 -37 -98t-91 -34h-73v84h55q44 0 44 60v182q0 33 10.5 57t27 36t31 17.5t29.5 6.5v2q-33 4 -65.5 31.5t-32.5 79.5v188q0 60 -44 60h-55v84h73q54 0 91 -34t37 -98v-198q0 -38 21 -54t48 -16z"/>
<glyph glyph-name="asciitilde" horiz-adv-x="666" unicode="~" d="M345 354q40 -25 55.5 -31t38.5 -6q45 0 78 63l77 -65q-62 -102 -153 -102q-58 0 -121 40q-58 36 -93 36q-44 0 -78 -63l-77 65q62 103 153 103q59 0 120 -40z"/>
<glyph glyph-name="uni00A0" horiz-adv-x="250" unicode=" "/>
<glyph glyph-name="exclamdown" horiz-adv-x="340" unicode="¡" d="M90 424q0 32 24 54t56 22q33 0 56.5 -23t23.5 -55t-23.5 -54t-56.5 -22t-56.5 23t-23.5 55zM230 -214h-120v486h120v-486z"/>
<glyph glyph-name="cent" d="M300 90v299q-53 -11 -80.5 -51.5t-27.5 -97.5q0 -54 28 -95.5t80 -54.5zM354 559v-67q115 -4 170 -69l-77 -78q-40 42 -93 45v-300q56 0 97 46l73 -79q-60 -65 -170 -69v-72h-54v72q-101 9 -161.5 79.5t-60.5 173.5q0 104 59.5 170.5t162.5 80.5v67h54z" unicode="¢"/>
<glyph glyph-name="sterling" d="M66 0v107h98v208h-98v84h98v83q0 32 7.5 64t25.5 65t45 58t70 41t96 16q107 0 176 -60l-71 -83q-40 43 -105 43t-93.5 -45.5t-28.5 -103.5v-78h164v-84h-164v-208h265v-107h-485z" unicode="£"/>
<glyph glyph-name="currency" horiz-adv-x="920" unicode="¤" d="M461 459q-64 0 -104.5 -44t-40.5 -106q0 -64 40.5 -108t104.5 -44q65 0 105 44t40 108q0 62 -40.5 106t-104.5 44zM687 462q45 -66 45 -153q0 -93 -48 -158l93 -93l-70 -70l-96 95q-65 -43 -150 -43q-81 0 -151 45q-32 -33 -98 -97l-22 22t-25.5 26t-22.5 22l95 96 q-45 62 -45 155q0 87 43 150l-93 93l71 70l94 -93q68 46 154 46q88 0 153 -45l29 29t34 34.5t29 28.5l71 -70z"/>
<glyph glyph-name="yen" d="M245 0v155h-176v78h176v77h-176v78h145l-198 320h140l155 -288l149 288h134l-193 -320h140v-78h-176v-77h176v-78h-176v-155h-120z" unicode="¥"/>
<glyph glyph-name="brokenbar" horiz-adv-x="222" unicode="¦" d="M60 175h102v-350h-102v350zM60 675h102v-350h-102v350z"/>
<glyph glyph-name="section" d="M281 239l104 -43q43 21 43 68q0 18 -6.5 32t-20.5 25t-25 17.5t-29 15.5l-89 40q-58 -24 -58 -70q0 -23 14 -40.5t27.5 -25t39.5 -19.5zM529 640l-82 -73q-20 29 -51.5 46t-63.5 17q-34 0 -62 -17t-28 -49q0 -34 31 -56t99 -50q37 -15 62 -29t52.5 -35t41.5 -50t14 -64 q0 -40 -23 -75t-58 -53q52 -39 52 -116q0 -85 -65.5 -132.5t-152.5 -47.5q-67 0 -129.5 29t-97.5 84l99 59q17 -34 52.5 -52t74.5 -18q35 0 65 18.5t30 52.5q0 44 -49 71q-21 12 -101 43q-34 13 -56 24.5t-47 30.5t-37.5 45t-12.5 59q0 95 96 145q-61 39 -61 114 q0 78 63 121.5t145 43.5q60 0 113.5 -22t86.5 -64z" unicode="§"/>
<glyph glyph-name="dieresis" horiz-adv-x="260" unicode="¨" d="M156 644q0 28 20.5 49t50.5 21q31 0 52 -20t21 -50t-21 -50t-52 -20q-30 0 -50.5 21t-20.5 49zM-40 644q0 28 20.5 49t50.5 21q31 0 52 -20t21 -50t-21 -50t-52 -20q-30 0 -50.5 21t-20.5 49z"/>
<glyph glyph-name="copyright" horiz-adv-x="800" unicode="©" d="M80 353q0 -132 94 -225.5t227 -93.5q132 0 225.5 93.5t93.5 225.5q0 133 -93.5 227t-225.5 94q-133 0 -227 -94t-94 -227zM20 353q0 157 111.5 267t269.5 110q157 0 268 -110t111 -267q0 -156 -111 -265.5t-268 -109.5q-158 0 -269.5 109.5t-111.5 265.5zM577 506 l-63 -63q-15 18 -41 30t-55 12q-58 0 -91 -39t-33 -93q0 -55 35 -95t96 -40q60 0 93 38l58 -68q-54 -60 -158 -60q-99 0 -164.5 59.5t-65.5 163.5q0 102 66 163t164 61q48 0 91 -18.5t68 -50.5z"/>
<glyph glyph-name="ordfeminine" horiz-adv-x="380" unicode="ª" d="M238 544v13h-14q-92 0 -92 -39q0 -16 12.5 -24t30.5 -8q30 0 46.5 16t16.5 42zM244 431v30h-1q-22 -37 -89 -37q-43 0 -74 23t-31 63q0 33 16.5 54.5t48 30.5t59 12t65.5 3v6q0 42 -60 42q-41 0 -69 -31l-44 52q44 44 120 44q132 0 132 -118v-174h-73z"/>
<glyph glyph-name="guillemotleft" horiz-adv-x="519" unicode="«" d="M480 421l-115 -173l116 -175l-76 -51l-152 226l152 224zM257 421l-115 -173l116 -175l-76 -51l-152 226l152 224z"/>
<glyph glyph-name="logicalnot" horiz-adv-x="666" unicode="¬" d="M502 147v195h-440v102h542v-297h-102z"/>
<glyph glyph-name="uni00AD" horiz-adv-x="320" unicode="­" d="M280 297v-102h-240v102h240z"/>
<glyph glyph-name="registered" horiz-adv-x="600" unicode="®" d="M343 545q0 12 -11 18.5t-24 6.5h-38v-54h38q14 0 24.5 8.5t10.5 20.5zM432 368h-83l-50 96h-29v-96h-71v260h112q44 0 75.5 -19.5t31.5 -62.5q0 -26 -14.5 -44.5t-37.5 -26.5zM492 493q0 80 -56 136.5t-135 56.5q-80 0 -136.5 -56.5t-56.5 -136.5q0 -79 56.5 -135 t136.5 -56q79 0 135 56t56 135zM528 493q0 -93 -66.5 -158.5t-160.5 -65.5q-95 0 -162 65.5t-67 158.5q0 94 67 160.5t162 66.5q94 0 160.5 -66.5t66.5 -160.5z"/>
<glyph glyph-name="macron" horiz-adv-x="260" unicode="¯" d="M290 673v-78h-320v78h320z"/>
<glyph glyph-name="degree" horiz-adv-x="400" unicode="°" d="M118 560q0 -34 24 -58t58 -24t58 24t24 58t-24 58t-58 24t-58 -24t-24 -58zM40 560q0 66 47 113t113 47t113 -47t47 -113t-47 -113t-113 -47t-113 47t-47 113z"/>
<glyph glyph-name="plusminus" horiz-adv-x="666" unicode="±" d="M80 32v102h506v-102h-506zM286 431v143h96v-143h204v-102h-204v-143h-96v143h-206v102h206z"/>
<glyph glyph-name="twosuperior" horiz-adv-x="400" unicode="²" d="M347 448h-291v76l162 161q36 36 36 70q0 22 -15 35.5t-38 13.5q-25 0 -42 -18.5t-19 -48.5l-88 12q7 59 48 97t101 38q61 0 103.5 -33.5t42.5 -94.5q0 -62 -69 -129l-100 -97h169v-82z"/>
<glyph glyph-name="threesuperior" horiz-adv-x="400" unicode="³" d="M354 573q0 -64 -45.5 -98t-107.5 -34q-125 0 -161 112l85 25q19 -58 73 -58q27 0 46 14t19 43q0 56 -88 56h-27v71h28q32 0 53.5 13.5t21.5 43.5q0 21 -14 33t-36 12q-47 0 -59 -53l-86 21q14 48 54 79t91 31q63 0 102.5 -30t39.5 -88q0 -62 -55 -93q66 -25 66 -100z"/>
<glyph glyph-name="acute" horiz-adv-x="260" unicode="´" d="M83 564l99 144h136l-141 -144h-94z"/>
<glyph glyph-name="mu" horiz-adv-x="611" unicode="µ" d="M577 95l4 -93q-30 -10 -69 -10q-90 0 -102 79h-2q-43 -85 -125 -85q-67 0 -89 35h-2v-261h-120v720h120v-264q0 -130 92 -130q49 0 79.5 37.5t30.5 92.5v264h120v-354q0 -37 35 -37q13 0 28 6z"/>
<glyph glyph-name="paragraph" horiz-adv-x="600" unicode="¶" d="M246 -126v464q-96 0 -155.5 51t-59.5 131q0 97 61.5 142.5t171.5 45.5h269v-834h-90v762h-107v-762h-90z"/>
<glyph glyph-name="periodcentered" horiz-adv-x="260" unicode="·" d="M50 291q0 32 23.5 55t56.5 23t56.5 -22t23.5 -54t-23.5 -55t-56.5 -23q-32 0 -56 22t-24 54z"/>
<glyph glyph-name="cedilla" horiz-adv-x="260" unicode="¸" d="M178 0l-45 -64q8 1 19 1q105 0 105 -83q0 -50 -41 -72t-95 -22q-61 0 -110 26l23 48q38 -20 82 -20q57 0 57 41q0 36 -53 36q-21 0 -39 -6l-23 25l62 90h58z"/>
<glyph glyph-name="onesuperior" horiz-adv-x="400" unicode="¹" d="M170 448v317l-73 -61l-53 62l137 111h83v-429h-94z"/>
<glyph glyph-name="ordmasculine" horiz-adv-x="380" unicode="º" d="M260 574q0 32 -18.5 53.5t-51.5 21.5t-51 -21.5t-18 -53.5q0 -31 18 -53t51 -22t51.5 22t18.5 53zM342 574q0 -64 -43 -106t-109 -42t-109 42t-43 106q0 65 43 106.5t109 41.5t109 -41.5t43 -106.5z"/>
<glyph glyph-name="guillemotright" horiz-adv-x="519" unicode="»" d="M39 73l115 173l-116 175l76 51l152 -226l-152 -224zM262 73l115 173l-116 175l76 51l152 -226l-152 -224z"/>
<glyph glyph-name="onequarter" horiz-adv-x="900" unicode="¼" d="M95 535l-53 62l137 111h83v-429h-94v317zM186 6l416 734l78 -38l-416 -734zM682 164v149h-1l-96 -149h97zM682 0v85h-190v74l179 270h97v-265h58v-79h-58v-85h-86z"/>
<glyph glyph-name="onehalf" horiz-adv-x="900" unicode="½" d="M95 535l-53 62l137 111h83v-429h-94v317zM771 179l-100 -97h169v-82h-291v76l162 161q36 36 36 70q0 22 -15 35.5t-38 13.5q-25 0 -42 -18.5t-19 -48.5l-88 12q7 59 48 97t101 38q61 0 103.5 -33.5t42.5 -94.5q0 -62 -69 -129zM186 6l416 734l78 -38l-416 -734z"/>
<glyph glyph-name="threequarters" horiz-adv-x="900" unicode="¾" d="M354 409q0 -64 -45.5 -98t-107.5 -34q-125 0 -161 112l85 25q19 -58 73 -58q27 0 46 14t19 43q0 56 -88 56h-27v71h28q32 0 53.5 13.5t21.5 43.5q0 21 -14 33t-36 12q-47 0 -59 -53l-86 21q14 48 54 79t91 31q63 0 102.5 -30t39.5 -88q0 -62 -55 -93q66 -25 66 -100z M186 6l416 734l78 -38l-416 -734zM682 164v149h-1l-96 -149h97zM682 0v85h-190v74l179 270h97v-265h58v-79h-58v-85h-86z"/>
<glyph glyph-name="questiondown" horiz-adv-x="519" unicode="¿" d="M333 424q0 -32 -23.5 -55t-56.5 -23t-56.5 22t-23.5 54t23.5 55t56.5 23q32 0 56 -22t24 -54zM195 285h118v-38q0 -48 -14 -79t-52 -67l-45 -43q-46 -42 -46 -89q0 -40 25.5 -66t68.5 -26q45 0 72.5 30.5t29.5 73.5l123 -11q-11 -94 -75 -148t-158 -54q-91 0 -152 51 t-61 142q0 58 23 94t77 83q41 36 53.5 57.5t12.5 63.5v26z"/>
<glyph glyph-name="Agrave" horiz-adv-x="706" unicode="À" d="M304 908l99 -144h-94l-141 144h136zM240 270h220l-109 288zM-8 0l308 708h109l305 -708h-144l-66 162h-307l-64 -162h-141z"/>
<glyph glyph-name="Aacute" horiz-adv-x="706" unicode="Á" d="M301 764l99 144h136l-141 -144h-94zM240 270h220l-109 288zM-8 0l308 708h109l305 -708h-144l-66 162h-307l-64 -162h-141z"/>
<glyph glyph-name="Acircumflex" horiz-adv-x="706" unicode="Â" d="M537 764h-114l-69 90l-69 -90h-112l115 144h135zM240 270h220l-109 288zM-8 0l308 708h109l305 -708h-144l-66 162h-307l-64 -162h-141z"/>
<glyph glyph-name="Atilde" horiz-adv-x="706" unicode="Ã" d="M236 768h-66q22 127 112 127q36 0 79 -18q45 -19 65 -19q33 0 46 42h66q-22 -127 -112 -127q-37 0 -82 20q-39 18 -62 18q-32 0 -46 -43zM240 270h220l-109 288zM-8 0l308 708h109l305 -708h-144l-66 162h-307l-64 -162h-141z"/>
<glyph glyph-name="Adieresis" horiz-adv-x="706" unicode="Ä" d="M382 844q0 28 20.5 49t50.5 21q31 0 52 -20t21 -50t-21 -50t-52 -20q-30 0 -50.5 21t-20.5 49zM186 844q0 28 20.5 49t50.5 21q31 0 52 -20t21 -50t-21 -50t-52 -20q-30 0 -50.5 21t-20.5 49zM240 270h220l-109 288zM-8 0l308 708h109l305 -708h-144l-66 162h-307 l-64 -162h-141z"/>
<glyph glyph-name="Aring" horiz-adv-x="706" unicode="Å" d="M412 855q0 25 -17 41t-42 16t-42 -16.5t-17 -41.5q0 -24 17 -40t42 -16t42 16t17 41zM458 855q0 -44 -30 -73t-75 -29q-44 0 -74.5 29t-30.5 72q0 44 30 73.5t75 29.5t75 -29t30 -73zM240 270h220l-109 288zM-8 0l308 708h109l305 -708h-144l-66 162h-307l-64 -162h-141z "/>
<glyph glyph-name="AE" horiz-adv-x="1046" unicode="Æ" d="M327 294h202v304h-15zM529 0v186h-268l-114 -186h-153l453 708h536v-110h-328v-180h310v-106h-310v-200h346v-112h-472z"/>
<glyph glyph-name="Ccedilla" horiz-adv-x="696" unicode="Ç" d="M685 618l-96 -76q-26 36 -70.5 54.5t-90.5 18.5q-108 0 -176.5 -74t-68.5 -185q0 -116 65.5 -188.5t174.5 -72.5q112 0 172 82l101 -71q-92 -117 -258 -123l-32 -47q8 1 19 1q105 0 105 -83q0 -50 -41 -72t-95 -22q-61 0 -110 26l23 48q38 -20 82 -20q57 0 57 41 q0 36 -53 36q-21 0 -39 -6l-23 25l51 74q-151 13 -244.5 115t-93.5 257q0 167 108.5 268.5t275.5 101.5q74 0 145.5 -27.5t111.5 -80.5z"/>
<glyph glyph-name="Egrave" d="M296 908l99 -144h-94l-141 144h136zM78 0v708h469v-110h-343v-180h325v-106h-325v-200h361v-112h-487z" unicode="È"/>
<glyph glyph-name="Eacute" d="M253 764l99 144h136l-141 -144h-94zM78 0v708h469v-110h-343v-180h325v-106h-325v-200h361v-112h-487z" unicode="É"/>
<glyph glyph-name="Ecircumflex" d="M499 764h-114l-69 90l-69 -90h-112l115 144h135zM78 0v708h469v-110h-343v-180h325v-106h-325v-200h361v-112h-487z" unicode="Ê"/>
<glyph glyph-name="Edieresis" d="M344 844q0 28 20.5 49t50.5 21q31 0 52 -20t21 -50t-21 -50t-52 -20q-30 0 -50.5 21t-20.5 49zM148 844q0 28 20.5 49t50.5 21q31 0 52 -20t21 -50t-21 -50t-52 -20q-30 0 -50.5 21t-20.5 49zM78 0v708h469v-110h-343v-180h325v-106h-325v-200h361v-112h-487z" unicode="Ë"/>
<glyph glyph-name="Igrave" horiz-adv-x="282" unicode="Ì" d="M104 908l99 -144h-94l-141 144h136zM78 0v708h126v-708h-126z"/>
<glyph glyph-name="Iacute" horiz-adv-x="282" unicode="Í" d="M78 764l99 144h136l-141 -144h-94zM78 0v708h126v-708h-126z"/>
<glyph glyph-name="Icircumflex" horiz-adv-x="282" unicode="Î" d="M322 764h-114l-69 90l-69 -90h-112l115 144h135zM78 0v708h126v-708h-126z"/>
<glyph glyph-name="Idieresis" horiz-adv-x="282" unicode="Ï" d="M167 844q0 28 20.5 49t50.5 21q31 0 52 -20t21 -50t-21 -50t-52 -20q-30 0 -50.5 21t-20.5 49zM-29 844q0 28 20.5 49t50.5 21q31 0 52 -20t21 -50t-21 -50t-52 -20q-30 0 -50.5 21t-20.5 49zM78 0v708h126v-708h-126z"/>
<glyph glyph-name="Eth" horiz-adv-x="764" unicode="Ð" d="M205 114h94q128 0 207.5 59t79.5 181q0 123 -71.5 181.5t-194.5 58.5h-115v-186h216v-84h-216v-210zM79 0v324h-66v84h66v300h279q150 0 255 -92t105 -262q0 -87 -34.5 -157t-90 -111.5t-120 -63.5t-130.5 -22h-264z"/>
<glyph glyph-name="Ntilde" horiz-adv-x="780" unicode="Ñ" d="M271 768h-66q22 127 112 127q36 0 79 -18q45 -19 65 -19q33 0 46 42h66q-22 -127 -112 -127q-37 0 -82 20q-39 18 -62 18q-32 0 -46 -43zM78 0v708h167l329 -530h2v530h126v-708h-160l-336 547h-2v-547h-126z"/>
<glyph glyph-name="Ograve" horiz-adv-x="849" unicode="Ò" d="M395 908l99 -144h-94l-141 144h136zM181 356q0 -114 68 -187.5t175 -73.5q108 0 176 73.5t68 187.5q0 111 -67.5 185t-176.5 74q-108 0 -175.5 -74t-67.5 -185zM44 356q0 168 106.5 269t272.5 101q168 0 275 -101t107 -269q0 -165 -107.5 -269.5t-274.5 -104.5 q-165 0 -272 104.5t-107 269.5z"/>
<glyph glyph-name="Oacute" horiz-adv-x="849" unicode="Ó" d="M361 764l99 144h136l-141 -144h-94zM181 356q0 -114 68 -187.5t175 -73.5q108 0 176 73.5t68 187.5q0 111 -67.5 185t-176.5 74q-108 0 -175.5 -74t-67.5 -185zM44 356q0 168 106.5 269t272.5 101q168 0 275 -101t107 -269q0 -165 -107.5 -269.5t-274.5 -104.5 q-165 0 -272 104.5t-107 269.5z"/>
<glyph glyph-name="Ocircumflex" horiz-adv-x="849" unicode="Ô" d="M611 764h-114l-69 90l-69 -90h-112l115 144h135zM181 356q0 -114 68 -187.5t175 -73.5q108 0 176 73.5t68 187.5q0 111 -67.5 185t-176.5 74q-108 0 -175.5 -74t-67.5 -185zM44 356q0 168 106.5 269t272.5 101q168 0 275 -101t107 -269q0 -165 -107.5 -269.5 t-274.5 -104.5q-165 0 -272 104.5t-107 269.5z"/>
<glyph glyph-name="Otilde" horiz-adv-x="849" unicode="Õ" d="M310 768h-66q22 127 112 127q36 0 79 -18q45 -19 65 -19q33 0 46 42h66q-22 -127 -112 -127q-37 0 -82 20q-39 18 -62 18q-32 0 -46 -43zM181 356q0 -114 68 -187.5t175 -73.5q108 0 176 73.5t68 187.5q0 111 -67.5 185t-176.5 74q-108 0 -175.5 -74t-67.5 -185zM44 356 q0 168 106.5 269t272.5 101q168 0 275 -101t107 -269q0 -165 -107.5 -269.5t-274.5 -104.5q-165 0 -272 104.5t-107 269.5z"/>
<glyph glyph-name="Odieresis" horiz-adv-x="849" unicode="Ö" d="M453 844q0 28 20.5 49t50.5 21q31 0 52 -20t21 -50t-21 -50t-52 -20q-30 0 -50.5 21t-20.5 49zM257 844q0 28 20.5 49t50.5 21q31 0 52 -20t21 -50t-21 -50t-52 -20q-30 0 -50.5 21t-20.5 49zM181 356q0 -114 68 -187.5t175 -73.5q108 0 176 73.5t68 187.5 q0 111 -67.5 185t-176.5 74q-108 0 -175.5 -74t-67.5 -185zM44 356q0 168 106.5 269t272.5 101q168 0 275 -101t107 -269q0 -165 -107.5 -269.5t-274.5 -104.5q-165 0 -272 104.5t-107 269.5z"/>
<glyph glyph-name="multiply" horiz-adv-x="666" unicode="×" d="M150 557l183 -183l182 182l70 -70l-181 -181l185 -186l-74 -74l-183 181l-181 -181l-74 73l185 182l-184 186z"/>
<glyph glyph-name="Oslash" horiz-adv-x="849" unicode="Ø" d="M175 356q0 -97 45 -159l349 378q-56 43 -145 43q-112 0 -180.5 -74t-68.5 -188zM674 356q0 107 -57 174l-352 -383q60 -55 159 -55q110 0 180 74t70 190zM44 356q0 168 106.5 269t272.5 101q130 0 225 -62l85 93l49 -43l-83 -91q106 -103 106 -267t-107.5 -267.5 t-274.5 -106.5q-141 0 -240 77l-85 -92l-50 43l87 94q-91 96 -91 252z"/>
<glyph glyph-name="Ugrave" horiz-adv-x="714" unicode="Ù" d="M338 908l99 -144h-94l-141 144h136zM642 708v-448q0 -126 -80.5 -202t-204.5 -76t-204.5 76t-80.5 202v448h126v-443q0 -71 38 -120.5t121 -49.5t121 49.5t38 120.5v443h126z"/>
<glyph glyph-name="Uacute" horiz-adv-x="714" unicode="Ú" d="M291 764l99 144h136l-141 -144h-94zM642 708v-448q0 -126 -80.5 -202t-204.5 -76t-204.5 76t-80.5 202v448h126v-443q0 -71 38 -120.5t121 -49.5t121 49.5t38 120.5v443h126z"/>
<glyph glyph-name="Ucircumflex" horiz-adv-x="714" unicode="Û" d="M541 764h-114l-69 90l-69 -90h-112l115 144h135zM642 708v-448q0 -126 -80.5 -202t-204.5 -76t-204.5 76t-80.5 202v448h126v-443q0 -71 38 -120.5t121 -49.5t121 49.5t38 120.5v443h126z"/>
<glyph glyph-name="Udieresis" horiz-adv-x="714" unicode="Ü" d="M385 844q0 28 20.5 49t50.5 21q31 0 52 -20t21 -50t-21 -50t-52 -20q-30 0 -50.5 21t-20.5 49zM189 844q0 28 20.5 49t50.5 21q31 0 52 -20t21 -50t-21 -50t-52 -20q-30 0 -50.5 21t-20.5 49zM642 708v-448q0 -126 -80.5 -202t-204.5 -76t-204.5 76t-80.5 202v448h126 v-443q0 -71 38 -120.5t121 -49.5t121 49.5t38 120.5v443h126z"/>
<glyph glyph-name="Yacute" horiz-adv-x="622" unicode="Ý" d="M266 764l99 144h136l-141 -144h-94zM249 0v307l-266 401h154l178 -298l180 298h146l-266 -401v-307h-126z"/>
<glyph glyph-name="Thorn" d="M204 265h88q157 0 157 104q0 57 -41.5 78t-111.5 21h-92v-203zM78 0v708h126v-134h105q267 0 267 -205q0 -110 -76 -160t-199 -50h-97v-159h-126z" unicode="Þ"/>
<glyph glyph-name="germandbls" horiz-adv-x="627" unicode="ß" d="M72 0v507q0 113 60.5 187t183.5 74q94 0 154 -56t60 -139q0 -52 -30.5 -94.5t-76.5 -54.5v-2q75 -13 119.5 -67.5t44.5 -132.5q0 -104 -67 -169t-180 -65q-44 0 -87 11v101q30 -10 70 -10q64 0 102.5 37.5t38.5 100.5q0 67 -43.5 101.5t-110.5 34.5h-13v102h15 q44 0 71.5 26.5t27.5 69.5q0 41 -25.5 71t-74.5 30q-65 0 -92 -48t-27 -114v-501h-120z"/>
<glyph glyph-name="agrave" horiz-adv-x="550" unicode="à" d="M236 708l99 -144h-94l-141 144h136zM368 202v17h-27q-183 0 -183 -80q0 -32 24.5 -46t59.5 -14q61 0 93.5 32.5t32.5 90.5zM370 0v61h-3q-18 -32 -58.5 -52.5t-90.5 -20.5q-69 0 -124.5 36.5t-55.5 112.5q0 41 20.5 71.5t51.5 47.5t77.5 27.5t88 13.5t92.5 3v12 q0 42 -31 65t-79 23q-76 0 -131 -55l-62 73q82 76 203 76q62 0 105.5 -17.5t66.5 -48t32.5 -64t9.5 -72.5v-292h-112z"/>
<glyph glyph-name="aacute" horiz-adv-x="550" unicode="á" d="M195 564l99 144h136l-141 -144h-94zM368 202v17h-27q-183 0 -183 -80q0 -32 24.5 -46t59.5 -14q61 0 93.5 32.5t32.5 90.5zM370 0v61h-3q-18 -32 -58.5 -52.5t-90.5 -20.5q-69 0 -124.5 36.5t-55.5 112.5q0 41 20.5 71.5t51.5 47.5t77.5 27.5t88 13.5t92.5 3v12 q0 42 -31 65t-79 23q-76 0 -131 -55l-62 73q82 76 203 76q62 0 105.5 -17.5t66.5 -48t32.5 -64t9.5 -72.5v-292h-112z"/>
<glyph glyph-name="acircumflex" horiz-adv-x="550" unicode="â" d="M456 564h-114l-69 90l-69 -90h-112l115 144h135zM368 202v17h-27q-183 0 -183 -80q0 -32 24.5 -46t59.5 -14q61 0 93.5 32.5t32.5 90.5zM370 0v61h-3q-18 -32 -58.5 -52.5t-90.5 -20.5q-69 0 -124.5 36.5t-55.5 112.5q0 41 20.5 71.5t51.5 47.5t77.5 27.5t88 13.5t92.5 3 v12q0 42 -31 65t-79 23q-76 0 -131 -55l-62 73q82 76 203 76q62 0 105.5 -17.5t66.5 -48t32.5 -64t9.5 -72.5v-292h-112z"/>
<glyph glyph-name="atilde" horiz-adv-x="550" unicode="ã" d="M153 568h-66q22 127 112 127q36 0 79 -18q45 -19 65 -19q33 0 46 42h66q-22 -127 -112 -127q-37 0 -82 20q-39 18 -62 18q-32 0 -46 -43zM368 202v17h-27q-183 0 -183 -80q0 -32 24.5 -46t59.5 -14q61 0 93.5 32.5t32.5 90.5zM370 0v61h-3q-18 -32 -58.5 -52.5 t-90.5 -20.5q-69 0 -124.5 36.5t-55.5 112.5q0 41 20.5 71.5t51.5 47.5t77.5 27.5t88 13.5t92.5 3v12q0 42 -31 65t-79 23q-76 0 -131 -55l-62 73q82 76 203 76q62 0 105.5 -17.5t66.5 -48t32.5 -64t9.5 -72.5v-292h-112z"/>
<glyph glyph-name="adieresis" horiz-adv-x="550" unicode="ä" d="M299 644q0 28 20.5 49t50.5 21q31 0 52 -20t21 -50t-21 -50t-52 -20q-30 0 -50.5 21t-20.5 49zM103 644q0 28 20.5 49t50.5 21q31 0 52 -20t21 -50t-21 -50t-52 -20q-30 0 -50.5 21t-20.5 49zM368 202v17h-27q-183 0 -183 -80q0 -32 24.5 -46t59.5 -14q61 0 93.5 32.5 t32.5 90.5zM370 0v61h-3q-18 -32 -58.5 -52.5t-90.5 -20.5q-69 0 -124.5 36.5t-55.5 112.5q0 41 20.5 71.5t51.5 47.5t77.5 27.5t88 13.5t92.5 3v12q0 42 -31 65t-79 23q-76 0 -131 -55l-62 73q82 76 203 76q62 0 105.5 -17.5t66.5 -48t32.5 -64t9.5 -72.5v-292h-112z"/>
<glyph glyph-name="aring" horiz-adv-x="550" unicode="å" d="M328 655q0 25 -17 41t-42 16t-42 -16.5t-17 -41.5q0 -24 17 -40t42 -16t42 16t17 41zM374 655q0 -44 -30 -73t-75 -29q-44 0 -74.5 29t-30.5 72q0 44 30 73.5t75 29.5t75 -29t30 -73zM368 202v17h-27q-183 0 -183 -80q0 -32 24.5 -46t59.5 -14q61 0 93.5 32.5t32.5 90.5z M370 0v61h-3q-18 -32 -58.5 -52.5t-90.5 -20.5q-69 0 -124.5 36.5t-55.5 112.5q0 41 20.5 71.5t51.5 47.5t77.5 27.5t88 13.5t92.5 3v12q0 42 -31 65t-79 23q-76 0 -131 -55l-62 73q82 76 203 76q62 0 105.5 -17.5t66.5 -48t32.5 -64t9.5 -72.5v-292h-112z"/>
<glyph glyph-name="ae" horiz-adv-x="887" unicode="æ" d="M477 288h246q0 50 -29 83t-84 33q-53 0 -91 -33t-42 -83zM368 186v16h-27q-94 0 -138.5 -12.5t-44.5 -50.5q0 -32 24.5 -46t59.5 -14q61 0 93.5 28t32.5 79zM611 494q104 0 168 -67t64 -193q0 -21 -1 -32h-365q6 -52 45 -85t92 -33q82 0 127 63l79 -65q-70 -96 -206 -96 q-130 0 -190 96q-51 -94 -201 -94q-44 0 -84.5 14t-70.5 49.5t-30 85.5q0 48 25 79.5t75 46.5t102 20t128 5v10q0 102 -109 102q-35 0 -71.5 -15.5t-60.5 -39.5l-61 73q81 76 202 76q58 0 99.5 -23.5t63.5 -58.5q60 82 180 82z"/>
<glyph glyph-name="ccedilla" horiz-adv-x="488" unicode="ç" d="M482 419l-82 -72q-14 20 -42 33.5t-57 13.5q-62 0 -97 -46.5t-35 -107.5q0 -62 36 -108t100 -46q66 0 101 43l75 -76q-58 -62 -165 -67l-35 -50q8 1 19 1q105 0 105 -83q0 -50 -41 -72t-95 -22q-61 0 -110 26l23 48q38 -20 82 -20q57 0 57 41q0 36 -53 36q-21 0 -39 -6 l-23 25l54 79q-95 13 -155.5 79.5t-60.5 171.5q0 114 74 184t183 70q53 0 103 -20t78 -55z"/>
<glyph glyph-name="egrave" horiz-adv-x="574" unicode="è" d="M260 708l99 -144h-94l-141 144h136zM530 234q0 -21 -1 -32h-365q4 -50 44 -84t93 -34q83 0 127 62l80 -64q-71 -96 -206 -96q-113 0 -185.5 68t-72.5 183t72 186t182 71q104 0 168 -67t64 -193zM164 288h246q0 50 -29 83t-84 33q-53 0 -91 -33t-42 -83z"/>
<glyph glyph-name="eacute" horiz-adv-x="574" unicode="é" d="M231 564l99 144h136l-141 -144h-94zM530 234q0 -21 -1 -32h-365q4 -50 44 -84t93 -34q83 0 127 62l80 -64q-71 -96 -206 -96q-113 0 -185.5 68t-72.5 183t72 186t182 71q104 0 168 -67t64 -193zM164 288h246q0 50 -29 83t-84 33q-53 0 -91 -33t-42 -83z"/>
<glyph glyph-name="ecircumflex" horiz-adv-x="574" unicode="ê" d="M484 564h-114l-69 90l-69 -90h-112l115 144h135zM530 234q0 -21 -1 -32h-365q4 -50 44 -84t93 -34q83 0 127 62l80 -64q-71 -96 -206 -96q-113 0 -185.5 68t-72.5 183t72 186t182 71q104 0 168 -67t64 -193zM164 288h246q0 50 -29 83t-84 33q-53 0 -91 -33t-42 -83z"/>
<glyph glyph-name="edieresis" horiz-adv-x="574" unicode="ë" d="M326 644q0 28 20.5 49t50.5 21q31 0 52 -20t21 -50t-21 -50t-52 -20q-30 0 -50.5 21t-20.5 49zM130 644q0 28 20.5 49t50.5 21q31 0 52 -20t21 -50t-21 -50t-52 -20q-30 0 -50.5 21t-20.5 49zM530 234q0 -21 -1 -32h-365q4 -50 44 -84t93 -34q83 0 127 62l80 -64 q-71 -96 -206 -96q-113 0 -185.5 68t-72.5 183t72 186t182 71q104 0 168 -67t64 -193zM164 288h246q0 50 -29 83t-84 33q-53 0 -91 -33t-42 -83z"/>
<glyph glyph-name="igrave" horiz-adv-x="268" unicode="ì" d="M94 708l99 -144h-94l-141 144h136zM74 0v480h120v-480h-120z"/>
<glyph glyph-name="iacute" horiz-adv-x="268" unicode="í" d="M75 564l99 144h136l-141 -144h-94zM74 0v480h120v-480h-120z"/>
<glyph glyph-name="icircumflex" horiz-adv-x="268" unicode="î" d="M317 564h-114l-69 90l-69 -90h-112l115 144h135zM74 0v480h120v-480h-120z"/>
<glyph glyph-name="idieresis" horiz-adv-x="268" unicode="ï" d="M161 644q0 28 20.5 49t50.5 21q31 0 52 -20t21 -50t-21 -50t-52 -20q-30 0 -50.5 21t-20.5 49zM-35 644q0 28 20.5 49t50.5 21q31 0 52 -20t21 -50t-21 -50t-52 -20q-30 0 -50.5 21t-20.5 49zM74 0v480h120v-480h-120z"/>
<glyph glyph-name="eth" d="M305 86q67 0 104 46t37 108t-37 108t-104 46t-104 -46t-37 -108t37 -108t104 -46zM442 768l64 -56l-117 -54q178 -195 178 -386q0 -127 -68.5 -206.5t-193.5 -79.5q-112 0 -186.5 71t-74.5 183q0 111 73.5 182.5t179.5 71.5q71 0 112 -40l2 2q-64 104 -127 156l-108 -50 l-60 57l110 50q-21 23 -78 65l94 55q46 -36 87 -74z" unicode="ð"/>
<glyph glyph-name="ntilde" horiz-adv-x="582" unicode="ñ" d="M175 568h-66q22 127 112 127q36 0 79 -18q45 -19 65 -19q33 0 46 42h66q-22 -127 -112 -127q-37 0 -82 20q-39 18 -62 18q-32 0 -46 -43zM72 0v480h114v-77h2q17 38 57.5 64.5t91.5 26.5q88 0 132.5 -56.5t44.5 -137.5v-300h-120v266q0 128 -90 128q-54 0 -83 -38.5 t-29 -91.5v-264h-120z"/>
<glyph glyph-name="ograve" d="M280 708l99 -144h-94l-141 144h136zM166 242q0 -62 36 -109t103 -47t103 47t36 109t-36 108t-103 46t-103 -46t-36 -108zM44 242q0 111 75 181.5t186 70.5t186 -70.5t75 -181.5q0 -112 -75.5 -184t-185.5 -72t-185.5 72t-75.5 184z" unicode="ò"/>
<glyph glyph-name="oacute" d="M233 564l99 144h136l-141 -144h-94zM166 242q0 -62 36 -109t103 -47t103 47t36 109t-36 108t-103 46t-103 -46t-36 -108zM44 242q0 111 75 181.5t186 70.5t186 -70.5t75 -181.5q0 -112 -75.5 -184t-185.5 -72t-185.5 72t-75.5 184z" unicode="ó"/>
<glyph glyph-name="ocircumflex" d="M489 564h-114l-69 90l-69 -90h-112l115 144h135zM166 242q0 -62 36 -109t103 -47t103 47t36 109t-36 108t-103 46t-103 -46t-36 -108zM44 242q0 111 75 181.5t186 70.5t186 -70.5t75 -181.5q0 -112 -75.5 -184t-185.5 -72t-185.5 72t-75.5 184z" unicode="ô"/>
<glyph glyph-name="otilde" d="M189 568h-66q22 127 112 127q36 0 79 -18q45 -19 65 -19q33 0 46 42h66q-22 -127 -112 -127q-37 0 -82 20q-39 18 -62 18q-32 0 -46 -43zM166 242q0 -62 36 -109t103 -47t103 47t36 109t-36 108t-103 46t-103 -46t-36 -108zM44 242q0 111 75 181.5t186 70.5t186 -70.5 t75 -181.5q0 -112 -75.5 -184t-185.5 -72t-185.5 72t-75.5 184z" unicode="õ"/>
<glyph glyph-name="odieresis" d="M333 644q0 28 20.5 49t50.5 21q31 0 52 -20t21 -50t-21 -50t-52 -20q-30 0 -50.5 21t-20.5 49zM137 644q0 28 20.5 49t50.5 21q31 0 52 -20t21 -50t-21 -50t-52 -20q-30 0 -50.5 21t-20.5 49zM166 242q0 -62 36 -109t103 -47t103 47t36 109t-36 108t-103 46t-103 -46 t-36 -108zM44 242q0 111 75 181.5t186 70.5t186 -70.5t75 -181.5q0 -112 -75.5 -184t-185.5 -72t-185.5 72t-75.5 184z" unicode="ö"/>
<glyph glyph-name="divide" horiz-adv-x="666" unicode="÷" d="M586 250h-506v107h506v-107zM258 123q0 31 22 53t53 22t53 -22t22 -53t-22 -53t-53 -22t-53 22t-22 53zM258 483q0 31 22 53t53 22t53 -22t22 -53t-22 -53t-53 -22t-53 22t-22 53z"/>
<glyph glyph-name="oslash" d="M533 516l42 -40l-69 -71q60 -69 60 -165q0 -112 -75 -183t-186 -71q-94 0 -159 51l-70 -71l-40 41l67 68q-59 67 -59 165q0 112 75 183t186 71q94 0 158 -50zM427 326l-209 -212q32 -31 87 -31q71 0 107 47.5t36 111.5q0 51 -21 84zM184 156l207 213q-36 31 -86 31 q-68 0 -105.5 -49t-37.5 -112q0 -54 22 -83z" unicode="ø"/>
<glyph glyph-name="ugrave" horiz-adv-x="582" unicode="ù" d="M264 708l99 -144h-94l-141 144h136zM510 480v-480h-114v77h-2q-17 -38 -57.5 -64.5t-91.5 -26.5q-88 0 -132.5 56.5t-44.5 137.5v300h120v-266q0 -128 90 -128q54 0 83 38.5t29 91.5v264h120z"/>
<glyph glyph-name="uacute" horiz-adv-x="582" unicode="ú" d="M225 564l99 144h136l-141 -144h-94zM510 480v-480h-114v77h-2q-17 -38 -57.5 -64.5t-91.5 -26.5q-88 0 -132.5 56.5t-44.5 137.5v300h120v-266q0 -128 90 -128q54 0 83 38.5t29 91.5v264h120z"/>
<glyph glyph-name="ucircumflex" horiz-adv-x="582" unicode="û" d="M475 564h-114l-69 90l-69 -90h-112l115 144h135zM510 480v-480h-114v77h-2q-17 -38 -57.5 -64.5t-91.5 -26.5q-88 0 -132.5 56.5t-44.5 137.5v300h120v-266q0 -128 90 -128q54 0 83 38.5t29 91.5v264h120z"/>
<glyph glyph-name="udieresis" horiz-adv-x="582" unicode="ü" d="M318 644q0 28 20.5 49t50.5 21q31 0 52 -20t21 -50t-21 -50t-52 -20q-30 0 -50.5 21t-20.5 49zM122 644q0 28 20.5 49t50.5 21q31 0 52 -20t21 -50t-21 -50t-52 -20q-30 0 -50.5 21t-20.5 49zM510 480v-480h-114v77h-2q-17 -38 -57.5 -64.5t-91.5 -26.5 q-88 0 -132.5 56.5t-44.5 137.5v300h120v-266q0 -128 90 -128q54 0 83 38.5t29 91.5v264h120z"/>
<glyph glyph-name="yacute" horiz-adv-x="513" unicode="ý" d="M205 564l99 144h136l-141 -144h-94zM206 0l-206 480h133l134 -349h2l119 349h125l-227 -583q-28 -71 -67.5 -104t-114.5 -33q-33 0 -62 7l10 104q22 -7 45 -7q36 0 52 16.5t33 58.5z"/>
<glyph glyph-name="thorn" horiz-adv-x="635" unicode="þ" d="M469 242q0 62 -36.5 108t-101.5 46q-63 0 -102 -48t-39 -108t39 -107t102 -47q65 0 101.5 47t36.5 109zM74 756h120v-337h3q60 75 161 75q102 0 167.5 -72t65.5 -180t-64.5 -182t-171.5 -74q-51 0 -95 22t-64 58h-2v-294h-120v984z"/>
<glyph glyph-name="OE" horiz-adv-x="1027" unicode="Œ" d="M435 708h529v-110h-328v-180h310v-106h-310v-200h346v-112h-547q-72 0 -139.5 21t-125 62.5t-92 111.5t-34.5 159q0 95 34.5 166.5t92.5 111t124 58t140 18.5zM455 112h55v486h-55q-276 0 -276 -244q0 -68 24 -117.5t66 -75.5t87.5 -37.5t98.5 -11.5z"/>
<glyph glyph-name="oe" horiz-adv-x="959" unicode="œ" d="M549 288h246q0 50 -29 83t-84 33q-53 0 -91 -33t-42 -83zM166 242q0 -62 36 -109t103 -47t103 47t36 109t-36 108t-103 46t-103 -46t-36 -108zM683 494q104 0 168 -67t64 -193q0 -21 -1 -32h-365q6 -52 45 -85t92 -33q82 0 127 63l79 -65q-70 -96 -206 -96 q-62 0 -113 24.5t-82 66.5q-31 -42 -81 -66.5t-109 -24.5q-110 0 -183.5 72t-73.5 184t73.5 182t183.5 70q60 0 111 -25.5t82 -67.5q72 93 189 93z"/>
<glyph glyph-name="Scaron" horiz-adv-x="574" unicode="Š" d="M128 908h114l69 -90l69 90h110l-115 -144h-133zM521 650l-82 -90q-20 27 -56.5 44t-73.5 17q-49 0 -87 -24.5t-38 -72.5q0 -24 8.5 -40.5t30 -29.5t40.5 -20t56 -19q35 -11 57.5 -19t54 -25.5t50 -37.5t32 -52.5t13.5 -72.5q0 -109 -73.5 -167.5t-184.5 -58.5 q-71 0 -136.5 26.5t-106.5 74.5l90 84q26 -35 69 -56.5t86 -21.5q51 0 89.5 26t38.5 79q0 18 -5 32.5t-18.5 26.5t-23.5 19.5t-35.5 17t-36.5 13.5t-44 14q-38 12 -65 25t-55.5 35.5t-43.5 58t-15 82.5q0 101 76.5 154.5t182.5 53.5q56 0 111.5 -19.5t94.5 -56.5z"/>
<glyph glyph-name="scaron" horiz-adv-x="444" unicode="š" d="M47 708h114l69 -90l69 90h110l-115 -144h-133zM413 421l-78 -69q-17 22 -45 37t-60 15t-54.5 -13t-22.5 -39q0 -25 23 -37t81 -26q31 -7 55 -16.5t48.5 -25.5t38 -42t13.5 -59q0 -82 -56.5 -121t-143.5 -39q-57 0 -110 21t-87 58l79 74q46 -60 123 -60q31 0 54 14t23 43 q0 28 -24.5 41.5t-85.5 27.5q-65 16 -103.5 45.5t-38.5 90.5q0 75 56 114t135 39q54 0 103 -19t77 -54z"/>
<glyph glyph-name="Ydieresis" horiz-adv-x="622" unicode="Ÿ" d="M341 844q0 28 20.5 49t50.5 21q31 0 52 -20t21 -50t-21 -50t-52 -20q-30 0 -50.5 21t-20.5 49zM145 844q0 28 20.5 49t50.5 21q31 0 52 -20t21 -50t-21 -50t-52 -20q-30 0 -50.5 21t-20.5 49zM249 0v307l-266 401h154l178 -298l180 298h146l-266 -401v-307h-126z"/>
<glyph glyph-name="circumflex" horiz-adv-x="260" unicode="ˆ" d="M312 564h-114l-69 90l-69 -90h-112l115 144h135z"/>
<glyph glyph-name="tilde" horiz-adv-x="260" unicode="˜" d="M12 568h-66q22 127 112 127q36 0 79 -18q45 -19 65 -19q33 0 46 42h66q-22 -127 -112 -127q-37 0 -82 20q-39 18 -62 18q-32 0 -46 -43z"/>
<glyph glyph-name="uni0394" horiz-adv-x="713" unicode="Δ" d="M354 558l-180 -451h361zM675 0h-637v107l265 601h109l263 -601v-107z"/>
<glyph glyph-name="uni03BC" horiz-adv-x="611" unicode="μ" d="M577 95l4 -93q-30 -10 -69 -10q-90 0 -102 79h-2q-43 -85 -125 -85q-67 0 -89 35h-2v-261h-120v720h120v-264q0 -130 92 -130q49 0 79.5 37.5t30.5 92.5v264h120v-354q0 -37 35 -37q13 0 28 6z"/>
<glyph glyph-name="pi" horiz-adv-x="663" unicode="π" d="M594 1q-32 -9 -68 -9q-68 0 -98 32t-30 108v249h-149l-60 -381h-115l63 381h-107v99h588v-99h-108v-248q0 -44 45 -44q22 0 35 4z"/>
<glyph glyph-name="endash" horiz-adv-x="400" unicode="–" d="M370 292v-92h-340v92h340z"/>
<glyph glyph-name="emdash" horiz-adv-x="600" unicode="—" d="M570 292v-92h-540v92h540z"/>
<glyph glyph-name="quoteleft" horiz-adv-x="270" unicode="‘" d="M228 708l-70 -264h-116l85 264h101z"/>
<glyph glyph-name="quotesinglbase" horiz-adv-x="270" unicode="‚" d="M42 -126l70 264h116l-85 -264h-101z"/>
<glyph glyph-name="quotedblleft" horiz-adv-x="465" unicode="“" d="M423 708l-70 -264h-116l85 264h101zM228 708l-70 -264h-116l85 264h101z"/>
<glyph glyph-name="quotedblright" horiz-adv-x="465" unicode="”" d="M42 444l70 264h116l-85 -264h-101zM237 444l70 264h116l-85 -264h-101z"/>
<glyph glyph-name="dagger" horiz-adv-x="593" unicode="†" d="M353 708v-203h199v-96h-199v-535h-114v535h-198v96h198v203h114z"/>
<glyph glyph-name="daggerdbl" horiz-adv-x="593" unicode="‡" d="M353 708v-185h193v-96h-193v-271h193v-96h-193v-186h-114v186h-192v96h192v271h-192v96h192v185h114z"/>
<glyph glyph-name="ellipsis" horiz-adv-x="1000" unicode="…" d="M753 70q0 32 23.5 55t56.5 23t56.5 -22t23.5 -54t-23.5 -55t-56.5 -23q-32 0 -56 22t-24 54zM420 70q0 32 23.5 55t56.5 23t56.5 -22t23.5 -54t-23.5 -55t-56.5 -23q-32 0 -56 22t-24 54zM87 70q0 32 23.5 55t56.5 23t56.5 -22t23.5 -54t-23.5 -55t-56.5 -23 q-32 0 -56 22t-24 54z"/>
<glyph glyph-name="perthousand" horiz-adv-x="1230" unicode="‰" d="M166 6l416 734l83 -38l-416 -734zM129 544q0 -38 24.5 -62.5t61.5 -24.5t62 24.5t25 62.5q0 37 -24.5 61.5t-62.5 24.5q-37 0 -61.5 -24t-24.5 -62zM39 544q0 73 51.5 124.5t124.5 51.5t125 -51.5t52 -124.5t-52 -125t-125 -52t-124.5 52t-51.5 125zM929 165 q0 -38 24.5 -62.5t61.5 -24.5t62 25t25 62t-24.5 61.5t-62.5 24.5q-37 0 -61.5 -24.5t-24.5 -61.5zM839 165q0 73 51.5 124.5t124.5 51.5t125 -51.5t52 -124.5t-52 -125t-125 -52t-124.5 52t-51.5 125zM533 165q0 -38 24.5 -62.5t61.5 -24.5t62 25t25 62t-24.5 61.5 t-62.5 24.5q-37 0 -61.5 -24.5t-24.5 -61.5zM443 165q0 73 51.5 124.5t124.5 51.5t125 -51.5t52 -124.5t-52 -125t-125 -52t-124.5 52t-51.5 125z"/>
<glyph glyph-name="guilsinglleft" horiz-adv-x="296" unicode="‹" d="M257 421l-115 -173l116 -175l-76 -51l-152 226l152 224z"/>
<glyph glyph-name="guilsinglright" horiz-adv-x="296" unicode="›" d="M39 73l115 173l-116 175l76 51l152 -226l-152 -224z"/>
<glyph glyph-name="fraction" horiz-adv-x="100" unicode="⁄" d="M-214 6l416 734l78 -38l-416 -734z"/>
<glyph glyph-name="Euro" d="M543 121l41 -96q-67 -43 -176 -43q-129 0 -206 67t-103 173h-84l28 86h45q-1 15 -1 44q0 27 3 48h-72l30 86h55q29 110 114 175t203 65q97 0 160 -33l-38 -100q-46 28 -128 28q-63 0 -116.5 -36t-73.5 -99h288l-28 -86h-279q-3 -21 -3 -49q0 -30 2 -43h256l-27 -86h-214 q14 -58 67 -96t126 -38q76 0 131 33z" unicode="€"/>
<glyph glyph-name="trademark" horiz-adv-x="1000" unicode="™" d="M465 296v412h142l98 -268l98 268h142v-412h-102v268h-2l-101 -268h-70l-101 268h-2v-268h-102zM162 296v322h-122v90h346v-90h-122v-322h-102z"/>
<glyph glyph-name="partialdiff" horiz-adv-x="556" unicode="∂" d="M398 264l-1 25q-57 64 -126 64q-59 0 -90.5 -41.5t-31.5 -102.5q0 -59 28.5 -98.5t85.5 -39.5q64 0 99.5 59.5t35.5 128.5v5zM514 358q0 -56 -6 -104.5t-23.5 -99t-45 -86.5t-73.5 -58.5t-107 -22.5q-98 0 -158.5 64.5t-60.5 163.5q0 97 60 159t156 62q77 0 143 -55v28v8 q0 52 -13 98.5t-48.5 82.5t-89.5 36q-61 0 -122 -49l-59 70q86 66 175 66q74 0 129 -31.5t85 -85t44 -115t14 -131.5z"/>
<glyph glyph-name="product" horiz-adv-x="741" unicode="∏" d="M679 -214h-114v897h-389v-897h-114v1000h617v-1000z"/>
<glyph glyph-name="summation" horiz-adv-x="648" unicode="∑" d="M624 -214h-599v89l303 417l-290 405v89h573v-103h-422l275 -390l-293 -404h453v-103z"/>
<glyph glyph-name="minus" horiz-adv-x="666" unicode="−" d="M62 354h542v-102h-542v102z"/>
<glyph glyph-name="radical" horiz-adv-x="537" unicode="√" d="M549 786l-211 -1000h-106l-152 317l-51 -25l-41 90l148 68l129 -273l168 823h116z"/>
<glyph glyph-name="infinity" horiz-adv-x="815" unicode="∞" d="M350 259q-81 86 -138 86q-34 0 -55.5 -25t-21.5 -60q0 -37 21.5 -59.5t58.5 -22.5q63 0 135 81zM680 260q0 37 -21.5 61.5t-58.5 24.5q-55 0 -135 -87q74 -82 138 -82q36 0 56.5 23.5t20.5 59.5zM770 263q0 -78 -46 -130t-123 -52q-56 0 -100.5 29.5t-92.5 82.5 q-27 -28 -42.5 -43t-40.5 -33.5t-51.5 -26.5t-57.5 -8q-77 0 -124 51t-47 129q0 77 45.5 128t121.5 51q59 0 103.5 -31t92.5 -88q48 57 92 88.5t102 31.5q76 0 122 -51t46 -128z"/>
<glyph glyph-name="approxequal" horiz-adv-x="666" unicode="≈" d="M600 243q-8 -75 -43 -123.5t-105 -48.5q-45 0 -136 35q-92 34 -118 34t-42.5 -20.5t-21.5 -47.5h-71q7 72 43 122t103 50q45 0 130 -33q91 -33 128 -33q26 0 41.5 18.5t20.5 46.5h71zM602 451q-8 -74 -43.5 -123t-105.5 -49q-47 0 -136 35q-94 34 -117 34 q-26 0 -42.5 -20.5t-21.5 -48.5h-71q7 72 40 118q38 55 106 55q45 0 130 -33q91 -33 128 -33q26 0 41.5 18.5t20.5 46.5h71z"/>
<glyph glyph-name="notequal" horiz-adv-x="666" unicode="≠" d="M586 162h-264l-74 -144l-88 45l50 99h-130v102h181l38 78h-219v102h270l72 143l90 -44l-51 -99h125v-102h-176l-38 -78h214v-102z"/>
<glyph glyph-name="lessequal" horiz-adv-x="666" unicode="≤" d="M586 4h-506v107h506v-107zM586 144l-506 170v108l506 177v-113l-359 -118l359 -112v-112z"/>
<glyph glyph-name="greaterequal" horiz-adv-x="666" unicode="≥" d="M80 4v107h506v-107h-506zM80 144v112l359 112l-359 118v113l506 -177v-108z"/>
<glyph glyph-name="lozenge" horiz-adv-x="593" unicode="◊" d="M415 356l-119 285l-118 -285l118 -286zM524 356l-178 -391h-100l-177 391l177 391h100z"/>
</font>
</defs>
</svg>
